osu file format v14

[General]
AudioFilename: audio.mp3
AudioLeadIn: 0
PreviewTime: 24967
Countdown: 0
SampleSet: None
StackLeniency: 0.7
Mode: 3
LetterboxInBreaks: 0
SpecialStyle: 0
WidescreenStoryboard: 1

[Editor]
DistanceSpacing: 0.8
BeatDivisor: 2
GridSize: 32
TimelineZoom: 1

[Metadata]
Title:Happy (short ver.)
TitleUnicode:Happy (short ver.)
Artist:Pharrell Williams
ArtistUnicode:Pharrell Williams
Creator:Apple_Bite
Version:Normal
Source:
Tags:Happy Pharrell Williams
BeatmapID:1370628
BeatmapSetID:646974

[Difficulty]
HPDrainRate:2
CircleSize:4
OverallDifficulty:2
ApproachRate:5
SliderMultiplier:1.4
SliderTickRate:1

[Events]
//Background and Video events
0,0,"maxresdefault.jpg",0,0
//Break Periods
//Storyboard Layer 0 (Background)
//Storyboard Layer 1 (Fail)
//Storyboard Layer 2 (Pass)
//Storyboard Layer 3 (Foreground)
//Storyboard Sound Samples

[TimingPoints]
2279.51898734177,375,4,2,0,5,1,0

[HitObjects]
448,192,404,5,0,0:0:0:2:
320,192,404,1,0,0:0:0:2:
64,192,404,1,0,0:0:0:2:
320,192,779,1,0,0:0:0:2:
448,192,779,1,0,0:0:0:2:
64,192,779,1,0,0:0:0:2:
448,192,1154,1,0,0:0:0:2:
320,192,1154,1,0,0:0:0:2:
64,192,1154,1,0,0:0:0:2:
320,192,1529,1,0,0:0:0:2:
448,192,1529,1,0,0:0:0:2:
64,192,1529,1,0,0:0:0:2:
448,192,1904,1,0,0:0:0:2:
320,192,1904,1,0,0:0:0:2:
64,192,1904,1,0,0:0:0:2:
192,192,2279,1,0,0:0:0:6:
320,192,2654,1,0,0:0:0:3:
64,192,2654,1,0,0:0:0:3:
448,192,3029,1,0,0:0:0:6:
192,192,3404,1,0,0:0:0:2:
320,192,3404,1,0,0:0:0:2:
64,192,3404,1,0,0:0:0:2:
192,192,3779,1,0,0:0:0:6:
320,192,4154,1,0,0:0:0:3:
64,192,4154,1,0,0:0:0:3:
320,192,4529,1,0,0:0:0:6:
192,192,4904,1,0,0:0:0:2:
448,192,4904,1,0,0:0:0:2:
64,192,4904,1,0,0:0:0:2:
192,192,5279,1,0,0:0:0:6:
320,192,5654,1,0,0:0:0:3:
64,192,5654,1,0,0:0:0:3:
448,192,6029,1,0,0:0:0:6:
320,192,6404,1,0,0:0:0:2:
192,192,6404,1,0,0:0:0:2:
448,192,6404,1,0,0:0:0:2:
320,192,6779,1,0,0:0:0:6:
64,192,7154,1,0,0:0:0:3:
448,192,7154,1,0,0:0:0:3:
192,192,7529,1,0,0:0:0:6:
448,192,7904,1,0,0:0:0:2:
64,192,7904,1,0,0:0:0:2:
192,192,7904,1,0,0:0:0:2:
320,192,8279,1,0,0:0:0:6:
192,192,8654,1,0,0:0:0:3:
320,192,8654,1,0,0:0:0:3:
448,192,9029,1,0,0:0:0:6:
192,192,9404,1,0,0:0:0:2:
320,192,9404,1,0,0:0:0:2:
64,192,9404,1,0,0:0:0:2:
320,192,9779,1,0,0:0:0:6:
64,192,10154,1,0,0:0:0:3:
192,192,10154,1,0,0:0:0:3:
448,192,10529,1,0,0:0:0:6:
448,192,10904,1,0,0:0:0:2:
64,192,10904,1,0,0:0:0:2:
320,192,10904,1,0,0:0:0:2:
64,192,11279,1,0,0:0:0:6:
320,192,11654,1,0,0:0:0:3:
448,192,11654,1,0,0:0:0:3:
192,192,12029,1,0,0:0:0:6:
192,192,12404,1,0,0:0:0:2:
448,192,12404,1,0,0:0:0:2:
320,192,12404,1,0,0:0:0:2:
64,192,12779,1,0,0:0:0:6:
192,192,13154,1,0,0:0:0:3:
448,192,13154,1,0,0:0:0:3:
320,192,13529,1,0,0:0:0:6:
448,192,13904,1,0,0:0:0:2:
64,192,13904,1,0,0:0:0:2:
192,192,13904,1,0,0:0:0:2:
192,192,14279,1,0,0:0:0:6:
320,192,14654,1,0,0:0:0:3:
448,192,14654,1,0,0:0:0:3:
64,192,15029,1,0,0:0:0:6:
448,192,15404,1,0,0:0:0:2:
320,192,15404,1,0,0:0:0:2:
64,192,15404,1,0,0:0:0:2:
320,192,15779,1,0,0:0:0:6:
64,192,16154,1,0,0:0:0:3:
448,192,16154,1,0,0:0:0:3:
192,192,16529,1,0,0:0:0:6:
64,192,16904,1,0,0:0:0:2:
448,192,16904,1,0,0:0:0:2:
192,192,16904,1,0,0:0:0:2:
320,192,17279,1,0,0:0:0:6:
192,192,17654,1,0,0:0:0:3:
64,192,17654,1,0,0:0:0:3:
448,192,18029,1,0,0:0:0:6:
192,192,18404,1,0,0:0:0:2:
448,192,18404,1,0,0:0:0:2:
320,192,18404,1,0,0:0:0:2:
320,192,18779,1,0,0:0:0:6:
192,192,19154,1,0,0:0:0:3:
320,192,19154,1,0,0:0:0:3:
64,192,19529,1,0,0:0:0:6:
320,192,19904,1,0,0:0:0:2:
64,192,19904,1,0,0:0:0:2:
192,192,19904,1,0,0:0:0:2:
448,192,20279,1,0,0:0:0:6:
320,192,20654,1,0,0:0:0:3:
192,192,20654,1,0,0:0:0:3:
192,192,21029,1,0,0:0:0:6:
64,192,21404,1,0,0:0:0:2:
320,192,21404,1,0,0:0:0:2:
448,192,21404,1,0,0:0:0:2:
320,192,21779,1,0,0:0:0:6:
64,192,22154,1,0,0:0:0:3:
192,192,22154,1,0,0:0:0:3:
448,192,22529,1,0,0:0:0:6:
192,192,22904,1,0,0:0:0:2:
320,192,22904,1,0,0:0:0:2:
448,192,22904,1,0,0:0:0:2:
192,192,23279,1,0,0:0:0:6:
64,192,23654,1,0,0:0:0:3:
192,192,23654,1,0,0:0:0:3:
320,192,24029,1,0,0:0:0:6:
320,192,24404,1,0,0:0:0:2:
192,192,24404,1,0,0:0:0:2:
64,192,24404,1,0,0:0:0:2:
192,192,24779,1,0,0:0:0:6:
64,192,25154,1,0,0:0:0:3:
320,192,25154,1,0,0:0:0:3:
448,192,25342,1,0,0:0:0:6:
192,192,25529,1,0,0:0:0:6:
64,192,25904,128,0,30779:0:0:0:6:
320,192,26279,1,0,0:0:0:3:
192,192,26279,1,0,0:0:0:3:
448,192,26467,1,0,0:0:0:0:
448,192,26654,1,0,0:0:0:6:
192,192,27029,1,0,0:0:0:3:
320,192,27029,1,0,0:0:0:3:
320,192,27404,1,0,0:0:0:6:
192,192,27779,1,0,0:0:0:3:
320,192,27779,1,0,0:0:0:3:
192,192,28154,1,0,0:0:0:6:
192,192,28529,1,0,0:0:0:3:
320,192,28529,1,0,0:0:0:3:
448,192,28717,1,0,0:0:0:6:
320,192,28904,1,0,0:0:0:6:
448,192,29092,1,0,0:0:0:6:
320,192,29279,1,0,0:0:0:3:
448,192,29279,1,0,0:0:0:3:
192,192,29654,1,0,0:0:0:0:
320,192,30029,1,0,0:0:0:3:
448,192,30029,1,0,0:0:0:3:
320,192,30217,1,0,0:0:0:0:
320,192,30779,1,0,0:0:0:3:
448,192,30779,1,0,0:0:0:3:
64,192,31154,1,0,0:0:0:6:
192,192,31342,1,0,0:0:0:6:
320,192,31529,1,0,0:0:0:3:
448,192,31529,1,0,0:0:0:3:
448,192,31904,128,0,36779:0:0:0:6:
64,192,32279,1,0,0:0:0:3:
320,192,32279,1,0,0:0:0:3:
192,192,32467,1,0,0:0:0:0:
192,192,32654,1,0,0:0:0:6:
64,192,33029,1,0,0:0:0:3:
320,192,33029,1,0,0:0:0:3:
192,192,33404,1,0,0:0:0:6:
64,192,33779,1,0,0:0:0:3:
320,192,33779,1,0,0:0:0:3:
320,192,34154,1,0,0:0:0:6:
64,192,34529,1,0,0:0:0:3:
320,192,34529,1,0,0:0:0:3:
64,192,34904,1,0,0:0:0:6:
192,192,35092,1,0,0:0:0:0:
192,192,35279,1,0,0:0:0:3:
64,192,35279,1,0,0:0:0:3:
192,192,35654,1,0,0:0:0:0:
64,192,36029,1,0,0:0:0:3:
192,192,36029,1,0,0:0:0:3:
320,192,36217,1,0,0:0:0:0:
192,192,36779,1,0,0:0:0:3:
64,192,36779,1,0,0:0:0:3:
320,192,37154,1,0,0:0:0:6:
320,192,37342,1,0,0:0:0:6:
64,192,37529,1,0,0:0:0:3:
192,192,37529,1,0,0:0:0:0:
192,192,37904,128,0,42779:0:0:0:0:
448,192,38279,1,0,0:0:0:3:
64,192,38279,1,0,0:0:0:3:
448,192,38467,1,0,0:0:0:0:
448,192,38654,1,0,0:0:0:6:
448,192,39029,1,0,0:0:0:3:
64,192,39029,1,0,0:0:0:3:
320,192,39404,1,0,0:0:0:6:
448,192,39779,1,0,0:0:0:3:
64,192,39779,1,0,0:0:0:3:
64,192,40154,1,0,0:0:0:6:
64,192,40529,1,0,0:0:0:3:
448,192,40529,1,0,0:0:0:0:
448,192,40904,1,0,0:0:0:6:
448,192,41092,1,0,0:0:0:6:
64,192,41279,1,0,0:0:0:3:
320,192,41279,1,0,0:0:0:3:
448,192,41654,1,0,0:0:0:6:
64,192,42029,1,0,0:0:0:3:
320,192,42029,1,0,0:0:0:3:
448,192,42217,1,0,0:0:0:0:
64,192,42779,1,0,0:0:0:3:
320,192,42779,1,0,0:0:0:0:
448,192,43154,1,0,0:0:0:6:
320,192,43342,1,0,0:0:0:6:
64,192,43529,1,0,0:0:0:3:
320,192,43529,1,0,0:0:0:0:
320,192,43904,128,0,48779:0:0:0:0:
448,192,44279,1,0,0:0:0:0:
192,192,44279,1,0,0:0:0:0:
448,192,44467,1,0,0:0:0:0:
64,192,44654,1,0,0:0:0:0:
448,192,45029,1,0,0:0:0:0:
192,192,45029,1,0,0:0:0:0:
64,192,45404,1,0,0:0:0:6:
192,192,45779,1,0,0:0:0:3:
448,192,45779,1,0,0:0:0:0:
448,192,46154,1,0,0:0:0:6:
192,192,46529,1,0,0:0:0:3:
448,192,46529,1,0,0:0:0:0:
192,192,46904,1,0,0:0:0:6:
192,192,47279,1,0,0:0:0:3:
64,192,47279,1,0,0:0:0:0:
64,192,47467,1,0,0:0:0:6:
448,192,47654,1,0,0:0:0:6:
192,192,48029,1,0,0:0:0:3:
64,192,48029,1,0,0:0:0:0:
64,192,48217,1,0,0:0:0:0:
64,192,48779,1,0,0:0:0:2:
192,192,48779,1,0,0:0:0:0:
64,192,49154,1,0,0:0:0:0:
320,192,49154,1,0,0:0:0:0:
192,192,49529,1,0,0:0:0:0:
64,192,49529,1,0,0:0:0:0:
320,192,49904,1,0,0:0:0:2:
448,192,49904,1,0,0:0:0:0:
192,192,49904,1,0,0:0:0:0:
192,192,50279,1,0,0:0:0:0:
64,192,50654,1,0,0:0:0:0:
320,192,50654,1,0,0:0:0:0:
192,192,51029,1,0,0:0:0:0:
64,192,51404,1,0,0:0:0:6:
320,192,51404,1,0,0:0:0:0:
448,192,51404,1,0,0:0:0:0:
192,192,51779,1,0,0:0:0:6:
192,192,52154,1,0,0:0:0:3:
320,192,52154,1,0,0:0:0:0:
448,192,52529,1,0,0:0:0:0:
448,192,52904,1,0,0:0:0:0:
192,192,52904,1,0,0:0:0:0:
64,192,52904,1,0,0:0:0:0:
320,192,53279,1,0,0:0:0:6:
64,192,53654,1,0,0:0:0:0:
192,192,53654,1,0,0:0:0:0:
448,192,54029,1,0,0:0:0:0:
192,192,54404,1,0,0:0:0:0:
320,192,54404,1,0,0:0:0:0:
448,192,54404,1,0,0:0:0:0:
448,192,54779,1,0,0:0:0:6:
448,192,55154,1,0,0:0:0:0:
192,192,55154,1,0,0:0:0:0:
64,192,55529,1,0,0:0:0:0:
192,192,55904,1,0,0:0:0:0:
64,192,55904,1,0,0:0:0:0:
320,192,55904,1,0,0:0:0:0:
448,192,56279,1,0,0:0:0:0:
192,192,56654,1,0,0:0:0:0:
320,192,56654,1,0,0:0:0:0:
192,192,57029,1,0,0:0:0:0:
320,192,57404,1,0,0:0:0:0:
64,192,57404,1,0,0:0:0:0:
448,192,57404,1,0,0:0:0:0:
320,192,57779,1,0,0:0:0:0:
192,192,58154,1,0,0:0:0:0:
64,192,58154,1,0,0:0:0:0:
448,192,58529,1,0,0:0:0:6:
64,192,58904,1,0,0:0:0:0:
192,192,58904,1,0,0:0:0:0:
320,192,58904,1,0,0:0:0:0:
320,192,59279,1,0,0:0:0:6:
320,192,59654,1,0,0:0:0:0:
192,192,59654,1,0,0:0:0:0:
448,192,60029,1,0,0:0:0:6:
448,192,60404,1,0,0:0:0:0:
320,192,60404,1,0,0:0:0:0:
192,192,60404,1,0,0:0:0:0:
320,192,60779,1,0,0:0:0:0:
192,192,61154,1,0,0:0:0:3:
64,192,61154,1,0,0:0:0:0:
192,192,61529,1,0,0:0:0:0:
448,192,61904,1,0,0:0:0:0:
192,192,61904,1,0,0:0:0:0:
64,192,61904,1,0,0:0:0:0:
320,192,62279,1,0,0:0:0:0:
64,192,62654,1,0,0:0:0:3:
192,192,63029,1,0,0:0:0:6:
320,192,63029,1,0,0:0:0:0:
320,192,63404,1,0,0:0:0:6:
448,192,63779,1,0,0:0:0:6:
192,192,63779,1,0,0:0:0:0:
64,192,63779,1,0,0:0:0:0:
448,192,64154,1,0,0:0:0:3:
192,192,64529,1,0,0:0:0:6:
64,192,64529,1,0,0:0:0:0:
320,192,64904,1,0,0:0:0:6:
192,192,65279,1,0,0:0:0:6:
448,192,65279,1,0,0:0:0:0:
320,192,65279,1,0,0:0:0:0:
64,192,65654,1,0,0:0:0:3:
192,192,66029,1,0,0:0:0:0:
448,192,66029,1,0,0:0:0:0:
192,192,66404,1,0,0:0:0:6:
448,192,66779,1,0,0:0:0:6:
64,192,66779,1,0,0:0:0:0:
320,192,66779,1,0,0:0:0:0:
320,192,67154,1,0,0:0:0:0:
192,192,67529,1,0,0:0:0:0:
320,192,67529,1,0,0:0:0:0:
64,192,67904,1,0,0:0:0:0:
192,192,68279,1,0,0:0:0:0:
320,192,68279,1,0,0:0:0:0:
448,192,68279,1,0,0:0:0:0:
320,192,68654,1,0,0:0:0:0:
192,192,69029,1,0,0:0:0:0:
64,192,69029,1,0,0:0:0:0:
448,192,69404,1,0,0:0:0:0:
320,192,69779,1,0,0:0:0:0:
192,192,69779,1,0,0:0:0:0:
64,192,69779,1,0,0:0:0:0:
192,192,70154,1,0,0:0:0:0:
320,192,70529,1,0,0:0:0:0:
64,192,70529,1,0,0:0:0:0:
320,192,70904,1,0,0:0:0:0:
192,192,71279,1,0,0:0:0:0:
448,192,71279,1,0,0:0:0:0:
64,192,71279,1,0,0:0:0:0:
320,192,71654,1,0,0:0:0:0:
448,192,72029,1,0,0:0:0:0:
320,192,72029,1,0,0:0:0:0:
192,192,72404,1,0,0:0:0:0:
192,192,72779,1,0,0:0:0:0:
320,192,72779,1,0,0:0:0:0:
448,192,72779,1,0,0:0:0:0:
64,192,73154,1,0,0:0:0:0:
320,192,73342,1,0,0:0:0:0:
192,192,73529,1,0,0:0:0:0:
448,192,73529,1,0,0:0:0:0:
192,192,73904,128,0,78779:0:0:0:0:
64,192,74279,1,0,0:0:0:0:
448,192,74279,1,0,0:0:0:0:
320,192,74467,1,0,0:0:0:0:
448,192,74654,1,0,0:0:0:0:
64,192,75029,1,0,0:0:0:0:
448,192,75029,1,0,0:0:0:0:
64,192,75404,1,0,0:0:0:0:
64,192,75779,1,0,0:0:0:0:
448,192,75779,1,0,0:0:0:0:
320,192,76154,1,0,0:0:0:0:
64,192,76529,1,0,0:0:0:0:
448,192,76529,1,0,0:0:0:0:
320,192,76717,1,0,0:0:0:0:
320,192,76904,1,0,0:0:0:0:
320,192,77279,1,0,0:0:0:0:
448,192,77279,1,0,0:0:0:0:
448,192,77467,1,0,0:0:0:0:
64,192,77842,1,0,0:0:0:0:
320,192,78029,1,0,0:0:0:0:
448,192,78029,1,0,0:0:0:0:
64,192,78217,1,0,0:0:0:0:
320,192,78779,1,0,0:0:0:0:
448,192,78779,1,0,0:0:0:0:
64,192,79154,1,0,0:0:0:0:
192,192,79342,1,0,0:0:0:0:
320,192,79529,1,0,0:0:0:0:
448,192,79529,1,0,0:0:0:0:
64,192,79904,128,0,84779:0:0:0:0:
448,192,80279,1,0,0:0:0:0:
192,192,80279,1,0,0:0:0:0:
320,192,80467,1,0,0:0:0:0:
320,192,80654,1,0,0:0:0:0:
448,192,81029,1,0,0:0:0:0:
192,192,81029,1,0,0:0:0:0:
192,192,81404,1,0,0:0:0:0:
192,192,81779,1,0,0:0:0:0:
448,192,81779,1,0,0:0:0:0:
448,192,82154,1,0,0:0:0:0:
192,192,82529,1,0,0:0:0:0:
448,192,82529,1,0,0:0:0:0:
320,192,82904,1,0,0:0:0:0:
448,192,83092,1,0,0:0:0:0:
320,192,83279,1,0,0:0:0:0:
192,192,83279,1,0,0:0:0:0:
320,192,83654,1,0,0:0:0:0:
192,192,84029,1,0,0:0:0:0:
320,192,84029,1,0,0:0:0:0:
448,192,84217,1,0,0:0:0:0:
192,192,84779,1,0,0:0:0:0:
320,192,84779,1,0,0:0:0:0:
448,192,85154,1,0,0:0:0:0:
64,192,85342,1,0,0:0:0:0:
192,192,85529,1,0,0:0:0:0:
320,192,85529,1,0,0:0:0:0:
448,192,85904,128,0,90779:0:0:0:0:
320,192,86279,1,0,0:0:0:0:
64,192,86279,1,0,0:0:0:0:
192,192,86467,1,0,0:0:0:0:
64,192,86654,1,0,0:0:0:0:
64,192,87029,1,0,0:0:0:0:
320,192,87029,1,0,0:0:0:0:
192,192,87404,1,0,0:0:0:0:
320,192,87779,1,0,0:0:0:0:
64,192,87779,1,0,0:0:0:0:
320,192,88154,1,0,0:0:0:0:
64,192,88529,1,0,0:0:0:0:
320,192,88529,1,0,0:0:0:0:
192,192,88904,1,0,0:0:0:0:
320,192,89092,1,0,0:0:0:0:
192,192,89279,1,0,0:0:0:0:
64,192,89279,1,0,0:0:0:0:
64,192,89654,1,0,0:0:0:0:
64,192,90029,1,0,0:0:0:0:
192,192,90029,1,0,0:0:0:0:
320,192,90217,1,0,0:0:0:0:
192,192,90779,1,0,0:0:0:0:
64,192,90779,1,0,0:0:0:0:
448,192,91154,1,0,0:0:0:0:
320,192,91342,1,0,0:0:0:0:
64,192,91529,1,0,0:0:0:0:
192,192,91529,1,0,0:0:0:0:
320,192,91904,128,0,96779:0:0:0:0:
192,192,92279,1,0,0:0:0:0:
448,192,92279,1,0,0:0:0:0:
192,192,92467,1,0,0:0:0:0:
64,192,92654,1,0,0:0:0:0:
192,192,93029,1,0,0:0:0:0:
448,192,93029,1,0,0:0:0:0:
64,192,93404,1,0,0:0:0:0:
192,192,93779,1,0,0:0:0:0:
448,192,93779,1,0,0:0:0:0:
448,192,94154,1,0,0:0:0:0:
192,192,94529,1,0,0:0:0:0:
448,192,94529,1,0,0:0:0:0:
192,192,94904,1,0,0:0:0:0:
64,192,95279,1,0,0:0:0:0:
448,192,95279,1,0,0:0:0:0:
192,192,95467,1,0,0:0:0:0:
448,192,95654,1,0,0:0:0:0:
64,192,96029,1,0,0:0:0:0:
448,192,96029,1,0,0:0:0:0:
192,192,96217,1,0,0:0:0:0:
192,192,96404,1,0,0:0:0:0:
448,192,96779,1,0,0:0:0:0:
64,192,96779,1,0,0:0:0:0:
64,192,97529,1,0,0:0:0:0:
448,192,97529,1,0,0:0:0:0:
192,192,97904,1,0,0:0:0:0:
448,192,98279,1,0,0:0:0:0:
320,192,98467,1,0,0:0:0:0:
192,192,98654,1,0,0:0:0:0:
64,192,98842,1,0,0:0:0:0:
192,192,99029,1,0,0:0:0:0:
448,192,99217,1,0,0:0:0:0:
320,192,99404,1,0,0:0:0:0:
192,192,99592,1,0,0:0:0:0:
64,192,99779,1,0,0:0:0:0:
320,192,99967,1,0,0:0:0:0:
448,192,100154,1,0,0:0:0:0:
64,192,100342,1,0,0:0:0:0:
192,192,100529,1,0,0:0:0:0:
64,192,100717,1,0,0:0:0:0:
320,192,100904,1,0,0:0:0:0:
192,192,101092,1,0,0:0:0:0:
64,192,101279,1,0,0:0:0:0:
192,192,101467,1,0,0:0:0:0:
320,192,101654,1,0,0:0:0:0:
448,192,101842,1,0,0:0:0:0:
320,192,102029,1,0,0:0:0:0:
64,192,102217,1,0,0:0:0:0:
192,192,102404,1,0,0:0:0:0:
448,192,102592,1,0,0:0:0:0:
320,192,102779,1,0,0:0:0:0:
448,192,102967,1,0,0:0:0:0:
64,192,103154,1,0,0:0:0:0:
192,192,103342,1,0,0:0:0:0:
320,192,103529,1,0,0:0:0:0:
64,192,103717,1,0,0:0:0:0:
192,192,103904,1,0,0:0:0:0:
320,192,103904,128,0,104467:0:0:0:0:
64,192,104092,1,0,0:0:0:0:
448,192,104279,1,0,0:0:0:0:
64,192,104654,1,0,0:0:0:0:
192,192,104842,1,0,0:0:0:0:
320,192,105029,1,0,0:0:0:0:
64,192,105217,1,0,0:0:0:0:
192,192,105404,1,0,0:0:0:0:
448,192,105592,1,0,0:0:0:0:
320,192,105779,1,0,0:0:0:0:
192,192,105967,1,0,0:0:0:0:
64,192,106154,1,0,0:0:0:0:
192,192,106342,1,0,0:0:0:0:
448,192,106529,1,0,0:0:0:0:
320,192,106717,1,0,0:0:0:0:
64,192,106904,1,0,0:0:0:0:
192,192,107092,1,0,0:0:0:0:
448,192,107279,1,0,0:0:0:0:
64,192,107467,1,0,0:0:0:0:
448,192,107654,1,0,0:0:0:0:
64,192,107842,1,0,0:0:0:0:
320,192,108029,1,0,0:0:0:0:
192,192,108217,1,0,0:0:0:0:
320,192,108404,1,0,0:0:0:0:
192,192,108592,1,0,0:0:0:0:
64,192,108779,1,0,0:0:0:0:
320,192,108967,1,0,0:0:0:0:
192,192,109154,1,0,0:0:0:0:
448,192,109342,1,0,0:0:0:0:
320,192,109529,1,0,0:0:0:0:
64,192,109717,1,0,0:0:0:0:
192,192,109904,1,0,0:0:0:0:
448,192,110092,1,0,0:0:0:0:
64,192,110279,1,0,0:0:0:0:
320,192,110467,1,0,0:0:0:0:
192,192,110654,1,0,0:0:0:0:
64,192,110842,1,0,0:0:0:0:
448,192,111029,1,0,0:0:0:0:
192,192,111217,1,0,0:0:0:0:
320,192,111404,1,0,0:0:0:0:
64,192,111592,1,0,0:0:0:0:
192,192,111779,1,0,0:0:0:0:
64,192,111967,1,0,0:0:0:0:
320,192,112154,1,0,0:0:0:0:
448,192,112342,1,0,0:0:0:0:
192,192,112529,1,0,0:0:0:0:
320,192,112717,1,0,0:0:0:0:
448,192,112904,1,0,0:0:0:0:
64,192,113092,1,0,0:0:0:0:
320,192,113279,1,0,0:0:0:0:
448,192,113467,1,0,0:0:0:0:
192,192,113654,1,0,0:0:0:0:
320,192,113842,1,0,0:0:0:0:
64,192,114029,1,0,0:0:0:0:
192,192,114217,1,0,0:0:0:0:
320,192,114404,1,0,0:0:0:0:
448,192,114592,1,0,0:0:0:0:
192,192,114779,1,0,0:0:0:0:
64,192,114967,1,0,0:0:0:0:
320,192,115154,1,0,0:0:0:0:
448,192,115342,1,0,0:0:0:0:
192,192,115529,1,0,0:0:0:0:
320,192,115717,1,0,0:0:0:0:
64,192,115904,1,0,0:0:0:0:
320,192,115904,128,0,116467:0:0:0:0:
448,192,116092,1,0,0:0:0:0:
192,192,116279,1,0,0:0:0:0:
192,192,116654,1,0,0:0:0:0:
64,192,116842,1,0,0:0:0:0:
448,192,117029,1,0,0:0:0:0:
192,192,117217,1,0,0:0:0:0:
320,192,117404,1,0,0:0:0:0:
64,192,117592,1,0,0:0:0:0:
448,192,117779,1,0,0:0:0:0:
192,192,117967,1,0,0:0:0:0:
64,192,118154,1,0,0:0:0:0:
448,192,118342,1,0,0:0:0:0:
320,192,118529,1,0,0:0:0:0:
192,192,118717,1,0,0:0:0:0:
64,192,118904,1,0,0:0:0:0:
320,192,119092,1,0,0:0:0:0:
192,192,119279,1,0,0:0:0:0:
448,192,119467,1,0,0:0:0:0:
320,192,119654,1,0,0:0:0:0:
192,192,119842,1,0,0:0:0:0:
64,192,120029,1,0,0:0:0:0:
320,192,120217,1,0,0:0:0:0:
192,192,120404,1,0,0:0:0:0:
448,192,120592,1,0,0:0:0:0:
64,192,120779,1,0,0:0:0:0:
192,192,120967,1,0,0:0:0:0:
320,192,121154,1,0,0:0:0:0:
448,192,121342,1,0,0:0:0:0:
64,192,121529,1,0,0:0:0:0:
448,192,121904,128,0,126779:0:0:0:0:
320,192,122279,1,0,0:0:0:0:
64,192,122279,1,0,0:0:0:0:
192,192,122467,1,0,0:0:0:0:
320,192,122654,1,0,0:0:0:0:
64,192,123029,1,0,0:0:0:0:
320,192,123029,1,0,0:0:0:0:
192,192,123404,1,0,0:0:0:0:
64,192,123779,1,0,0:0:0:0:
320,192,123779,1,0,0:0:0:0:
64,192,124154,1,0,0:0:0:0:
64,192,124529,1,0,0:0:0:0:
320,192,124529,1,0,0:0:0:0:
320,192,124717,1,0,0:0:0:0:
192,192,124904,1,0,0:0:0:0:
192,192,125279,1,0,0:0:0:0:
320,192,125279,1,0,0:0:0:0:
64,192,125654,1,0,0:0:0:0:
192,192,126029,1,0,0:0:0:0:
320,192,126029,1,0,0:0:0:0:
192,192,126217,1,0,0:0:0:0:
192,192,126779,1,0,0:0:0:0:
320,192,126779,1,0,0:0:0:0:
448,192,127154,1,0,0:0:0:0:
64,192,127342,1,0,0:0:0:0:
192,192,127529,1,0,0:0:0:0:
320,192,127529,1,0,0:0:0:0:
192,192,127904,128,0,132779:0:0:0:0:
320,192,128279,1,0,0:0:0:0:
64,192,128279,1,0,0:0:0:0:
320,192,128467,1,0,0:0:0:0:
448,192,128654,1,0,0:0:0:0:
320,192,129029,1,0,0:0:0:0:
64,192,129029,1,0,0:0:0:0:
320,192,129404,1,0,0:0:0:0:
64,192,129779,1,0,0:0:0:0:
320,192,129779,1,0,0:0:0:0:
448,192,130154,1,0,0:0:0:0:
320,192,130529,1,0,0:0:0:0:
64,192,130529,1,0,0:0:0:0:
64,192,130904,1,0,0:0:0:0:
320,192,131092,1,0,0:0:0:0:
448,192,131279,1,0,0:0:0:0:
320,192,131279,1,0,0:0:0:0:
64,192,131654,1,0,0:0:0:0:
448,192,132029,1,0,0:0:0:0:
320,192,132029,1,0,0:0:0:0:
320,192,132217,1,0,0:0:0:0:
320,192,132779,1,0,0:0:0:0:
448,192,132779,1,0,0:0:0:0:
192,192,133154,1,0,0:0:0:0:
64,192,133342,1,0,0:0:0:0:
448,192,133529,1,0,0:0:0:0:
320,192,133529,1,0,0:0:0:0:
64,192,133904,128,0,138779:0:0:0:0:
192,192,134279,1,0,0:0:0:0:
448,192,134279,1,0,0:0:0:0:
320,192,134467,1,0,0:0:0:0:
320,192,134654,1,0,0:0:0:0:
192,192,135029,1,0,0:0:0:0:
448,192,135029,1,0,0:0:0:0:
320,192,135404,1,0,0:0:0:0:
192,192,135779,1,0,0:0:0:0:
448,192,135779,1,0,0:0:0:0:
448,192,136154,1,0,0:0:0:0:
192,192,136529,1,0,0:0:0:0:
448,192,136529,1,0,0:0:0:0:
192,192,136904,1,0,0:0:0:0:
320,192,137092,1,0,0:0:0:0:
192,192,137279,1,0,0:0:0:0:
320,192,137279,1,0,0:0:0:0:
448,192,137654,1,0,0:0:0:0:
192,192,138029,1,0,0:0:0:0:
320,192,138029,1,0,0:0:0:0:
320,192,138217,1,0,0:0:0:0:
192,192,138779,1,0,0:0:0:0:
320,192,138779,1,0,0:0:0:0:
320,192,139154,1,0,0:0:0:0:
192,192,139342,1,0,0:0:0:0:
192,192,139529,1,0,0:0:0:0:
320,192,139529,1,0,0:0:0:0:
320,192,139904,128,0,144779:0:0:0:0:
192,192,140279,1,0,0:0:0:0:
64,192,140279,1,0,0:0:0:0:
448,192,140467,1,0,0:0:0:0:
448,192,140654,1,0,0:0:0:0:
64,192,141029,1,0,0:0:0:0:
192,192,141029,1,0,0:0:0:0:
192,192,141404,1,0,0:0:0:0:
64,192,141779,1,0,0:0:0:0:
192,192,141779,1,0,0:0:0:0:
448,192,142154,1,0,0:0:0:0:
64,192,142529,1,0,0:0:0:0:
192,192,142529,1,0,0:0:0:0:
192,192,142904,1,0,0:0:0:0:
64,192,143279,1,0,0:0:0:0:
448,192,143279,1,0,0:0:0:0:
192,192,143467,1,0,0:0:0:0:
192,192,143654,1,0,0:0:0:0:
64,192,144029,1,0,0:0:0:0:
448,192,144029,1,0,0:0:0:0:
64,192,144217,1,0,0:0:0:0:
64,192,144779,1,0,0:0:0:0:
448,192,144779,1,0,0:0:0:0:
192,192,145154,1,0,0:0:0:0:
320,192,145342,1,0,0:0:0:0:
64,192,145529,1,0,0:0:0:0:
448,192,145529,1,0,0:0:0:0:
448,192,145904,128,0,150779:0:0:0:0:
64,192,146279,1,0,0:0:0:0:
320,192,146279,1,0,0:0:0:0:
192,192,146467,1,0,0:0:0:0:
64,192,146654,1,0,0:0:0:0:
320,192,147029,1,0,0:0:0:0:
64,192,147029,1,0,0:0:0:0:
192,192,147404,1,0,0:0:0:0:
64,192,147779,1,0,0:0:0:0:
320,192,147779,1,0,0:0:0:0:
192,192,148154,1,0,0:0:0:0:
320,192,148529,1,0,0:0:0:0:
64,192,148529,1,0,0:0:0:0:
192,192,148717,1,0,0:0:0:0:
64,192,148904,1,0,0:0:0:0:
192,192,149279,1,0,0:0:0:0:
320,192,149279,1,0,0:0:0:0:
320,192,149654,1,0,0:0:0:0:
192,192,150029,1,0,0:0:0:0:
320,192,150029,1,0,0:0:0:0:
64,192,150217,1,0,0:0:0:0:
192,192,150779,1,0,0:0:0:0:
320,192,150779,1,0,0:0:0:0:
64,192,151154,1,0,0:0:0:0:
192,192,151342,1,0,0:0:0:0:
192,192,151529,1,0,0:0:0:0:
320,192,151529,1,0,0:0:0:0:
192,192,151904,128,0,156779:0:0:0:0:
64,192,152279,1,0,0:0:0:0:
448,192,152279,1,0,0:0:0:0:
448,192,152467,1,0,0:0:0:0:
320,192,152654,1,0,0:0:0:0:
448,192,153029,1,0,0:0:0:0:
64,192,153029,1,0,0:0:0:0:
320,192,153404,1,0,0:0:0:0:
64,192,153779,1,0,0:0:0:0:
448,192,153779,1,0,0:0:0:0:
64,192,154154,1,0,0:0:0:0:
64,192,154529,1,0,0:0:0:0:
448,192,154529,1,0,0:0:0:0:
320,192,154904,1,0,0:0:0:0:
448,192,155092,1,0,0:0:0:0:
320,192,155279,1,0,0:0:0:0:
64,192,155279,1,0,0:0:0:0:
448,192,155654,1,0,0:0:0:0:
320,192,156029,1,0,0:0:0:0:
64,192,156029,1,0,0:0:0:0:
448,192,156217,1,0,0:0:0:0:
320,192,156779,1,0,0:0:0:0:
64,192,156779,1,0,0:0:0:0:
448,192,157154,1,0,0:0:0:0:
192,192,157342,1,0,0:0:0:0:
320,192,157529,1,0,0:0:0:0:
64,192,157529,1,0,0:0:0:0:
192,192,157904,128,0,162779:0:0:0:0:
448,192,158279,1,0,0:0:0:0:
320,192,158279,1,0,0:0:0:0:
448,192,158467,1,0,0:0:0:0:
320,192,158654,1,0,0:0:0:0:
448,192,159029,1,0,0:0:0:0:
320,192,159029,1,0,0:0:0:0:
64,192,159404,1,0,0:0:0:0:
448,192,159779,1,0,0:0:0:0:
320,192,159779,1,0,0:0:0:0:
448,192,160154,1,0,0:0:0:0:
448,192,160529,1,0,0:0:0:0:
320,192,160529,1,0,0:0:0:0:
448,192,160904,1,0,0:0:0:0:
320,192,161092,1,0,0:0:0:0:
64,192,161279,1,0,0:0:0:0:
320,192,161279,1,0,0:0:0:0:
448,192,161654,1,0,0:0:0:0:
64,192,162029,1,0,0:0:0:0:
320,192,162029,1,0,0:0:0:0:
64,192,162217,1,0,0:0:0:0:
64,192,162779,1,0,0:0:0:0:
320,192,162779,1,0,0:0:0:0:
448,192,163154,1,0,0:0:0:0:
192,192,163342,1,0,0:0:0:0:
64,192,163529,1,0,0:0:0:0:
320,192,163529,1,0,0:0:0:0:
320,192,163904,128,0,168779:0:0:0:0:
448,192,164279,1,0,0:0:0:0:
192,192,164279,1,0,0:0:0:0:
64,192,164467,1,0,0:0:0:0:
64,192,164654,1,0,0:0:0:0:
448,192,165029,1,0,0:0:0:0:
192,192,165029,1,0,0:0:0:0:
64,192,165404,1,0,0:0:0:0:
448,192,165779,1,0,0:0:0:0:
192,192,165779,1,0,0:0:0:0:
448,192,166154,1,0,0:0:0:0:
448,192,166529,1,0,0:0:0:0:
192,192,166529,1,0,0:0:0:0:
64,192,166904,1,0,0:0:0:0:
192,192,167279,1,0,0:0:0:0:
64,192,167279,1,0,0:0:0:0:
448,192,167467,1,0,0:0:0:0:
448,192,167654,1,0,0:0:0:0:
192,192,168029,1,0,0:0:0:0:
64,192,168029,1,0,0:0:0:0:
448,192,168217,1,0,0:0:0:0:
192,192,168779,1,0,0:0:0:0:
64,192,168779,1,0,0:0:0:0:
192,192,169529,1,0,0:0:0:0:
64,192,169529,1,0,0:0:0:0:
320,192,169717,1,0,0:0:0:0:
