osu file format v14

[General]
AudioFilename: audio.mp3
AudioLeadIn: 0
PreviewTime: 24967
Countdown: 0
SampleSet: None
StackLeniency: 0.7
Mode: 3
LetterboxInBreaks: 0
SpecialStyle: 0
WidescreenStoryboard: 0

[Editor]
DistanceSpacing: 0.8
BeatDivisor: 2
GridSize: 32
TimelineZoom: 1

[Metadata]
Title:Happy (short ver.)
TitleUnicode:Happy (short ver.)
Artist:Pharrell Williams
ArtistUnicode:Pharrell Williams
Creator:Apple_Bite
Version:Easy
Source:
Tags:Happy Pharrell Williams
BeatmapID:1370626
BeatmapSetID:646974

[Difficulty]
HPDrainRate:1.5
CircleSize:4
OverallDifficulty:1.5
ApproachRate:5
SliderMultiplier:1.4
SliderTickRate:1

[Events]
//Background and Video events
0,0,"maxresdefault.jpg",0,0
//Break Periods
//Storyboard Layer 0 (Background)
//Storyboard Layer 1 (Fail)
//Storyboard Layer 2 (Pass)
//Storyboard Layer 3 (Foreground)
//Storyboard Sound Samples

[TimingPoints]
2279.51898734177,375,4,2,0,5,1,0

[HitObjects]
64,192,404,5,0,0:0:0:3:
192,192,404,1,0,0:0:0:3:
64,192,779,1,0,0:0:0:3:
192,192,779,1,0,0:0:0:3:
64,192,1154,1,0,0:0:0:3:
192,192,1154,1,0,0:0:0:3:
64,192,1529,1,0,0:0:0:3:
192,192,1529,1,0,0:0:0:3:
64,192,1904,1,0,0:0:0:3:
192,192,1904,1,0,0:0:0:3:
320,192,2279,1,0,0:0:0:6:
192,192,2654,1,0,0:0:0:6:
320,192,3029,1,0,0:0:0:6:
448,192,3404,1,0,0:0:0:3:
192,192,3404,1,0,0:0:0:3:
64,192,3779,1,0,0:0:0:6:
448,192,4154,1,0,0:0:0:6:
64,192,4529,1,0,0:0:0:6:
192,192,4904,1,0,0:0:0:3:
320,192,4904,1,0,0:0:0:3:
448,192,5279,1,0,0:0:0:6:
320,192,5654,1,0,0:0:0:6:
448,192,6029,1,0,0:0:0:6:
320,192,6404,1,0,0:0:0:3:
64,192,6404,1,0,0:0:0:3:
192,192,6779,1,0,0:0:0:6:
320,192,7154,1,0,0:0:0:6:
192,192,7529,1,0,0:0:0:6:
320,192,7904,1,0,0:0:0:3:
448,192,7904,1,0,0:0:0:3:
64,192,8279,1,0,0:0:0:6:
320,192,8654,1,0,0:0:0:6:
64,192,9029,1,0,0:0:0:6:
64,192,9404,1,0,0:0:0:3:
448,192,9404,1,0,0:0:0:3:
448,192,9779,1,0,0:0:0:6:
64,192,10154,1,0,0:0:0:6:
448,192,10529,1,0,0:0:0:6:
192,192,10904,1,0,0:0:0:3:
320,192,10904,1,0,0:0:0:3:
64,192,11279,1,0,0:0:0:6:
320,192,11654,1,0,0:0:0:6:
448,192,12029,1,0,0:0:0:6:
192,192,12404,1,0,0:0:0:3:
448,192,12404,1,0,0:0:0:3:
320,192,12779,1,0,0:0:0:6:
192,192,13154,1,0,0:0:0:6:
64,192,13529,1,0,0:0:0:6:
448,192,13904,1,0,0:0:0:3:
320,192,13904,1,0,0:0:0:3:
192,192,14279,1,0,0:0:0:6:
320,192,14654,1,0,0:0:0:6:
64,192,15029,1,0,0:0:0:6:
192,192,15404,1,0,0:0:0:3:
64,192,15404,1,0,0:0:0:3:
320,192,15779,1,0,0:0:0:6:
64,192,16154,1,0,0:0:0:6:
192,192,16529,1,0,0:0:0:6:
64,192,16904,1,0,0:0:0:3:
320,192,16904,1,0,0:0:0:3:
320,192,17279,1,0,0:0:0:6:
192,192,17654,1,0,0:0:0:6:
448,192,18029,1,0,0:0:0:6:
320,192,18404,1,0,0:0:0:3:
192,192,18404,1,0,0:0:0:3:
64,192,18779,1,0,0:0:0:6:
192,192,19154,1,0,0:0:0:6:
64,192,19529,1,0,0:0:0:6:
320,192,19904,1,0,0:0:0:3:
448,192,19904,1,0,0:0:0:3:
192,192,20279,1,0,0:0:0:6:
320,192,20654,1,0,0:0:0:6:
192,192,21029,1,0,0:0:0:6:
64,192,21404,1,0,0:0:0:3:
320,192,21404,1,0,0:0:0:3:
192,192,21779,1,0,0:0:0:6:
64,192,22154,1,0,0:0:0:6:
448,192,22529,1,0,0:0:0:6:
192,192,22904,1,0,0:0:0:3:
320,192,22904,1,0,0:0:0:3:
192,192,23279,1,0,0:0:0:6:
320,192,23654,1,0,0:0:0:6:
64,192,24029,1,0,0:0:0:6:
448,192,24404,1,0,0:0:0:3:
320,192,24404,1,0,0:0:0:3:
192,192,24779,1,0,0:0:0:6:
64,192,25154,1,0,0:0:0:6:
192,192,25529,1,0,0:0:0:6:
448,192,25904,128,0,30779:0:0:0:6:
64,192,26279,1,0,0:0:0:3:
192,192,26279,1,0,0:0:0:3:
64,192,27029,1,0,0:0:0:3:
192,192,27029,1,0,0:0:0:3:
64,192,27779,1,0,0:0:0:3:
192,192,27779,1,0,0:0:0:3:
64,192,28529,1,0,0:0:0:3:
192,192,28529,1,0,0:0:0:3:
320,192,29279,1,0,0:0:0:3:
64,192,29279,1,0,0:0:0:3:
64,192,30029,1,0,0:0:0:3:
320,192,30029,1,0,0:0:0:3:
64,192,30779,1,0,0:0:0:3:
320,192,30779,1,0,0:0:0:3:
64,192,31529,1,0,0:0:0:3:
320,192,31529,1,0,0:0:0:3:
192,192,31904,128,0,36779:0:0:0:6:
64,192,32279,1,0,0:0:0:3:
448,192,32279,1,0,0:0:0:3:
448,192,33029,1,0,0:0:0:3:
64,192,33029,1,0,0:0:0:3:
64,192,33779,1,0,0:0:0:3:
448,192,33779,1,0,0:0:0:3:
64,192,34529,1,0,0:0:0:3:
448,192,34529,1,0,0:0:0:3:
320,192,35279,1,0,0:0:0:3:
448,192,35279,1,0,0:0:0:3:
320,192,36029,1,0,0:0:0:3:
448,192,36029,1,0,0:0:0:3:
320,192,36779,1,0,0:0:0:3:
448,192,36779,1,0,0:0:0:3:
320,192,37529,1,0,0:0:0:3:
448,192,37529,1,0,0:0:0:3:
320,192,37904,128,0,42779:0:0:0:6:
192,192,38279,1,0,0:0:0:3:
64,192,38279,1,0,0:0:0:3:
192,192,39029,1,0,0:0:0:3:
64,192,39029,1,0,0:0:0:3:
64,192,39779,1,0,0:0:0:3:
192,192,39779,1,0,0:0:0:3:
64,192,40529,1,0,0:0:0:3:
192,192,40529,1,0,0:0:0:3:
192,192,41279,1,0,0:0:0:3:
448,192,41279,1,0,0:0:0:3:
192,192,42029,1,0,0:0:0:3:
448,192,42029,1,0,0:0:0:3:
192,192,42779,1,0,0:0:0:3:
448,192,42779,1,0,0:0:0:3:
192,192,43529,1,0,0:0:0:3:
448,192,43529,1,0,0:0:0:3:
64,192,43904,128,0,48779:0:0:0:6:
192,192,44279,1,0,0:0:0:3:
320,192,44279,1,0,0:0:0:3:
192,192,45029,1,0,0:0:0:3:
320,192,45029,1,0,0:0:0:3:
192,192,45779,1,0,0:0:0:3:
320,192,45779,1,0,0:0:0:3:
192,192,46529,1,0,0:0:0:3:
320,192,46529,1,0,0:0:0:3:
192,192,47279,1,0,0:0:0:3:
448,192,47279,1,0,0:0:0:3:
192,192,48029,1,0,0:0:0:3:
448,192,48029,1,0,0:0:0:3:
192,192,48779,1,0,0:0:0:3:
448,192,48779,1,0,0:0:0:3:
192,192,49529,1,0,0:0:0:3:
448,192,49529,1,0,0:0:0:3:
64,192,49904,1,0,0:0:0:3:
320,192,49904,1,0,0:0:0:3:
448,192,50279,1,0,0:0:0:6:
192,192,50654,1,0,0:0:0:6:
320,192,51029,1,0,0:0:0:6:
64,192,51404,1,0,0:0:0:3:
448,192,51404,1,0,0:0:0:3:
192,192,51779,1,0,0:0:0:6:
320,192,52154,1,0,0:0:0:6:
192,192,52529,1,0,0:0:0:6:
320,192,52904,1,0,0:0:0:3:
448,192,52904,1,0,0:0:0:3:
448,192,53279,1,0,0:0:0:6:
320,192,53654,1,0,0:0:0:6:
192,192,54029,1,0,0:0:0:6:
64,192,54404,1,0,0:0:0:3:
192,192,54404,1,0,0:0:0:3:
192,192,54779,1,0,0:0:0:6:
320,192,55154,1,0,0:0:0:6:
64,192,55529,1,0,0:0:0:6:
320,192,55904,1,0,0:0:0:3:
192,192,55904,1,0,0:0:0:3:
448,192,56279,1,0,0:0:0:6:
64,192,56654,1,0,0:0:0:6:
448,192,57029,1,0,0:0:0:6:
192,192,57404,1,0,0:0:0:3:
448,192,57404,1,0,0:0:0:3:
320,192,57779,1,0,0:0:0:6:
192,192,58154,1,0,0:0:0:6:
448,192,58529,1,0,0:0:0:6:
320,192,58904,1,0,0:0:0:3:
64,192,58904,1,0,0:0:0:3:
192,192,59279,1,0,0:0:0:6:
448,192,59654,1,0,0:0:0:6:
320,192,60029,1,0,0:0:0:6:
320,192,60404,1,0,0:0:0:3:
448,192,60404,1,0,0:0:0:3:
192,192,60779,1,0,0:0:0:6:
64,192,61154,1,0,0:0:0:6:
192,192,61529,1,0,0:0:0:6:
320,192,61904,1,0,0:0:0:3:
64,192,61904,1,0,0:0:0:3:
448,192,62279,1,0,0:0:0:6:
320,192,62654,1,0,0:0:0:6:
192,192,63029,1,0,0:0:0:6:
320,192,63404,1,0,0:0:0:3:
448,192,63404,1,0,0:0:0:3:
320,192,63779,1,0,0:0:0:6:
192,192,64154,1,0,0:0:0:6:
64,192,64529,1,0,0:0:0:6:
192,192,64904,1,0,0:0:0:3:
320,192,64904,1,0,0:0:0:3:
192,192,65279,1,0,0:0:0:6:
64,192,65654,1,0,0:0:0:6:
448,192,66029,1,0,0:0:0:6:
192,192,66404,1,0,0:0:0:3:
64,192,66404,1,0,0:0:0:3:
320,192,66779,1,0,0:0:0:6:
448,192,67154,1,0,0:0:0:6:
64,192,67529,1,0,0:0:0:6:
448,192,67904,1,0,0:0:0:3:
320,192,67904,1,0,0:0:0:3:
64,192,68279,1,0,0:0:0:6:
192,192,68654,1,0,0:0:0:6:
320,192,69029,1,0,0:0:0:6:
192,192,69404,1,0,0:0:0:3:
320,192,69404,1,0,0:0:0:3:
192,192,69779,1,0,0:0:0:6:
320,192,70154,1,0,0:0:0:6:
448,192,70529,1,0,0:0:0:6:
320,192,70904,1,0,0:0:0:3:
64,192,70904,1,0,0:0:0:3:
320,192,71279,1,0,0:0:0:6:
448,192,71654,1,0,0:0:0:6:
64,192,72029,1,0,0:0:0:6:
192,192,72404,1,0,0:0:0:3:
448,192,72404,1,0,0:0:0:3:
320,192,72779,1,0,0:0:0:6:
448,192,73154,1,0,0:0:0:6:
320,192,73529,1,0,0:0:0:6:
320,192,73904,128,0,78779:0:0:0:6:
448,192,74279,1,0,0:0:0:3:
64,192,74279,1,0,0:0:0:3:
64,192,75029,1,0,0:0:0:3:
448,192,75029,1,0,0:0:0:3:
448,192,75779,1,0,0:0:0:3:
64,192,75779,1,0,0:0:0:3:
64,192,76529,1,0,0:0:0:3:
448,192,76529,1,0,0:0:0:3:
192,192,77279,1,0,0:0:0:3:
64,192,77279,1,0,0:0:0:3:
64,192,78029,1,0,0:0:0:3:
192,192,78029,1,0,0:0:0:3:
64,192,78779,1,0,0:0:0:3:
192,192,78779,1,0,0:0:0:3:
64,192,79529,1,0,0:0:0:3:
192,192,79529,1,0,0:0:0:3:
192,192,79904,128,0,84779:0:0:0:6:
320,192,80279,1,0,0:0:0:3:
448,192,80279,1,0,0:0:0:3:
320,192,81029,1,0,0:0:0:3:
448,192,81029,1,0,0:0:0:3:
320,192,81779,1,0,0:0:0:3:
448,192,81779,1,0,0:0:0:3:
320,192,82529,1,0,0:0:0:3:
448,192,82529,1,0,0:0:0:3:
320,192,83279,1,0,0:0:0:3:
64,192,83279,1,0,0:0:0:3:
64,192,84029,1,0,0:0:0:3:
320,192,84029,1,0,0:0:0:3:
320,192,84779,1,0,0:0:0:3:
64,192,84779,1,0,0:0:0:3:
64,192,85529,1,0,0:0:0:3:
320,192,85529,1,0,0:0:0:3:
64,192,85904,128,0,90779:0:0:0:6:
192,192,86279,1,0,0:0:0:3:
320,192,86279,1,0,0:0:0:3:
192,192,87029,1,0,0:0:0:3:
320,192,87029,1,0,0:0:0:3:
192,192,87779,1,0,0:0:0:3:
320,192,87779,1,0,0:0:0:3:
192,192,88529,1,0,0:0:0:3:
320,192,88529,1,0,0:0:0:3:
448,192,89279,1,0,0:0:0:3:
192,192,89279,1,0,0:0:0:3:
192,192,90029,1,0,0:0:0:3:
448,192,90029,1,0,0:0:0:3:
192,192,90779,1,0,0:0:0:3:
448,192,90779,1,0,0:0:0:3:
192,192,91529,1,0,0:0:0:3:
448,192,91529,1,0,0:0:0:3:
448,192,91904,128,0,96779:0:0:0:6:
320,192,92279,1,0,0:0:0:3:
64,192,92279,1,0,0:0:0:3:
320,192,93029,1,0,0:0:0:3:
64,192,93029,1,0,0:0:0:3:
320,192,93779,1,0,0:0:0:3:
64,192,93779,1,0,0:0:0:3:
320,192,94529,1,0,0:0:0:3:
64,192,94529,1,0,0:0:0:3:
192,192,95279,1,0,0:0:0:3:
64,192,95279,1,0,0:0:0:3:
192,192,96029,1,0,0:0:0:3:
64,192,96029,1,0,0:0:0:3:
192,192,96779,1,0,0:0:0:3:
64,192,96779,1,0,0:0:0:3:
192,192,97529,1,0,0:0:0:3:
64,192,97529,1,0,0:0:0:3:
320,192,97904,1,0,0:0:0:6:
192,192,98654,1,0,0:0:0:6:
64,192,98842,1,0,0:0:0:6:
192,192,99217,1,0,0:0:0:6:
320,192,100154,1,0,0:0:0:6:
320,192,100529,1,0,0:0:0:6:
64,192,101279,1,0,0:0:0:6:
448,192,101654,1,0,0:0:0:6:
320,192,101842,1,0,0:0:0:6:
448,192,102217,1,0,0:0:0:6:
192,192,102967,1,0,0:0:0:6:
192,192,103154,1,0,0:0:0:6:
192,192,103342,1,0,0:0:0:6:
192,192,103529,1,0,0:0:0:6:
192,192,103717,128,0,104279:0:0:0:6:
64,192,104654,1,0,0:0:0:6:
320,192,104842,1,0,0:0:0:6:
64,192,105217,1,0,0:0:0:6:
448,192,106154,1,0,0:0:0:6:
448,192,106529,1,0,0:0:0:6:
192,192,107092,1,0,0:0:0:6:
320,192,107654,1,0,0:0:0:6:
64,192,107842,1,0,0:0:0:6:
320,192,108217,1,0,0:0:0:6:
448,192,108592,1,0,0:0:0:6:
448,192,108779,1,0,0:0:0:6:
448,192,108967,1,0,0:0:0:6:
192,192,109154,1,0,0:0:0:6:
64,192,109342,1,0,0:0:0:6:
192,192,109529,128,0,110092:0:0:0:6:
64,192,110092,1,0,0:0:0:6:
192,192,110654,1,0,0:0:0:6:
64,192,110842,1,0,0:0:0:6:
448,192,111217,1,0,0:0:0:6:
320,192,112154,1,0,0:0:0:6:
320,192,112529,1,0,0:0:0:6:
192,192,113279,1,0,0:0:0:6:
320,192,113654,1,0,0:0:0:6:
64,192,113842,1,0,0:0:0:6:
192,192,114217,1,0,0:0:0:6:
64,192,114967,1,0,0:0:0:6:
64,192,115154,1,0,0:0:0:6:
64,192,115342,1,0,0:0:0:6:
64,192,115529,1,0,0:0:0:6:
64,192,115717,128,0,116279:0:0:0:6:
192,192,116654,1,0,0:0:0:6:
320,192,116842,1,0,0:0:0:6:
448,192,117217,1,0,0:0:0:6:
192,192,118154,1,0,0:0:0:6:
192,192,118529,1,0,0:0:0:6:
320,192,118904,1,0,0:0:0:6:
320,192,119654,1,0,0:0:0:6:
192,192,119842,1,0,0:0:0:6:
64,192,120217,1,0,0:0:0:6:
192,192,120592,1,0,0:0:0:6:
192,192,120779,1,0,0:0:0:6:
320,192,121154,1,0,0:0:0:6:
192,192,121529,1,0,0:0:0:6:
448,192,121904,128,0,126779:0:0:0:6:
320,192,122279,1,0,0:0:0:3:
64,192,122279,1,0,0:0:0:3:
320,192,123029,1,0,0:0:0:3:
64,192,123029,1,0,0:0:0:3:
320,192,123779,1,0,0:0:0:3:
64,192,123779,1,0,0:0:0:3:
320,192,124529,1,0,0:0:0:3:
64,192,124529,1,0,0:0:0:3:
192,192,125279,1,0,0:0:0:3:
320,192,125279,1,0,0:0:0:3:
192,192,126029,1,0,0:0:0:3:
320,192,126029,1,0,0:0:0:3:
192,192,126779,1,0,0:0:0:3:
320,192,126779,1,0,0:0:0:3:
192,192,127529,1,0,0:0:0:3:
320,192,127529,1,0,0:0:0:3:
64,192,127904,128,0,132779:0:0:0:6:
192,192,128279,1,0,0:0:0:3:
448,192,128279,1,0,0:0:0:3:
192,192,129029,1,0,0:0:0:3:
448,192,129029,1,0,0:0:0:3:
192,192,129779,1,0,0:0:0:3:
448,192,129779,1,0,0:0:0:3:
192,192,130529,1,0,0:0:0:3:
448,192,130529,1,0,0:0:0:3:
320,192,131279,1,0,0:0:0:3:
448,192,131279,1,0,0:0:0:3:
320,192,132029,1,0,0:0:0:3:
448,192,132029,1,0,0:0:0:3:
320,192,132779,1,0,0:0:0:3:
448,192,132779,1,0,0:0:0:3:
320,192,133529,1,0,0:0:0:3:
448,192,133529,1,0,0:0:0:3:
320,192,133904,128,0,138779:0:0:0:6:
64,192,134279,1,0,0:0:0:3:
448,192,134279,1,0,0:0:0:3:
64,192,135029,1,0,0:0:0:3:
448,192,135029,1,0,0:0:0:3:
64,192,135779,1,0,0:0:0:3:
448,192,135779,1,0,0:0:0:3:
64,192,136529,1,0,0:0:0:3:
448,192,136529,1,0,0:0:0:3:
192,192,137279,1,0,0:0:0:3:
64,192,137279,1,0,0:0:0:3:
64,192,138029,1,0,0:0:0:3:
192,192,138029,1,0,0:0:0:3:
64,192,138779,1,0,0:0:0:3:
192,192,138779,1,0,0:0:0:3:
64,192,139529,1,0,0:0:0:3:
192,192,139529,1,0,0:0:0:3:
192,192,139904,128,0,144779:0:0:0:6:
448,192,140279,1,0,0:0:0:3:
320,192,140279,1,0,0:0:0:3:
320,192,141029,1,0,0:0:0:3:
448,192,141029,1,0,0:0:0:3:
320,192,141779,1,0,0:0:0:3:
448,192,141779,1,0,0:0:0:3:
320,192,142529,1,0,0:0:0:3:
448,192,142529,1,0,0:0:0:3:
320,192,143279,1,0,0:0:0:3:
64,192,143279,1,0,0:0:0:3:
64,192,144029,1,0,0:0:0:3:
320,192,144029,1,0,0:0:0:3:
64,192,144779,1,0,0:0:0:3:
320,192,144779,1,0,0:0:0:3:
64,192,145529,1,0,0:0:0:3:
320,192,145529,1,0,0:0:0:3:
192,192,145904,128,0,150779:0:0:0:6:
320,192,146279,1,0,0:0:0:3:
448,192,146279,1,0,0:0:0:3:
320,192,147029,1,0,0:0:0:3:
448,192,147029,1,0,0:0:0:3:
320,192,147779,1,0,0:0:0:3:
448,192,147779,1,0,0:0:0:3:
320,192,148529,1,0,0:0:0:3:
448,192,148529,1,0,0:0:0:3:
448,192,149279,1,0,0:0:0:3:
64,192,149279,1,0,0:0:0:3:
64,192,150029,1,0,0:0:0:3:
448,192,150029,1,0,0:0:0:3:
448,192,150779,1,0,0:0:0:3:
64,192,150779,1,0,0:0:0:3:
64,192,151529,1,0,0:0:0:3:
448,192,151529,1,0,0:0:0:3:
320,192,151904,128,0,156779:0:0:0:6:
192,192,152279,1,0,0:0:0:3:
64,192,152279,1,0,0:0:0:3:
64,192,153029,1,0,0:0:0:3:
192,192,153029,1,0,0:0:0:3:
192,192,153779,1,0,0:0:0:3:
64,192,153779,1,0,0:0:0:3:
64,192,154529,1,0,0:0:0:3:
192,192,154529,1,0,0:0:0:3:
192,192,155279,1,0,0:0:0:3:
448,192,155279,1,0,0:0:0:3:
192,192,156029,1,0,0:0:0:3:
448,192,156029,1,0,0:0:0:3:
192,192,156779,1,0,0:0:0:3:
448,192,156779,1,0,0:0:0:3:
192,192,157529,1,0,0:0:0:3:
448,192,157529,1,0,0:0:0:3:
448,192,157904,128,0,162779:0:0:0:6:
320,192,158279,1,0,0:0:0:3:
64,192,158279,1,0,0:0:0:3:
320,192,159029,1,0,0:0:0:3:
64,192,159029,1,0,0:0:0:3:
320,192,159779,1,0,0:0:0:3:
64,192,159779,1,0,0:0:0:3:
64,192,160529,1,0,0:0:0:3:
320,192,160529,1,0,0:0:0:3:
192,192,161279,1,0,0:0:0:3:
320,192,161279,1,0,0:0:0:3:
192,192,162029,1,0,0:0:0:3:
320,192,162029,1,0,0:0:0:3:
320,192,162779,1,0,0:0:0:3:
192,192,162779,1,0,0:0:0:3:
192,192,163529,1,0,0:0:0:3:
320,192,163529,1,0,0:0:0:3:
64,192,163904,128,0,168779:0:0:0:6:
192,192,164279,1,0,0:0:0:3:
448,192,164279,1,0,0:0:0:3:
192,192,165029,1,0,0:0:0:3:
448,192,165029,1,0,0:0:0:3:
192,192,165779,1,0,0:0:0:3:
448,192,165779,1,0,0:0:0:3:
192,192,166529,1,0,0:0:0:3:
448,192,166529,1,0,0:0:0:3:
320,192,167279,1,0,0:0:0:3:
448,192,167279,1,0,0:0:0:3:
320,192,168029,1,0,0:0:0:3:
448,192,168029,1,0,0:0:0:3:
320,192,168779,1,0,0:0:0:3:
448,192,168779,1,0,0:0:0:3:
320,192,169529,1,0,0:0:0:0:
448,192,169529,1,0,0:0:0:0:
