osu file format v14

[General]
AudioFilename: audio.mp3
AudioLeadIn: 0
PreviewTime: 48770
Countdown: 0
SampleSet: Soft
StackLeniency: 0.7
Mode: 0
LetterboxInBreaks: 0
WidescreenStoryboard: 1

[Editor]
Bookmarks: 3829,18829,33829,48829,78829,93829,101329,131329
DistanceSpacing: 0.4
BeatDivisor: 8
GridSize: 32
TimelineZoom: 2

[Metadata]
Title:2 Phut Hon (KAIZ Remix) (Cut Ver.)
TitleUnicode:2 Phút Hơn (KAIZ Remix) (Cut Ver.)
Artist:Phao
ArtistUnicode:Pháo
Creator:Elinor
Version:Kujinn's Intoxication
Source:
Tags:reform kujinn eli [_eli_] edm electronic vietnamese female vocalist tiktok tik tok buro marija zero two 02
BeatmapID:2885483
BeatmapSetID:1398443

[Difficulty]
HPDrainRate:5
CircleSize:4.2
OverallDifficulty:8.3
ApproachRate:9.1
SliderMultiplier:2.5
SliderTickRate:1

[Events]
//Background and Video events
0,0,"bg.jpg",0,0
//Break Periods
//Storyboard Layer 0 (Background)
//Storyboard Layer 1 (Fail)
//Storyboard Layer 2 (Pass)
//Storyboard Layer 3 (Foreground)
//Storyboard Layer 4 (Overlay)
//Storyboard Sound Samples

[TimingPoints]
79,468.75,4,2,1,100,1,0
3829,-166.666666666667,4,2,1,60,0,0
18829,-142.857142857143,4,2,1,70,0,0
33829,-111.111111111111,4,2,2,80,0,0
41329,-111.111111111111,4,2,2,60,0,0
46954,-111.111111111111,4,2,3,80,0,0
48829,-100,4,2,3,90,0,1
49297,-100,4,2,3,90,0,1
49532,-100,4,2,3,90,0,1
61954,-200,4,2,3,90,0,1
62129,-200,4,2,3,5,0,1
62188,-200,4,2,3,90,0,1
62422,-133.333333333333,4,2,3,90,0,1
62597,-133.333333333333,4,2,3,5,0,1
62656,-133.333333333333,4,2,3,90,0,1
62891,-100,4,2,3,90,0,1
63066,-100,4,2,3,5,0,1
63125,-100,4,2,3,90,0,1
63829,-79.9999999999999,4,2,3,90,0,1
75547,-117.647058823529,4,2,3,90,0,1
75723,-117.647058823529,4,2,3,5,0,1
75782,-117.647058823529,4,2,3,90,0,1
76192,-117.647058823529,4,2,3,5,0,1
76251,-117.647058823529,4,2,3,90,0,1
76954,-181.818181818181,4,2,3,90,0,1
77129,-181.818181818181,4,2,3,5,0,1
77188,-181.818181818182,4,2,3,90,0,1
77422,-133.333333333333,4,2,3,90,0,1
77598,-133.333333333333,4,2,3,5,0,1
77657,-133.333333333333,4,2,3,90,0,1
77891,-100,4,2,3,90,0,1
78067,-100,4,2,3,5,0,1
78125,-100,4,2,3,90,0,1
78829,-111.111111111111,4,2,4,70,0,0
84629,-111.111111111111,4,2,4,5,0,0
84688,-111.111111111111,4,2,4,70,0,0
85098,-111.111111111111,4,2,4,5,0,0
85157,-111.111111111111,4,2,4,70,0,0
85567,-111.111111111111,4,2,4,5,0,0
85625,-111.111111111111,4,2,4,70,0,0
86329,-111.111111111111,4,2,4,80,0,0
92364,-111.111111111111,4,2,4,5,0,0
92422,-111.111111111111,4,2,4,80,0,0
92832,-111.111111111111,4,2,4,5,0,0
92891,-111.111111111111,4,2,4,80,0,0
93829,-200,4,2,4,60,0,0
99454,-125,4,2,4,60,0,0
101329,-83.3333333333333,4,2,4,90,0,1
116329,-74.0740740740741,4,2,4,90,0,1
122129,-74.0740740740741,4,2,4,5,0,1
122188,-74.0740740740741,4,2,4,90,0,1
122598,-74.0740740740741,4,2,4,5,0,1
122657,-74.0740740740741,4,2,4,90,0,1
129454,-133.333333333333,4,2,4,90,0,1
129629,-133.333333333333,4,2,4,5,0,1
129688,-133.333333333333,4,2,4,90,0,1
129922,-105.263157894737,4,2,4,90,0,1
130098,-105.263157894737,4,2,4,5,0,1
130157,-105.263157894737,4,2,4,90,0,1
130391,-86.9565217391304,4,2,4,90,0,1
130567,-86.9565217391304,4,2,4,5,0,1
130625,-86.9565217391304,4,2,4,90,0,1
131329,-100,4,2,3,60,0,0

[Colours]
Combo1 : 97,220,180
Combo2 : 253,2,65
Combo3 : 255,128,188

[HitObjects]
41,34,3829,5,4,0:2:0:0:
41,34,4063,2,0,P|123:68|111:140,1,149.999995422363,2|2,0:2|0:2,0:0:0:0:
53,193,4766,2,0,P|116:206|152:218,1,74.9999977111817,2|0,0:2|0:0,0:0:0:0:
254,344,5235,2,0,P|192:354|138:372,1,112.499996566773,2|2,0:2|0:2,0:0:0:0:
108,304,5704,6,0,P|93:258|144:201,1,112.499996566773,2|0,0:2|0:0,0:0:0:0:
202,194,6172,2,0,P|234:150|222:107,1,93.7499971389771,2|2,0:2|0:2,0:0:0:0:
138,55,6641,2,0,L|302:85,1,149.999995422363,2|2,0:2|0:2,0:0:0:0:
413,98,7579,5,0,0:0:0:0:
413,98,8047,2,0,P|401:143|423:188,1,93.7499971389771,2|2,0:2|0:2,0:0:0:0:
495,251,8516,2,0,P|513:293|501:337,1,93.7499971389771,2|2,0:2|0:2,0:0:0:0:
408,384,8985,2,0,P|364:369|307:356,1,93.7499971389771,2|2,0:2|0:2,0:0:0:0:
257,268,9454,2,0,P|213:283|156:296,1,93.7499971389771,2|2,0:2|0:2,0:0:0:0:
96,341,9922,2,0,P|79:306|88:258,1,74.9999977111817,2|2,0:2|0:2,0:0:0:0:
137,188,10391,5,2,0:3:0:0:
186,109,10625,1,2,0:3:0:0:
117,46,10860,1,2,0:3:0:0:
33,85,11094,1,2,0:3:0:0:
13,195,11329,6,0,P|38:243|114:249,1,131.249995994568,6|0,0:2|0:0,0:0:0:0:
112,242,11797,6,0,P|130:222|128:148,1,99.9999969482423,2|2,0:2|0:2,0:0:0:0:
212,141,12266,2,0,P|196:100|125:74,1,112.499996566773,2|2,0:2|0:2,0:0:0:0:
168,0,12735,2,0,P|141:-6|75:24,1,99.9999969482423,2|2,0:2|0:2,0:0:0:0:
201,137,13204,5,2,0:2:0:0:
201,137,13672,2,0,P|261:149|352:166,2,149.999995422363,2|2|0,0:2|0:2|0:0,0:0:0:0:
11,348,15079,5,2,0:2:0:0:
11,348,15547,6,0,P|45:355|96:311,1,93.7499971389771,2|2,0:2|0:2,0:0:0:0:
146,254,16016,2,0,P|180:247|237:289,1,93.7499971389771,2|2,0:2|0:2,0:0:0:0:
289,344,16485,2,0,P|323:351|379:306,1,93.7499971389771,2|2,0:2|0:2,0:0:0:0:
441,277,16954,6,0,P|431:229|419:172,1,93.7499971389771,2|2,0:2|0:2,0:0:0:0:
309,203,17422,2,0,P|319:155|331:98,1,93.7499971389771,2|2,0:2|0:2,0:0:0:0:
401,25,17891,5,2,0:3:0:0:
364,43,18125,1,2,0:3:0:0:
463,108,18360,1,2,0:3:0:0:
335,185,18594,1,2,0:3:0:0:
434,285,18829,5,14,0:2:0:0:
276,353,19063,5,2,0:2:0:0:
202,329,19297,1,10,0:2:0:0:
131,304,19532,1,4,0:3:0:0:
18,329,19766,6,0,P|42:279|18:194,1,131.249995994568,10|8,0:2|0:1,0:0:0:0:
96,147,20235,2,0,P|82:116|97:61,1,87.499997329712,10|8,0:2|0:1,0:0:0:0:
296,77,20704,6,0,P|220:92|160:109,1,131.249995994568,10|0,0:2|0:0,0:0:0:0:
168,106,21172,1,10,0:2:0:0:
264,178,21407,1,4,0:3:0:0:
148,256,21641,2,0,P|224:271|284:288,1,131.249995994568,10|0,0:2|0:0,0:0:0:0:
318,345,22110,2,0,P|381:327|422:323,1,87.499997329712,10|4,0:2|0:3,0:0:0:0:
484,350,22579,5,8,0:2:0:0:
434,132,22813,5,2,0:2:0:0:
367,182,23047,1,10,0:2:0:0:
445,218,23282,1,4,0:3:0:0:
330,45,23516,6,0,P|286:34|234:94,1,131.249995994568,10|8,0:2|0:1,0:0:0:0:
170,146,23985,2,0,P|180:187|191:244,1,87.499997329712,10|8,0:2|0:1,0:0:0:0:
375,316,24454,6,0,B|278:291|315:377|207:349,1,174.999994659424,10|10,0:2|0:2,0:0:0:0:
213,350,25157,1,4,0:3:0:0:
70,330,25391,5,2,0:3:0:0:
28,209,25625,1,2,0:3:0:0:
208,200,25860,5,2,0:3:0:0:
250,79,26094,1,2,0:3:0:0:
21,16,26329,6,0,P|38:55|131:61,1,131.249995994568,14|0,0:2|0:0,0:0:0:0:
118,69,26797,2,0,P|109:105|100:164,1,87.499997329712,10|4,0:2|0:3,0:0:0:0:
218,344,27266,6,0,P|235:305|328:299,1,131.249995994568,10|8,0:2|0:1,0:0:0:0:
315,290,27735,2,0,P|308:246|297:204,1,87.499997329712,10|8,0:2|0:1,0:0:0:0:
345,86,28204,6,0,B|442:111|405:25|513:53,2,174.999994659424,10|10|10,0:2|0:2|0:2,0:0:0:0:
197,173,29610,2,0,P|160:182|110:209,1,87.499997329712,10|4,0:2|0:3,0:0:0:0:
316,332,30079,6,0,P|352:371|432:350,1,131.249995994568,10|0,0:2|0:0,0:0:0:0:
423,359,30547,2,0,P|431:322|445:269,1,87.499997329712,10|4,0:2|0:3,0:0:0:0:
172,86,31016,6,0,P|208:47|288:68,1,131.249995994568,10|8,0:2|0:1,0:0:0:0:
279,58,31484,2,0,P|286:95|300:148,1,87.499997329712,10|8,0:2|0:1,0:0:0:0:
53,255,31954,6,0,B|150:230|113:316|221:288,1,174.999994659424,10|10,0:2|0:2,0:0:0:0:
285,239,32657,1,4,0:3:0:0:
404,360,32891,5,2,0:3:0:0:
400,343,33125,1,2,0:3:0:0:
484,240,33360,5,2,0:3:0:0:
488,257,33594,1,2,0:3:0:0:
305,99,33829,6,0,P|243:87|211:34,1,112.499996566773,8|0,0:2|0:0,0:0:0:0:
221,35,34180,2,0,P|235:84|248:150,1,112.499996566773,8|0,0:2|0:0,0:0:0:0:
210,217,34532,1,8,0:2:0:0:
387,235,34766,6,0,P|373:284|360:350,1,112.499996566773,8|0,0:2|0:0,0:0:0:0:
370,369,35118,2,0,P|334:327|279:319,1,112.499996566773,8|0,0:2|0:0,0:0:0:0:
202,351,35469,1,8,0:2:0:0:
30,258,35704,6,0,P|79:239|149:222,1,112.499996566773,8|0,0:2|0:0,0:0:0:0:
228,213,36055,2,0,P|179:194|109:177,1,112.499996566773,8|0,0:2|0:0,0:0:0:0:
66,125,36407,1,8,0:2:0:0:
462,0,36641,6,0,P|413:19|343:36,1,112.499996566773,8|0,0:2|0:0,0:0:0:0:
290,77,36993,1,8,0:2:0:0:
280,64,37110,2,0,L|272:22,2,28.1249991416931,2|2|2,0:2|0:2|0:2,0:0:0:0:
304,149,37344,1,8,0:2:0:0:
465,299,37579,6,0,L|459:326,3,28.1249991416931,8|2|2|2,0:2|0:2|0:2|0:2,0:0:0:0:
380,253,37930,2,0,P|343:255|304:324,1,112.499996566773,8|0,0:2|0:0,0:0:0:0:
371,321,38282,1,8,0:2:0:0:
88,118,38516,6,0,P|125:120|164:189,1,112.499996566773,8|0,0:2|0:0,0:0:0:0:
98,189,38868,2,0,P|113:134|147:61,1,112.499996566773,8|0,0:2|0:0,0:0:0:0:
179,26,39219,1,8,0:2:0:0:
424,17,39454,6,0,P|436:71|464:148,1,112.499996566773,8|0,0:2|0:0,0:0:0:0:
393,163,39805,2,0,P|381:217|353:294,1,112.499996566773,8|0,0:2|0:0,0:0:0:0:
415,322,40157,1,8,0:2:0:0:
176,371,40391,6,0,P|154:334|70:338,1,112.499996566773,8|0,0:2|0:0,0:0:0:0:
20,331,40743,1,8,0:2:0:0:
16,343,40860,2,0,L|24:385,2,28.1249991416931,2|2|2,0:2|0:2|0:2,0:0:0:0:
5,266,41094,1,8,0:2:0:0:
92,72,41329,6,0,L|100:30,4,28.1249991416931,8|0|8|0|8,0:1|0:0|0:2|0:0|0:2,0:0:0:0:
182,153,41680,6,0,L|115:171,1,56.2499982833863,8|8,0:1|0:2,0:0:0:0:
219,239,41914,1,8,0:2:0:0:
213,244,42032,2,0,L|280:262,1,56.2499982833863,8|8,0:1|0:2,0:0:0:0:
311,136,42266,6,0,L|327:207,1,56.2499982833863,8|8,0:1|0:2,0:0:0:0:
423,74,42500,1,8,0:2:0:0:
430,72,42618,2,0,L|414:143,1,56.2499982833863,8|8,0:1|0:2,0:0:0:0:
289,2,42852,1,8,0:2:0:0:
282,0,42970,2,0,L|298:71,1,56.2499982833863,8|8,0:1|0:2,0:0:0:0:
238,157,43204,6,0,P|205:171|169:164,1,56.2499982833863,8|8,0:1|0:2,0:0:0:0:
152,274,43438,1,8,0:2:0:0:
150,283,43555,2,0,P|121:261|109:226,1,56.2499982833863,8|8,0:1|0:2,0:0:0:0:
14,237,43789,1,8,0:2:0:0:
5,239,43906,2,0,P|9:203|33:175,1,56.2499982833863,8|8,0:1|0:2,0:0:0:0:
93,52,44141,5,8,0:1:0:0:
86,58,44258,2,0,L|161:76,1,56.2499982833863,8|8,0:2|0:2,0:0:0:0:
221,137,44493,1,8,0:1:0:0:
223,129,44610,2,0,L|268:119,2,28.1249991416931,8|0|8,0:2|0:0|0:2,0:0:0:0:
306,44,44844,2,0,L|381:62,1,56.2499982833863,8|8,0:1|0:2,0:0:0:0:
450,163,45079,6,0,L|405:173,4,28.1249991416931,8|0|8|0|8,0:1|0:0|0:2|0:0|0:2,0:0:0:0:
367,247,45430,6,0,L|356:308,1,56.2499982833863,8|8,0:1|0:2,0:0:0:0:
276,348,45664,1,8,0:2:0:0:
268,347,45782,2,0,L|258:291,1,56.2499982833863,8|8,0:1|0:2,0:0:0:0:
118,195,46016,6,0,L|194:216,1,56.2499982833863,8|8,0:1|0:2,0:0:0:0:
83,98,46250,1,8,0:2:0:0:
87,106,46368,2,0,L|11:127,1,56.2499982833863,8|8,0:1|0:2,0:0:0:0:
149,10,46602,1,8,0:2:0:0:
145,18,46720,2,0,L|221:39,1,56.2499982833863,8|8,0:1|0:2,0:0:0:0:
348,76,46954,5,8,0:2:0:0:
352,84,47422,5,8,0:2:0:0:
358,91,47891,5,8,0:2:0:0:
410,227,48125,6,0,L|440:235,2,28.1249991416931,8|8|8,0:1|0:1|0:2,0:0:0:0:
353,273,48360,1,8,0:2:0:0:
261,185,48594,1,8,0:2:0:0:
46,343,48829,5,6,1:2:0:0:
44,330,48887,1,2,0:2:0:0:
43,317,48946,1,2,0:2:0:0:
42,304,49004,1,2,0:2:0:0:
260,275,49297,6,0,L|350:297,1,62.5,8|0,0:2|0:0,0:0:0:0:
328,376,49532,5,0,0:0:0:0:
483,251,49766,1,2,1:2:0:0:
355,112,50000,1,0,0:0:0:0:
240,255,50235,6,0,B|195:237|144:281|189:304|126:359|69:324,1,187.5,8|0,0:2|0:0,0:0:0:0:
14,312,50704,6,0,P|1:220|-20:117,1,187.5,2|0,1:2|0:0,0:0:0:0:
0,49,51172,6,0,P|34:56|52:108,1,62.5,8|0,0:2|0:0,0:0:0:0:
90,177,51407,5,0,0:0:0:0:
229,22,51641,1,2,1:2:0:0:
382,183,51875,1,0,0:0:0:0:
409,28,52110,5,10,0:2:0:0:
357,80,52227,1,2,0:2:0:0:
347,77,52286,1,2,0:2:0:0:
376,318,52579,5,2,1:2:0:0:
387,321,52637,1,2,0:2:0:0:
399,324,52696,1,2,0:2:0:0:
411,327,52754,1,2,0:2:0:0:
466,196,53047,6,0,P|475:162|451:122,1,62.5,8|0,0:2|0:0,0:0:0:0:
404,72,53282,5,0,0:0:0:0:
256,189,53516,1,2,1:2:0:0:
411,326,53750,1,0,0:0:0:0:
241,369,53985,6,0,B|139:338|139:338|116:392|65:383,1,187.5,8|0,0:2|0:0,0:0:0:0:
21,340,54454,6,0,P|6:305|25:257,1,62.5,2|0,1:2|0:0,0:0:0:0:
52,200,54688,1,0,0:0:0:0:
211,260,54922,6,0,P|226:225|207:177,1,62.5,8|0,0:2|0:0,0:0:0:0:
203,96,55156,1,0,0:0:0:0:
323,235,55391,1,2,1:2:0:0:
431,92,55625,1,0,0:0:0:0:
495,325,55860,5,8,0:1:0:0:
449,378,55977,1,2,0:2:0:0:
440,374,56036,1,2,0:2:0:0:
222,201,56329,5,2,1:2:0:0:
210,205,56387,1,2,0:2:0:0:
198,209,56446,1,2,0:2:0:0:
187,214,56504,1,2,0:2:0:0:
27,384,56797,6,0,L|14:300,1,62.5,8|0,0:2|0:0,0:0:0:0:
55,251,57032,5,0,0:0:0:0:
177,112,57266,1,2,1:2:0:0:
53,11,57500,1,0,0:0:0:0:
32,181,57735,6,0,B|79:160|133:190|95:213|157:255|214:216,1,187.5,8|0,0:2|0:0,0:0:0:0:
261,140,58204,6,0,P|275:225|294:349,1,187.5,2|0,1:2|0:0,0:0:0:0:
224,371,58672,6,0,P|207:331|222:288,1,62.5,8|0,0:2|0:0,0:0:0:0:
348,235,58907,5,0,0:0:0:0:
169,133,59141,1,2,1:2:0:0:
332,19,59375,1,0,0:0:0:0:
441,106,59610,5,10,0:2:0:0:
478,169,59727,1,2,0:2:0:0:
489,172,59786,1,2,0:2:0:0:
144,303,60079,5,2,1:2:0:0:
156,299,60137,1,2,0:2:0:0:
168,296,60196,1,2,0:2:0:0:
179,292,60254,1,2,0:2:0:0:
330,370,60547,6,0,L|318:283,1,62.5,8|0,0:2|0:0,0:0:0:0:
378,259,60782,5,0,0:0:0:0:
185,127,61016,1,2,1:2:0:0:
359,2,61250,1,0,0:0:0:0:
262,217,61485,6,0,B|197:200|197:200|158:231|158:231|71:211,1,187.5,8|0,0:2|0:0,0:0:0:0:
12,181,61954,6,0,L|20:236,1,46.875,2|0,0:2|0:0,0:0:0:0:
13,237,62188,1,0,0:0:0:0:
148,300,62422,6,0,L|159:218,1,70.3125026822091,8|0,0:2|0:0,0:0:0:0:
167,227,62656,1,0,0:0:0:0:
328,97,62891,6,0,L|342:210,1,93.75,2|0,0:2|0:0,0:0:0:0:
333,199,63125,1,0,0:0:0:0:
469,297,63360,5,10,0:2:0:0:
424,351,63477,1,2,0:2:0:0:
413,346,63536,1,2,0:2:0:0:
196,175,63829,5,6,1:2:0:0:
177,167,63887,1,2,0:2:0:0:
156,176,63946,1,2,0:2:0:0:
138,169,64004,1,2,0:2:0:0:
323,22,64297,6,0,P|341:58|324:110,1,78.125,8|0,0:2|0:0,0:0:0:0:
203,257,64532,5,2,0:3:0:0:
87,56,64766,1,2,1:2:0:0:
75,353,65000,5,2,0:3:0:0:
221,138,65235,2,0,B|248:220|248:220|217:272|217:272|254:383,1,234.375,8|0,0:2|0:0,0:0:0:0:
315,335,65704,6,0,B|378:325|409:383|409:383|479:382|500:341|492:287,1,234.375,2|0,1:2|0:0,0:0:0:0:
500,236,66172,6,0,P|476:213|425:212,1,78.125,8|0,0:2|0:0,0:0:0:0:
225,272,66407,5,2,0:3:0:0:
360,120,66641,1,2,1:2:0:0:
211,5,66875,1,2,0:3:0:0:
162,64,66993,5,8,0:1:0:0:
217,124,67110,5,10,0:2:0:0:
170,177,67227,1,2,0:2:0:0:
160,170,67286,1,2,0:2:0:0:
152,163,67344,1,0,0:0:0:0:
7,370,67579,5,2,1:2:0:0:
22,361,67637,1,2,0:2:0:0:
41,367,67696,1,2,0:2:0:0:
60,354,67754,1,2,0:2:0:0:
402,308,68047,6,0,P|409:347|386:379,1,78.125,8|0,0:2|0:0,0:0:0:0:
290,233,68282,5,2,0:3:0:0:
417,93,68516,1,2,1:2:0:0:
297,25,68750,5,2,0:3:0:0:
448,235,68985,2,0,B|482:262|531:220|526:165|424:117|359:220,1,234.375,8|0,0:2|0:0,0:0:0:0:
285,298,69454,6,0,P|249:282|185:259,1,78.125,2|0,1:2|0:0,0:0:0:0:
26,352,69688,1,2,0:3:0:0:
124,123,69922,6,0,P|108:159|85:223,1,78.125,8|0,0:2|0:0,0:0:0:0:
178,382,70156,5,2,0:3:0:0:
359,192,70391,1,2,1:2:0:0:
494,380,70625,1,2,0:3:0:0:
449,324,70743,5,8,0:1:0:0:
501,274,70860,5,10,0:2:0:0:
455,217,70977,1,2,0:2:0:0:
457,205,71036,1,2,0:2:0:0:
460,193,71094,1,0,0:0:0:0:
92,26,71329,5,2,1:2:0:0:
93,42,71387,1,2,0:2:0:0:
95,57,71446,1,2,0:2:0:0:
98,72,71504,1,2,0:2:0:0:
9,257,71797,6,0,P|52:260|92:215,1,78.125,8|0,0:2|0:0,0:0:0:0:
206,79,72032,5,2,0:3:0:0:
405,210,72266,1,2,1:2:0:0:
181,322,72500,5,2,0:3:0:0:
325,189,72735,2,0,B|356:151|317:88|245:102|212:200|275:265,1,234.375,8|0,0:2|0:0,0:0:0:0:
400,321,73204,6,0,B|345:331|314:273|314:273|244:274|223:315|231:369,1,234.375,2|0,1:2|0:0,0:0:0:0:
151,375,73672,6,0,P|102:376|72:319,1,78.125,8|0,0:2|0:0,0:0:0:0:
14,292,73907,5,2,0:3:0:0:
147,161,74141,1,2,1:2:0:0:
21,23,74375,5,2,0:3:0:0:
73,83,74493,5,8,0:1:0:0:
15,135,74610,5,10,0:2:0:0:
71,186,74727,1,2,0:2:0:0:
67,197,74786,1,2,0:2:0:0:
65,207,74844,1,0,0:0:0:0:
459,358,75079,5,2,0:2:0:0:
457,342,75137,1,2,0:2:0:0:
455,326,75196,1,2,0:2:0:0:
453,310,75254,1,2,0:2:0:0:
291,154,75547,6,0,P|323:186|373:179,1,79.6875015199185,8|0,0:2|0:0,0:0:0:0:
353,180,75782,1,2,0:3:0:0:
187,294,76016,6,0,P|219:262|269:269,1,79.6875015199185,2|0,0:2|0:0,0:0:0:0:
249,268,76251,1,2,0:3:0:0:
54,152,76485,6,0,L|72:276,1,106.250002026558,8|2,0:2|0:3,0:0:0:0:
199,33,76954,6,0,L|255:44,1,51.5625015735627,10|0,0:3|0:0,0:0:0:0:
257,41,77188,1,0,0:0:0:0:
327,189,77422,6,0,L|240:203,1,70.3125026822091,10|0,0:3|0:0,0:0:0:0:
251,195,77657,1,0,0:0:0:0:
153,334,77891,6,0,L|250:351,1,93.75,10|0,0:3|0:0,0:0:0:0:
252,345,78126,1,0,0:0:0:0:
439,260,78360,5,2,0:2:0:0:
486,208,78477,1,2,0:2:0:0:
476,201,78536,1,2,0:2:0:0:
121,69,78829,6,0,B|98:105|143:140|143:140|234:106,1,168.749994850159,6|0,1:2|0:0,0:0:0:0:
231,117,79297,1,2,1:2:0:0:
349,264,79532,5,0,0:0:0:0:
410,142,79766,1,2,1:2:0:0:
330,35,80000,5,0,0:0:0:0:
415,149,80235,2,0,P|355:147|328:252,1,168.749994850159,2|0,1:2|0:0,0:0:0:0:
411,272,80704,6,0,P|344:257|227:232,1,168.749994850159,2|0,1:2|0:0,0:0:0:0:
241,243,81172,1,2,1:2:0:0:
98,279,81407,5,0,0:0:0:0:
169,154,81641,1,2,1:2:0:0:
93,40,81875,5,0,0:0:0:0:
166,162,82110,2,0,B|226:147|226:147|246:108|246:108|326:89,1,168.749994850159,2|0,1:2|0:0,0:0:0:0:
365,34,82579,6,0,B|331:57|322:93|322:93|374:195,1,168.749994850159,2|0,1:2|0:0,0:0:0:0:
373,176,83047,1,2,1:2:0:0:
311,299,83282,5,0,0:0:0:0:
442,365,83516,1,2,1:2:0:0:
311,287,83750,5,0,0:0:0:0:
181,357,83985,2,0,P|150:327|205:231,1,168.749994850159,2|0,1:2|0:0,0:0:0:0:
266,226,84454,6,0,P|222:212|186:197,1,84.3749974250794,2|0,1:2|0:0,0:0:0:0:
192,185,84688,1,0,0:0:0:0:
360,96,84922,6,0,P|320:112|280:124,1,84.3749974250794,2|0,1:2|0:0,0:0:0:0:
283,114,85156,1,0,0:0:0:0:
469,37,85391,6,0,P|425:23|389:8,1,84.3749974250794,2|0,1:2|0:0,0:0:0:0:
396,2,85625,1,0,0:0:0:0:
473,335,86329,6,0,B|417:320|417:320|382:363|382:363|317:344,1,168.749994850159,6|0,1:2|0:0,0:0:0:0:
252,377,86797,1,10,0:2:0:0:
192,72,87032,5,0,0:0:0:0:
293,189,87266,1,2,1:2:0:0:
89,318,87500,5,0,0:0:0:0:
176,199,87735,2,0,P|229:200|262:297,1,168.749994850159,10|0,0:2|0:0,0:0:0:0:
254,304,88204,6,0,P|262:239|290:126,1,168.749994850159,2|0,1:2|0:0,0:0:0:0:
276,128,88672,1,10,0:2:0:0:
125,10,88907,5,0,0:0:0:0:
18,116,89141,1,2,1:2:0:0:
166,223,89375,1,0,0:0:0:0:
188,190,89493,1,8,0:1:0:0:
170,155,89610,1,10,0:2:0:0:
40,301,89844,1,2,0:3:0:0:
309,286,90079,6,0,B|354:274|400:315|365:326|410:367|459:355,1,168.749994850159,2|0,1:2|0:0,0:0:0:0:
445,283,90547,1,10,0:2:0:0:
317,357,90782,5,0,0:0:0:0:
188,215,91016,1,2,1:2:0:0:
337,111,91250,5,0,0:0:0:0:
176,292,91485,2,0,P|134:274|117:189,1,112.499996566773,10|0,0:2|0:0,0:0:0:0:
196,29,92188,6,0,P|206:64|219:122,1,84.3749974250794
209,110,92422,1,10,0:2:0:0:
343,128,92657,6,0,P|333:169|322:209,1,84.3749974250794
314,202,92891,1,2,0:2:0:0:
446,231,93125,5,0,0:0:0:0:
453,268,93243,1,8,0:1:0:0:
461,301,93360,1,8,0:2:0:0:
512,136,93594,1,2,0:3:0:0:
276,324,93829,6,0,B|333:289|381:335|381:335|362:267|268:246|191:304|291:344|187:391|80:380|64:289,1,500,4|0,1:2|3:0,0:0:0:0:
67,303,97579,5,0,3:0:0:0:
67,303,98516,5,0,3:0:0:0:
405,95,99454,5,8,0:2:0:0:
89,178,99922,5,8,0:2:0:0:
420,295,100391,5,8,0:2:0:0:
268,219,100625,6,0,L|261:183,2,25,8|8|8,0:1|0:1|0:2,0:0:0:0:
222,292,100860,5,8,0:2:0:0:
291,75,101094,1,8,0:2:0:0:
291,75,101329,6,0,B|375:56|375:56|312:197,1,224.999993133545,4|0,1:2|0:0,0:0:0:0:
209,258,101797,6,0,L|189:175,1,74.9999977111817,10|0,0:2|0:0,0:0:0:0:
290,252,102032,5,0,0:0:0:0:
114,364,102266,1,2,1:2:0:0:
11,195,102500,1,0,0:0:0:0:
101,51,102735,6,0,B|141:40|141:40|171:73,1,74.9999977111817,10|0,0:2|0:0,0:0:0:0:
231,181,102969,2,0,B|191:192|191:192|161:159,1,74.9999977111817,2|0,0:2|0:0,0:0:0:0:
320,65,103204,6,0,B|388:98|388:98|392:181|392:181|474:224,1,224.999993133545,2|0,1:2|0:0,0:0:0:0:
507,255,103672,6,0,P|481:279|418:264,1,74.9999977111817,10|0,0:2|0:0,0:0:0:0:
275,136,103907,5,2,0:2:0:0:
308,337,104141,1,2,1:2:0:0:
187,117,104375,1,2,0:2:0:0:
450,211,104610,1,10,0:2:0:0:
238,47,104844,1,2,0:2:0:0:
58,215,105079,6,0,B|121:195|178:240|122:282|190:333|255:301,1,224.999993133545,2|0,1:2|0:0,0:0:0:0:
362,253,105547,6,0,L|344:341,1,74.9999977111817,10|0,0:2|0:0,0:0:0:0:
250,226,105782,5,0,0:0:0:0:
419,134,106016,1,2,1:2:0:0:
293,21,106250,1,0,0:0:0:0:
153,101,106485,6,0,B|192:83|191:19|123:3|58:48|62:127|111:166,1,224.999993133545,10|0,0:2|0:0,0:0:0:0:
200,217,106954,5,2,1:2:0:0:
0,138,107188,1,2,0:2:0:0:
211,211,107422,5,10,0:2:0:0:
0,277,107657,1,2,0:2:0:0:
225,206,107891,5,2,1:2:0:0:
114,384,108125,1,2,0:2:0:0:
241,199,108360,5,2,0:2:0:0:
247,196,108594,1,2,0:2:0:0:
490,302,108829,6,0,B|430:309|389:240|389:240|318:275|351:347,1,224.999993133545,6|0,1:2|0:0,0:0:0:0:
274,368,109297,6,0,P|244:372|204:340,1,74.9999977111817,10|0,0:2|0:0,0:0:0:0:
101,317,109532,5,0,0:0:0:0:
231,186,109766,1,2,1:2:0:0:
99,46,110000,1,0,0:0:0:0:
21,184,110235,6,0,P|59:173|109:162,1,74.9999977111817,10|0,0:2|0:0,0:0:0:0:
251,17,110469,2,0,P|213:28|163:39,1,74.9999977111817,2|0,0:2|0:0,0:0:0:0:
364,133,110704,6,0,B|439:200|491:140|491:140|479:96|418:97,1,224.999993133545,2|0,1:2|0:0,0:0:0:0:
330,71,111172,6,0,P|305:88|290:136,1,74.9999977111817,10|0,0:2|0:0,0:0:0:0:
199,346,111407,5,2,0:2:0:0:
123,123,111641,1,2,1:2:0:0:
296,305,111875,1,2,0:2:0:0:
363,77,112110,1,10,0:2:0:0:
194,275,112344,1,2,0:2:0:0:
43,95,112579,6,0,B|109:84|169:151|169:151|170:149|170:149|124:88|153:37,1,224.999993133545,2|0,1:2|0:0,0:0:0:0:
137,5,113047,6,0,P|175:11|211:51,1,74.9999977111817,10|0,0:2|0:0,0:0:0:0:
101,233,113282,5,0,0:0:0:0:
258,106,113516,1,2,1:2:0:0:
391,252,113750,1,0,0:0:0:0:
456,92,113985,6,0,B|373:66|373:66|449:206,1,224.999993133545,10|0,0:2|0:0,0:0:0:0:
493,292,114454,5,2,0:2:0:0:
391,252,114688,1,2,0:2:0:0:
207,367,114922,5,10,0:2:0:0:
309,327,115156,1,2,0:2:0:0:
172,217,115391,5,2,0:2:0:0:
70,177,115625,1,2,0:2:0:0:
1,293,115860,5,10,0:2:0:0:
3,300,116094,1,2,0:0:0:0:
264,108,116329,6,0,B|318:64|255:8|179:28|158:138|229:194,1,253.125000965595,6|0,1:2|0:0,0:0:0:0:
201,262,116797,6,0,P|239:244|305:234,1,84.3750003218651,10|0,0:2|0:0,0:0:0:0:
442,312,117032,5,2,0:3:0:0:
333,168,117266,1,2,1:2:0:0:
449,53,117500,1,2,0:3:0:0:
245,0,117735,6,0,P|236:18|273:80,1,84.3750003218651,8|0,0:2|0:0,0:0:0:0:
402,158,117969,2,0,P|390:141|318:142,1,84.3750003218651,2|0,0:2|0:0,0:0:0:0:
222,293,118204,6,0,B|342:261|342:261|354:266|354:266|540:216,1,253.125000965595,2|0,1:2|0:0,0:0:0:0:
507,313,118672,6,0,P|525:335|508:312,1,84.3750003218651,10|0,0:2|0:0,0:0:0:0:
287,150,118907,5,2,0:2:0:0:
436,343,119141,1,2,1:2:0:0:
408,116,119375,1,2,0:0:0:0:
419,82,119493,1,8,0:1:0:0:
430,42,119610,1,8,0:2:0:0:
334,358,119844,1,2,0:2:0:0:
231,219,120079,6,0,B|207:197|148:207|122:249|122:249|126:258|126:258|109:303|43:328|-10:268,1,253.125000965595,2|0,1:2|0:0,0:0:0:0:
0,163,120547,6,0,P|51:164|78:198,1,84.3750003218651,10|0,0:2|0:0,0:0:0:0:
226,314,120782,5,2,0:3:0:0:
141,114,121016,1,2,1:2:0:0:
350,44,121250,1,2,0:3:0:0:
482,233,121485,6,0,B|401:228|357:152|357:152|354:153|354:153|390:225|318:266,1,253.125000965595,10|0,0:2|0:0,0:0:0:0:
266,263,121954,6,0,P|289:310|382:321,1,126.562500482798,2|0,1:2|0:0,0:0:0:0:
351,321,122188,1,2,0:3:0:0:
208,201,122422,6,0,P|178:244|215:330,1,126.562500482798,10|0,0:2|0:0,0:0:0:0:
200,303,122657,1,2,0:3:0:0:
235,126,122891,6,0,P|182:122|141:161,1,84.3750003218651,2|0,1:2|0:0,0:0:0:0:
45,240,123125,1,2,0:2:0:0:
11,207,123243,1,8,0:1:0:0:
13,159,123360,1,2,0:2:0:0:
186,262,123594,1,2,0:3:0:0:
22,368,123829,6,0,B|46:390|105:380|131:338|131:338|127:329|127:329|144:284|210:259|263:319,1,253.125000965595,2|0,1:2|0:0,0:0:0:0:
288,252,124297,6,0,P|300:295|272:343,1,84.3750003218651,10|0,0:2|0:0,0:0:0:0:
120,210,124532,5,2,0:3:0:0:
357,111,124766,1,2,1:2:0:0:
132,0,125000,1,2,0:3:0:0:
299,166,125235,6,0,B|327:196|327:196|389:186,1,84.3750003218651,10|0,0:2|0:0,0:0:0:0:
412,60,125469,2,0,B|384:30|384:30|322:40,1,84.3750003218651,2|0,0:2|0:0,0:0:0:0:
197,135,125704,6,0,B|242:94|222:39|151:30|98:104|103:174|175:218,1,253.125000965595,2|0,1:2|0:0,0:0:0:0:
215,250,126172,6,0,P|172:264|127:304,1,84.3750003218651,10|0,0:2|0:0,0:0:0:0:
426,131,126407,5,2,0:2:0:0:
349,350,126641,1,2,1:2:0:0:
197,135,126875,1,2,0:2:0:0:
239,156,126993,1,8,0:1:0:0:
278,173,127110,1,10,0:2:0:0:
77,348,127344,1,2,0:2:0:0:
26,79,127579,6,0,B|67:70|83:15|83:15|129:189,1,253.125000965595,2|0,1:2|0:0,0:0:0:0:
60,213,128047,6,0,P|90:241|131:247,1,84.3750003218651,10|0,0:2|0:0,0:0:0:0:
398,66,128282,5,2,0:3:0:0:
235,206,128516,1,2,1:2:0:0:
404,348,128750,1,2,0:3:0:0:
512,175,128985,6,0,B|365:128|365:128|423:159|434:237,1,253.125000965595,10|0,0:2|0:0,0:0:0:0:
336,276,129454,6,0,P|275:295|258:302,1,70.3125026822091,2|0,0:2|0:0,0:0:0:0:
275,306,129688,1,2,0:2:0:0:
103,167,129922,6,0,P|174:189|194:197,1,89.0624976217747,10|0,0:2|0:0,0:0:0:0:
183,200,130156,1,2,0:2:0:0:
337,31,130391,6,0,P|256:56|233:65,1,107.81250205636,2|0,0:2|0:0,0:0:0:0:
249,72,130625,1,2,0:2:0:0:
271,86,130743,1,8,0:1:0:0:
296,103,130860,5,10,0:2:0:0:
468,216,131094,1,2,0:2:0:0:
256,325,131329,5,4,0:2:0:0:
