osu file format v14

[General]
AudioFilename: Phantom Sage - Holystone (Kill The Copyright Release).mp3
AudioLeadIn: 0
PreviewTime: 17433
Countdown: 0
SampleSet: Soft
StackLeniency: 0.2
Mode: 0
LetterboxInBreaks: 0
EpilepsyWarning: 1
WidescreenStoryboard: 1

[Editor]
Bookmarks: 47979,67615,104706,119979,122161,152706,157070,209433,224706,226888,235615,239979,244342,257433,261797,274888,279251,296706,331615,349070,379615,399251
DistanceSpacing: 2.5
BeatDivisor: 12
GridSize: 16
TimelineZoom: 3.999999

[Metadata]
Title:Holystone
TitleUnicode:Holystone
Artist:Phantom Sage
ArtistUnicode:Phantom Sage
Creator:sheela
Version:Liberation
Source:
Tags:FBC 2016 french beatmapping contest dubstep kill the copyright
BeatmapID:1094362
BeatmapSetID:515297

[Difficulty]
HPDrainRate:6
CircleSize:4.2
OverallDifficulty:8
ApproachRate:9
SliderMultiplier:1.4
SliderTickRate:1

[Events]
//Background and Video events
0,-1,"bg.jpg",0,0
//Break Periods
2,52542,69197
2,157270,173924
2,279451,296106
//Storyboard Layer 0 (Background)
//Storyboard Layer 1 (Fail)
//Storyboard Layer 2 (Pass)
//Storyboard Layer 3 (Foreground)
//Storyboard Sound Samples

[TimingPoints]
0,483.870967741935,4,2,1,20,1,0
161,545.454545454546,4,2,2,21,1,8
342,-100,4,2,3,22,0,8
524,-100,4,2,4,23,0,8
706,-100,4,2,3,24,0,8
888,-100,4,2,2,25,0,8
1070,-100,4,2,5,26,0,8
1251,-100,4,2,6,27,0,8
1433,-100,4,2,7,28,0,8
1615,-100,4,2,8,29,0,8
1797,-100,4,2,7,30,0,8
1979,-100,4,2,6,31,0,8
2161,545.454545454546,4,2,9,32,1,0
2342,-100,4,2,10,33,0,0
2524,-100,4,2,11,34,0,0
2706,-100,4,2,12,35,0,0
2888,-100,4,2,11,36,0,0
3070,-100,4,2,10,37,0,0
3251,-100,4,2,1,38,0,0
3433,-100,4,2,2,39,0,8
3797,-100,4,2,4,40,0,8
3979,-100,4,2,3,41,0,8
4161,-100,4,2,2,42,0,8
4342,545.454545454546,4,2,13,43,1,0
4888,-100,4,2,0,5,0,8
5070,-100,4,2,11,45,0,8
5251,-100,4,2,15,46,0,8
5433,-100,4,2,12,47,0,0
5979,-100,4,2,0,5,0,8
6161,-100,4,2,13,49,0,8
6342,-100,4,2,16,50,0,8
6524,-100,4,2,11,51,0,0
6888,-100,4,2,3,52,0,8
7070,-100,4,2,4,53,0,8
7251,-100,4,2,3,54,0,8
7433,-100,4,2,2,55,0,8
7615,-100,4,2,1,56,0,0
7797,-100,4,2,2,57,0,8
7979,-100,4,2,3,58,0,8
8161,-100,4,2,4,59,0,8
8342,-100,4,2,3,60,0,8
8524,-100,4,2,2,61,0,8
8706,-100,4,2,1,62,0,0
8888,-100,4,2,2,63,0,8
9069,-100,4,2,3,64,0,8
9251,-100,4,2,4,65,0,8
9433,-100,4,2,3,66,0,8
9615,-100,4,2,2,67,0,8
9797,-100,4,2,5,68,0,8
9978,-100,4,2,6,69,0,8
10160,-100,4,2,7,70,0,8
10342,-100,4,2,8,71,0,8
10524,-100,4,2,7,72,0,8
10706,-100,4,2,6,73,0,8
10888,-100,4,2,9,74,0,0
11070,-100,4,2,10,75,0,0
11251,-100,4,2,11,76,0,0
11433,-100,4,2,12,77,0,0
11615,-100,4,2,11,78,0,0
11797,-100,4,2,10,79,0,0
11978,-100,4,2,1,80,0,0
12161,-100,4,2,2,80,0,0
12342,-100,4,2,3,80,0,8
12524,-100,4,2,4,80,0,8
12706,-100,4,2,3,80,0,8
12888,-100,4,2,2,80,0,8
13069,-100,4,2,13,80,0,0
13615,-100,4,2,0,5,0,8
13797,-100,4,2,11,80,0,8
13978,-100,4,2,15,80,0,8
14160,-100,4,2,12,80,0,0
14706,-100,4,2,0,5,0,8
14888,-100,4,2,13,40,0,8
15069,-100,4,2,16,30,0,8
15251,-111.111111111111,4,2,11,40,0,0
15615,-111.111111111111,4,2,20,20,0,0
15797,-125,4,2,20,20,0,0
16342,-100,4,3,1,88,0,0
16524,-100,4,3,1,70,0,0
16615,-100,4,3,1,66,0,0
16706,-100,4,3,1,90,0,0
16888,-83.3333333333333,4,2,20,50,0,0
17070,-100,4,3,1,90,0,0
17251,-83.3333333333333,4,3,1,70,0,0
17432,-100,4,2,20,100,0,1
17887,-100,4,2,20,5,0,1
17978,-66.6666666666667,4,2,20,100,0,1
20069,-66.6666666666667,4,2,20,5,0,1
20160,-66.6666666666667,4,2,20,100,0,1
21160,-66.6666666666667,4,2,20,5,0,1
21205,-66.6666666666667,4,2,20,100,0,1
22250,-66.6666666666667,4,2,20,5,0,1
22296,-66.6666666666667,4,2,20,100,0,1
23341,-66.6666666666667,4,2,20,5,0,1
23387,-66.6666666666667,4,2,20,100,0,1
24432,-66.6666666666667,4,2,20,5,0,1
24478,-66.6666666666667,4,2,20,100,0,1
26160,-100,4,2,20,100,0,1
26614,-100,4,2,20,5,0,1
26705,-66.6666666666667,4,2,20,100,0,1
27705,-66.6666666666667,4,2,20,5,0,1
27750,-66.6666666666667,4,2,20,100,0,1
28796,-66.6666666666667,4,2,20,5,0,1
28841,-66.6666666666667,4,2,20,100,0,1
29887,-66.6666666666667,4,2,20,5,0,1
29932,-66.6666666666667,4,2,20,100,0,1
30978,-66.6666666666667,4,2,20,5,0,1
31023,-66.6666666666667,4,2,20,100,0,1
32069,-66.6666666666667,4,2,20,5,0,1
32114,-66.6666666666667,4,2,20,100,0,1
33160,-66.6666666666667,4,2,20,5,0,1
33205,-66.6666666666667,4,2,20,100,0,1
34887,-100,4,2,20,100,0,1
35341,-100,4,2,20,5,0,1
35432,-66.6666666666667,4,2,20,100,0,1
36432,-100,4,2,20,5,0,1
36478,-66.6666666666667,4,2,20,100,0,1
37523,-66.6666666666667,4,2,20,5,0,1
37569,-66.6666666666667,4,2,20,100,0,1
38614,-66.6666666666667,4,2,20,5,0,1
38660,-66.6666666666667,4,2,20,100,0,1
39705,-66.6666666666667,4,2,20,5,0,1
39750,-66.6666666666667,4,2,20,100,0,1
40796,-66.6666666666667,4,2,20,5,0,1
40841,-66.6666666666667,4,2,20,100,0,1
41887,-66.6666666666667,4,2,20,5,0,1
41932,-66.6666666666667,4,2,20,100,0,1
43614,-100,4,2,20,100,0,1
44069,-100,4,2,20,5,0,1
44160,-66.6666666666667,4,2,20,100,0,1
45160,-66.6666666666667,4,2,20,5,0,1
45205,-66.6666666666667,4,2,20,100,0,1
46250,-66.6666666666667,4,2,20,5,0,1
46296,-66.6666666666667,4,2,20,100,0,1
47341,-66.6666666666667,4,2,20,5,0,1
47387,-66.6666666666667,4,2,20,100,0,1
47978,-100,4,2,20,80,0,0
49069,-100,4,2,20,60,0,0
50160,-100,4,2,20,40,0,0
52205,-100,4,2,20,5,0,0
52341,-100,4,2,20,100,0,0
69796,-100,4,2,11,60,0,0
69830,-100,4,2,20,60,0,0
70341,-100,4,2,54,60,0,0
70512,-100,4,2,20,60,0,0
70887,-100,4,2,66,60,0,0
70921,-100,4,2,20,60,0,0
71614,-100,4,2,15,60,0,0
71796,-100,4,2,66,60,0,0
71978,-100,4,2,55,60,0,0
72023,-100,4,2,20,60,0,0
72523,-100,4,2,12,60,0,0
72705,-100,4,2,12,60,0,0
72887,-100,4,2,58,60,0,0
73069,-100,4,2,15,60,0,0
73114,-100,4,2,20,60,0,0
73250,-100,4,2,11,60,0,0
73273,-100,4,2,20,5,0,0
73432,-100,4,2,20,60,0,0
73614,-100,4,2,11,60,0,0
73796,-100,4,2,11,60,0,0
73978,-100,4,2,16,60,0,0
74160,-100,4,2,13,60,0,0
74205,-100,4,2,20,40,0,0
74887,-100,4,2,11,60,0,0
75069,-100,4,2,15,60,0,0
75250,-100,4,2,12,60,0,0
75296,-100,4,2,20,40,0,0
75978,-100,4,2,13,60,0,0
76160,-100,4,2,16,60,0,0
76341,-100,4,2,11,60,0,0
76387,-100,4,2,20,40,0,0
78523,-100,4,2,11,60,0,0
78569,-100,4,2,20,40,0,0
79069,-100,4,2,54,60,0,0
79250,-100,4,2,20,40,0,0
79614,-100,4,2,66,60,0,0
79660,-100,4,2,20,40,0,0
80341,-100,4,2,68,60,0,0
80523,-100,4,2,69,60,0,0
80705,-100,4,2,70,60,0,0
80750,-100,4,2,20,40,0,0
81432,-100,4,2,54,60,0,0
81614,-100,4,2,66,60,0,0
81796,-100,4,2,15,60,0,0
81841,-100,4,2,20,40,0,0
82523,-100,4,2,15,60,0,0
82705,-100,4,2,12,60,0,0
82887,-133.333333333333,4,2,13,59,0,0
82932,-133.333333333333,4,2,20,60,0,0
83432,-133.333333333333,4,2,20,5,0,0
83614,-133.333333333333,4,2,11,60,0,0
83796,-133.333333333333,4,2,15,60,0,0
83978,-158.730158730159,4,2,12,30,0,0
84023,-158.730158730159,4,2,20,60,0,0
84523,-158.730158730159,4,2,20,5,0,0
84705,-158.730158730159,4,2,13,60,0,0
84887,-158.730158730159,4,2,16,60,0,0
85069,-200,4,2,11,50,0,0
85114,-200,4,2,20,20,0,0
86160,-100,4,3,1,50,0,0
86341,-100,4,3,1,60,0,0
86432,-100,4,3,1,70,0,0
86523,-100,4,3,1,80,0,0
86705,-83.3333333333333,4,2,20,100,0,0
86887,-83.3333333333333,4,3,1,80,0,0
87069,-83.3333333333333,4,3,1,60,0,0
87251,-50,4,2,20,100,0,1
87705,-83.3333333333333,4,3,1,5,0,1
87796,-66.6666666666667,4,2,20,100,0,1
88341,-50,4,2,20,100,0,1
88796,-50,4,2,20,5,0,1
88887,-66.6666666666667,4,2,20,100,0,1
89432,-50,4,2,20,100,0,1
89887,-50,4,2,20,5,0,1
89978,-66.6666666666667,4,2,20,100,0,1
90523,-50,4,2,20,100,0,1
91069,-33.3333333333333,4,2,20,100,0,1
91614,-50,4,2,20,100,0,1
92069,-50,4,2,20,5,0,1
92160,-66.6666666666667,4,2,20,100,0,1
92705,-50,4,2,20,100,0,1
93160,-50,4,2,20,5,0,1
93250,-66.6666666666667,4,2,20,100,0,1
93796,-50,4,2,20,100,0,1
94250,-50,4,2,20,5,0,1
94341,-66.6666666666667,4,2,20,100,0,1
94887,-50,4,2,20,100,0,1
95432,-33.3333333333333,4,2,20,100,0,1
95978,-50,4,2,20,100,0,1
96432,-50,4,2,20,5,0,1
96523,-66.6666666666667,4,2,20,100,0,1
97069,-50,4,2,20,100,0,1
97523,-50,4,2,20,5,0,1
97614,-66.6666666666667,4,2,20,100,0,1
98160,-50,4,2,20,100,0,1
98614,-50,4,2,20,5,0,1
98705,-66.6666666666667,4,2,20,100,0,1
99250,-50,4,2,20,100,0,1
99796,-33.3333333333333,4,2,20,100,0,1
100341,-66.6666666666667,4,2,20,100,0,1
100796,-66.6666666666667,4,2,20,5,0,1
100887,-66.6666666666667,4,2,20,100,0,1
101887,-66.6666666666667,4,2,20,5,0,1
101932,-66.6666666666667,4,2,20,100,0,1
102978,-66.6666666666667,4,2,20,5,0,1
103023,-66.6666666666667,4,2,20,100,0,1
104160,-500,4,2,20,100,0,0
104614,-500,4,2,20,5,0,0
104705,-50,4,2,20,100,0,1
105160,-50,4,2,20,5,0,1
105250,-66.6666666666667,4,2,20,100,0,1
105796,-50,4,2,20,100,0,1
106250,-50,4,2,20,5,0,1
106341,-66.6666666666667,4,2,20,100,0,1
106887,-50,4,2,20,100,0,1
107341,-50,4,2,20,5,0,1
107432,-66.6666666666667,4,2,20,100,0,1
109069,-50,4,2,20,100,0,1
109523,-50,4,2,20,5,0,1
109614,-66.6666666666667,4,2,20,100,0,1
110160,-50,4,2,20,100,0,1
110614,-50,4,2,20,5,0,1
110705,-66.6666666666667,4,2,20,100,0,1
111250,-50,4,2,20,100,0,1
111705,-50,4,2,20,5,0,1
111796,-66.6666666666667,4,2,20,100,0,1
113432,-50,4,2,20,100,0,1
113887,-50,4,2,20,5,0,1
113978,-66.6666666666667,4,2,20,100,0,1
114523,-50,4,2,20,100,0,1
114978,-50,4,2,20,5,0,1
115069,-66.6666666666667,4,2,20,100,0,1
115614,-50,4,2,20,100,0,1
116069,-50,4,2,20,5,0,1
116160,-66.6666666666667,4,2,20,100,0,1
116887,-50,4,2,20,100,0,1
117432,-33.3333333333333,4,2,20,100,0,1
117796,-66.6666666666667,4,2,20,100,0,1
118250,-66.6666666666667,4,2,20,5,0,1
118296,-66.6666666666667,4,2,20,100,0,1
119341,-66.6666666666667,4,2,20,5,0,1
119387,-66.6666666666667,4,2,20,100,0,1
120432,-66.6666666666667,4,2,20,5,0,1
120478,-66.6666666666667,4,2,20,100,0,1
121069,-66.6666666666667,4,2,20,100,0,0
122160,-100,4,2,20,100,0,1
122614,-100,4,2,20,5,0,1
122705,-50,4,2,20,100,0,1
122887,-50,4,2,21,100,0,1
123250,-50,4,2,20,100,0,1
123341,-50,4,2,21,100,0,1
123796,-50,4,2,20,100,0,1
123887,-50,4,2,21,100,0,1
124341,-100,4,2,20,100,0,1
124796,-100,4,2,20,5,0,1
124887,-66.6666666666667,4,2,20,100,0,1
125069,-66.6666666666667,4,2,21,40,0,1
125250,-33.3333333333333,4,2,21,80,0,1
125432,-100,4,2,20,100,0,1
125614,-50,4,2,21,40,0,1
125978,-50,4,2,20,100,0,1
126160,-40,4,2,21,40,0,1
126341,-33.3333333333333,4,2,21,80,0,1
126523,-100,4,2,20,100,0,1
126978,-100,4,2,20,5,0,1
127069,-50,4,2,20,100,0,1
127250,-50,4,2,21,100,0,1
127614,-50,4,2,20,100,0,1
127796,-50,4,2,21,100,0,1
128160,-50,4,2,20,100,0,1
128341,-50,4,2,21,100,0,1
128705,-100,4,2,20,100,0,1
129341,-100,4,2,22,100,0,1
129614,-50,4,2,20,100,0,1
129796,-50,4,2,20,100,0,1
129978,-40,4,2,22,100,0,1
130342,-200,4,2,20,100,0,0
130796,-200,4,2,20,5,0,0
130887,-100,4,2,20,100,0,1
131341,-100,4,2,20,5,0,1
131432,-50,4,2,20,100,0,1
131614,-50,4,2,21,100,0,1
132523,-50,4,2,20,100,0,1
132705,-50,4,2,21,100,0,1
133069,-100,4,2,20,100,0,1
133523,-100,4,2,20,5,0,1
133614,-66.6666666666667,4,2,20,100,0,1
133796,-66.6666666666667,4,2,22,40,0,1
133978,-33.3333333333333,4,2,22,80,0,1
134160,-100,4,2,20,100,0,1
134341,-50,4,2,22,40,0,1
134705,-100,4,2,20,100,0,1
134887,-40,4,2,20,100,0,1
135069,-40,4,2,20,100,0,1
135250,-66.6666666666667,4,2,20,100,0,1
135705,-66.6666666666667,4,2,20,5,0,1
135750,-66.6666666666667,4,2,20,100,0,1
136796,-66.6666666666667,4,2,20,5,0,1
136841,-66.6666666666667,4,2,20,100,0,1
137887,-66.6666666666667,4,2,20,5,0,1
137932,-66.6666666666667,4,2,20,100,0,1
139614,-100,4,2,20,100,0,1
140069,-100,4,2,20,5,0,1
140160,-50,4,2,20,100,0,1
140341,-50,4,2,21,100,0,1
141250,-50,4,2,20,100,0,1
141341,-50,4,2,21,100,0,1
141796,-100,4,2,20,100,0,1
142250,-100,4,2,20,5,0,1
142296,-100,4,2,20,100,0,1
142523,-100,4,2,22,40,0,1
142705,-100,4,2,22,80,0,1
142887,-100,4,2,20,100,0,1
143069,-50,4,2,22,40,0,1
143432,-100,4,2,20,100,0,1
143614,-40,4,2,22,40,0,1
143796,-33.3333333333333,4,2,22,80,0,1
143978,-100,4,2,20,100,0,1
144432,-100,4,2,20,5,0,1
144522,-50,4,2,20,100,0,1
144705,-50,4,2,21,100,0,1
145614,-50,4,2,20,100,0,1
145796,-50,4,2,21,100,0,1
145978,-50,4,2,21,100,0,1
146160,-100,4,2,20,100,0,1
146796,-100,4,2,22,100,0,1
147069,-50,4,2,21,100,0,1
147250,-100,4,2,21,100,0,1
147796,-200,4,2,20,100,0,0
148250,-200,4,2,20,5,0,0
148342,-100,4,2,20,100,0,1
148796,-100,4,2,20,5,0,1
148887,-50,4,2,20,100,0,1
149069,-50,4,2,21,100,0,1
149978,-50,4,2,20,100,0,1
150160,-50,4,2,21,100,0,1
150523,-100,4,2,20,100,0,1
150978,-100,4,2,20,5,0,1
151069,-50,4,2,20,100,0,1
151250,-50,4,2,22,40,0,1
151432,-50,4,2,22,80,0,1
151614,-100,4,2,20,100,0,1
151796,-50,4,2,22,40,0,1
152160,-100,4,2,20,100,0,1
152341,-40,4,2,22,60,0,1
152523,-33.3333333333333,4,2,20,100,0,1
152705,-100,4,2,20,80,0,0
153796,-133.333333333333,4,2,20,60,0,0
154887,-200,4,2,20,40,0,0
156932,-200,4,2,20,5,0,0
157069,-200,4,2,20,100,0,0
174523,-100,4,2,11,60,0,0
174557,-100,4,2,20,50,0,0
175068,-100,4,2,54,60,0,0
175239,-100,4,2,20,50,0,0
175614,-100,4,2,66,60,0,0
175648,-100,4,2,20,50,0,0
176341,-100,4,2,15,60,0,0
176523,-100,4,2,66,60,0,0
176705,-100,4,2,55,60,0,0
176750,-100,4,2,20,50,0,0
177250,-100,4,2,12,60,0,0
177432,-100,4,2,12,60,0,0
177614,-100,4,2,58,60,0,0
177796,-100,4,2,15,60,0,0
177841,-100,4,2,20,50,0,0
177978,-100,4,2,11,60,0,0
178000,-100,4,2,20,50,0,0
178159,-100,4,2,20,50,0,0
178341,-100,4,2,11,60,0,0
178523,-100,4,2,11,60,0,0
178705,-100,4,2,16,60,0,0
178887,-100,4,2,13,60,0,0
178932,-100,4,2,20,40,0,0
179614,-100,4,2,11,60,0,0
179796,-100,4,2,15,60,0,0
179977,-100,4,2,12,60,0,0
180023,-100,4,2,20,40,0,0
180705,-100,4,2,13,60,0,0
180887,-100,4,2,16,60,0,0
181068,-100,4,2,11,60,0,0
181114,-100,4,2,20,40,0,0
183250,-100,4,2,11,60,0,0
183296,-100,4,2,20,40,0,0
183796,-100,4,2,54,60,0,0
183977,-100,4,2,20,40,0,0
184341,-100,4,2,66,60,0,0
184387,-100,4,2,20,40,0,0
185068,-100,4,2,68,60,0,0
185250,-100,4,2,69,60,0,0
185432,-100,4,2,70,60,0,0
185478,-100,4,2,20,40,0,0
186159,-100,4,2,54,60,0,0
186341,-100,4,2,66,60,0,0
186523,-100,4,2,15,60,0,0
186614,-100,4,2,20,40,0,0
187250,-100,4,2,15,60,0,0
187432,-100,4,2,12,60,0,0
187614,-100,4,2,13,59,0,0
187659,-100,4,2,20,60,0,0
188341,-100,4,2,11,60,0,0
188523,-100,4,2,15,60,0,0
188705,-100,4,2,12,30,0,0
188750,-100,4,2,20,60,0,0
189432,-100,4,2,13,60,0,0
189614,-100,4,2,16,60,0,0
189796,-100,4,2,11,50,0,0
189841,-100,4,2,20,20,0,0
190887,-100,4,3,1,20,0,0
191069,-100,4,3,1,30,0,0
191250,-100,4,3,1,40,0,0
191432,-100,4,3,20,70,0,0
191978,-200,4,2,20,60,0,0
193069,-181.818181818182,4,2,20,60,0,0
194160,-166.666666666667,4,2,20,100,0,0
194193,-166.666666666667,4,2,20,60,0,0
195250,-153.846153846154,4,2,20,60,0,0
196341,-142.857142857143,4,2,20,100,0,0
196375,-142.857142857143,4,2,20,60,0,0
197432,-133.333333333333,4,2,20,60,0,0
198523,-125,4,2,20,100,0,0
198556,-125,4,2,20,60,0,0
199614,-117.647058823529,4,2,20,60,0,0
200705,-111.111111111111,4,2,20,100,0,0
200738,-111.111111111111,4,2,20,60,0,0
201796,-105.263157894737,4,2,20,100,0,0
201829,-105.263157894737,4,2,20,60,0,0
202887,-100,4,2,20,100,0,0
202920,-100,4,2,20,60,0,0
203978,-95.2380952380952,4,2,20,100,0,0
204011,-95.2380952380952,4,2,20,60,0,0
205069,-90.9090909090909,4,2,20,100,0,0
205102,-90.9090909090909,4,2,20,60,0,0
205614,-86.9565217391304,4,2,20,100,0,0
205647,-86.9565217391304,4,2,20,63,0,0
206160,-83.3333333333333,4,2,20,100,0,0
206193,-83.3333333333333,4,2,20,65,0,0
206705,-80,4,2,20,100,0,0
206738,-80,4,2,20,67,0,0
207250,-76.9230769230769,4,2,20,100,0,0
207796,-71.4285714285714,4,2,20,100,0,0
207829,-71.4285714285714,4,2,20,100,0,0
208341,-66.6666666666667,4,3,1,100,0,0
208887,-100,4,2,20,100,0,0
209069,-100,4,2,20,75,0,0
209250,-100,4,2,20,50,0,0
209432,-100,4,2,20,100,0,1
209887,-100,4,2,20,5,0,1
209978,-33.3333333333333,4,2,20,100,0,1
210160,-50,4,2,30,100,0,1
210523,-33.3333333333333,4,2,20,100,0,1
210705,-50,4,2,30,100,0,1
211069,-33.3333333333333,4,2,20,100,0,1
211250,-50,4,2,30,100,0,1
211614,-100,4,2,20,100,0,1
212069,-100,4,2,20,5,0,1
212160,-33.3333333333333,4,2,20,100,0,1
212341,-50,4,2,30,100,0,1
212705,-100,4,2,20,100,0,1
212887,-50,4,2,30,100,0,1
213250,-33.3333333333333,4,2,20,100,0,1
213432,-50,4,2,90,100,0,1
213796,-100,4,2,20,100,0,1
214250,-100,4,2,20,5,0,1
214341,-33.3333333333333,4,2,20,100,0,1
214523,-50,4,2,30,100,0,1
214887,-33.3333333333333,4,2,20,100,0,1
215069,-50,4,2,30,100,0,1
215432,-33.3333333333333,4,2,20,100,0,1
215613,-50,4,2,30,100,0,1
215978,-100,4,2,20,100,0,1
216432,-100,4,2,20,5,0,1
216523,-50,4,2,20,100,0,1
216705,-50,4,2,91,80,0,1
217069,-50,4,2,20,100,0,1
217250,-50,4,2,91,80,0,1
217614,-200,4,2,20,100,0,0
218069,-200,4,2,20,5,0,0
218160,-100,4,2,20,100,0,1
218614,-100,4,2,20,5,0,1
218705,-33.3333333333333,4,2,20,100,0,1
218887,-33.3333333333333,4,2,21,70,0,1
219069,-33.3333333333333,4,2,21,100,0,1
219250,-33.3333333333333,4,2,20,100,0,1
219432,-33.3333333333333,4,2,21,70,0,1
219796,-33.3333333333333,4,2,20,100,0,1
219978,-33.3333333333333,4,2,21,70,0,1
220160,-33.3333333333333,4,2,21,100,0,1
220341,-100,4,2,20,100,0,1
220796,-100,4,2,20,5,0,1
220887,-33.3333333333333,4,2,20,100,0,1
221069,-33.3333333333333,4,2,21,70,0,1
221432,-100,4,2,20,100,0,1
221614,-33.3333333333333,4,2,21,100,0,1
221978,-50,4,2,20,100,0,1
222160,-50,4,2,90,100,0,1
222523,-100,4,2,20,100,0,1
222978,-100,4,2,20,5,0,1
223069,-33.3333333333333,4,2,20,100,0,1
223250,-50,4,2,21,70,0,1
223432,-33.3333333333333,4,2,21,100,0,1
223614,-50,4,2,20,100,0,1
223796,-50,4,2,30,100,0,1
224160,-50,4,2,20,100,0,1
224341,-50,4,2,30,100,0,1
225160,-50,4,2,30,5,0,1
225205,-50,4,2,20,100,0,1
226342,-1000,4,2,20,100,0,0
226796,-1000,4,2,20,5,0,0
226887,-100,4,2,20,100,0,1
227341,-100,4,2,20,5,0,1
227432,-50,4,2,20,100,0,1
227614,-50,4,2,30,100,0,1
227978,-50,4,2,20,100,0,1
228160,-50,4,2,30,100,0,1
228523,-50,4,2,20,100,0,1
228705,-50,4,2,30,100,0,1
229069,-100,4,2,20,100,0,1
229523,-100,4,2,20,5,0,1
229614,-50,4,2,20,100,0,1
229796,-50,4,2,30,100,0,1
230160,-50,4,2,20,100,0,1
230341,-50,4,2,30,100,0,1
230705,-33.3333333333333,4,2,20,100,0,1
230887,-50,4,2,90,100,0,1
231250,-100,4,2,20,100,0,1
231705,-100,4,2,20,5,0,1
231796,-50,4,2,20,100,0,1
231978,-50,4,2,30,100,0,1
232341,-50,4,2,20,100,0,1
232478,-50,4,2,30,100,0,1
232887,-50,4,2,20,100,0,1
232978,-50,4,2,30,100,0,1
233432,-100,4,2,20,100,0,1
233887,-100,4,2,20,5,0,1
233978,-50,4,2,20,100,0,1
234160,-50,4,2,91,100,0,1
234523,-50,4,2,20,100,0,1
234705,-50,4,2,91,100,0,1
235069,-200,4,2,20,100,0,0
235523,-200,4,2,20,5,0,0
235614,-100,4,2,20,100,0,1
236069,-100,4,2,20,5,0,1
236160,-33.3333333333333,4,2,20,100,0,1
236341,-50,4,2,30,100,0,1
236705,-33.3333333333333,4,2,20,100,0,1
236796,-50,4,2,30,100,0,1
237250,-50,4,2,20,100,0,1
237432,-33.3333333333333,4,2,20,100,0,1
237796,-100,4,2,20,100,0,1
238250,-100,4,2,20,5,0,1
238341,-50,4,2,20,100,0,1
238523,-50,4,2,30,100,0,1
238887,-50,4,2,20,100,0,1
238932,-50,4,2,30,100,0,1
239432,-200,4,2,20,100,0,1
239614,-200,4,2,20,50,0,1
239796,-133.333333333333,4,2,20,70,0,1
239978,-100,4,2,20,100,0,1
240432,-100,4,2,20,5,0,1
240478,-100,4,2,20,100,0,1
241069,-66.6666666666667,4,2,20,100,0,1
241523,-66.6666666666667,4,2,20,5,0,1
241569,-66.6666666666667,4,2,20,100,0,1
242160,-50,4,2,20,100,0,1
242614,-50,4,2,20,5,0,1
242705,-50,4,2,20,100,0,1
242887,-50,4,2,90,60,0,1
243250,-50,4,2,20,100,0,1
243432,-50,4,2,90,60,0,1
243796,-1000,4,2,20,100,0,0
244250,-1000,4,2,20,5,0,0
244342,-100,4,2,20,100,0,1
244796,-100,4,2,20,5,0,1
244887,-50,4,2,20,100,0,1
245069,-50,4,2,21,100,0,1
245978,-50,4,2,20,100,0,1
246069,-50,4,2,21,100,0,1
246523,-100,4,2,20,100,0,1
246978,-100,4,2,20,5,0,1
247069,-33.3333333333333,4,2,20,100,0,1
247250,-100,4,2,21,40,0,1
247432,-50,4,2,21,80,0,1
247614,-33.3333333333333,4,2,20,100,0,1
247796,-33.3333333333333,4,2,21,80,0,1
248160,-33.3333333333333,4,2,20,100,0,1
248341,-50,4,2,21,40,0,1
248523,-33.3333333333333,4,2,21,80,0,1
248705,-100,4,2,20,100,0,1
249160,-100,4,2,20,5,0,1
249250,-50,4,2,20,100,0,1
249432,-50,4,2,21,100,0,1
250341,-50,4,2,20,100,0,1
250523,-50,4,2,21,100,0,1
250887,-100,4,2,20,100,0,1
251432,-50,4,2,20,100,0,1
251523,-50,4,2,21,100,0,1
252160,-33.3333333333333,4,2,21,100,0,1
252523,-200,4,2,20,100,0,0
252978,-200,4,2,20,5,0,0
253069,-100,4,2,20,100,0,1
253523,-100,4,2,20,5,0,1
253614,-50,4,2,20,100,0,1
253796,-50,4,2,21,100,0,1
254705,-50,4,2,20,100,0,1
254887,-33.3333333333333,4,2,21,100,0,1
255250,-100,4,2,20,100,0,1
255705,-100,4,2,20,5,0,1
255796,-33.3333333333333,4,2,20,100,0,1
255978,-100,4,2,21,40,0,1
256160,-50,4,2,21,80,0,1
256341,-33.3333333333333,4,2,20,100,0,1
256523,-33.3333333333333,4,2,21,80,0,1
256887,-33.3333333333333,4,2,20,100,0,1
257069,-33.3333333333333,4,2,21,80,0,1
257432,-50,4,2,20,100,0,1
257887,-50,4,2,20,5,0,1
257932,-50,4,2,20,100,0,1
258978,-50,4,2,20,5,0,1
259023,-50,4,2,20,100,0,1
260069,-50,4,2,20,5,0,1
260114,-50,4,2,20,100,0,1
261796,-100,4,2,20,100,0,1
262250,-100,4,2,20,5,0,1
262341,-50,4,2,20,100,0,1
262523,-50,4,2,21,100,0,1
263432,-50,4,2,20,100,0,1
263614,-50,4,2,21,100,0,1
263978,-100,4,2,20,100,0,1
264432,-100,4,2,20,5,0,1
264523,-33.3333333333333,4,2,20,100,0,1
264705,-100,4,2,21,40,0,1
264887,-50,4,2,21,80,0,1
265069,-100,4,2,20,100,0,1
265250,-50,4,2,21,80,0,1
265614,-33.3333333333333,4,2,20,100,0,1
265796,-100,4,2,21,40,0,1
265978,-50,4,2,21,80,0,1
266160,-100,4,2,20,100,0,1
266614,-100,4,2,20,5,0,1
266705,-50,4,2,20,100,0,1
266887,-50,4,2,21,100,0,1
267796,-50,4,2,20,100,0,1
267978,-50,4,2,21,100,0,1
268341,-100,4,2,20,100,0,1
268887,-100,4,2,20,100,0,1
268978,-100,4,2,21,100,0,1
269250,-50,4,2,21,100,0,1
269432,-50,4,2,20,100,0,1
269614,-33.3333333333333,4,2,21,100,0,1
269978,-200,4,2,20,100,0,0
270432,-200,4,2,20,5,0,0
270523,-100,4,2,20,100,0,1
270978,-100,4,2,20,5,0,1
271069,-50,4,2,20,100,0,1
271250,-50,4,2,21,100,0,1
272160,-50,4,2,20,100,0,1
272341,-50,4,2,21,100,0,1
272705,-100,4,2,20,100,0,1
273160,-100,4,2,20,5,0,1
273250,-33.3333333333333,4,2,20,100,0,1
273432,-100,4,2,21,40,0,1
273614,-50,4,2,21,80,0,1
273796,-100,4,2,20,100,0,1
273978,-50,4,2,21,80,0,1
274341,-50,4,2,20,100,0,1
274523,-50,4,2,21,60,0,1
274887,-133.333333333333,4,2,20,80,0,0
275978,-158.730158730159,4,2,20,60,0,0
277069,-200,4,2,20,40,0,0
296705,-133.333333333333,4,2,20,50,0,0
314160,-125,4,2,20,60,0,0
331614,-100,4,2,20,80,0,0
331647,-100,4,2,20,60,0,0
333795,-100,4,2,20,80,0,0
333829,-100,4,2,20,60,0,0
335977,-100,4,2,20,80,0,0
336011,-100,4,2,20,60,0,0
338159,-100,4,2,20,80,0,0
338193,-100,4,2,20,60,0,0
340341,-100,4,2,20,80,0,0
340375,-100,4,2,20,60,0,0
341432,-95.2380952380952,4,2,20,60,0,0
342523,-90.9090909090909,4,2,20,60,0,0
343614,-86.9565217391304,4,2,20,60,0,0
344705,-83.3333333333333,4,2,20,90,0,0
345250,-80,4,2,20,80,0,0
345796,-100,4,2,20,70,0,0
346341,-111.111111111111,4,2,20,60,0,0
346887,-125,4,2,20,50,0,0
347432,-142.857142857143,4,2,20,40,0,0
347978,-117.647058823529,4,3,1,60,0,0
348523,-100,4,2,20,100,0,0
348705,-117.647058823529,4,3,1,75,0,0
348887,-117.647058823529,4,3,1,50,0,0
349069,-66.6666666666667,4,2,20,100,0,1
350614,-66.6666666666667,4,2,20,5,0,1
350660,-66.6666666666667,4,2,20,100,0,1
351705,-66.6666666666667,4,2,20,5,0,1
351750,-66.6666666666667,4,2,20,100,0,1
352796,-66.6666666666667,4,2,20,5,0,1
352841,-66.6666666666667,4,2,20,100,0,1
353887,-66.6666666666667,4,2,20,5,0,1
353932,-66.6666666666667,4,2,20,100,0,1
354978,-66.6666666666667,4,2,20,5,0,1
355023,-66.6666666666667,4,2,20,100,0,1
356069,-66.6666666666667,4,2,20,5,0,1
356114,-66.6666666666667,4,2,20,100,0,1
359341,-66.6666666666667,4,2,20,5,0,1
359387,-66.6666666666667,4,2,20,100,0,1
360432,-66.6666666666667,4,2,20,5,0,1
360478,-66.6666666666667,4,2,20,100,0,1
361523,-66.6666666666667,4,2,20,5,0,1
361569,-66.6666666666667,4,2,20,100,0,1
362614,-66.6666666666667,4,2,20,5,0,1
362660,-66.6666666666667,4,2,20,100,0,1
363705,-66.6666666666667,4,2,20,5,0,1
363750,-66.6666666666667,4,2,20,100,0,1
364796,-66.6666666666667,4,2,20,5,0,1
364841,-66.6666666666667,4,2,20,100,0,1
366978,-66.6666666666667,4,2,20,5,0,1
367023,-66.6666666666667,4,2,20,100,0,1
368069,-66.6666666666667,4,2,20,5,0,1
368114,-66.6666666666667,4,2,20,100,0,1
369160,-66.6666666666667,4,2,20,5,0,1
369205,-66.6666666666667,4,2,20,100,0,1
370250,-66.6666666666667,4,2,20,5,0,1
370296,-66.6666666666667,4,2,20,100,0,1
371341,-66.6666666666667,4,2,20,5,0,1
371387,-66.6666666666667,4,2,20,100,0,1
372432,-66.6666666666667,4,2,20,5,0,1
372478,-66.6666666666667,4,2,20,100,0,1
373523,-66.6666666666667,4,2,20,5,0,1
373569,-66.6666666666667,4,2,20,100,0,1
375705,-66.6666666666667,4,2,20,5,0,1
375750,-66.6666666666667,4,2,20,100,0,1
376796,-66.6666666666667,4,2,20,5,0,1
376841,-66.6666666666667,4,2,20,100,0,1
377887,-66.6666666666667,4,2,20,5,0,1
377932,-66.6666666666667,4,2,20,100,0,1
378978,-66.6666666666667,4,2,20,5,0,1
379023,-66.6666666666667,4,2,20,100,0,1
379614,-133.333333333333,4,2,20,100,0,0
380705,-158.730158730159,4,2,20,100,0,0
381796,-200,4,2,20,100,0,0
382887,-133.333333333333,4,2,20,100,0,0
383250,-125,4,2,20,100,0,0
383432,-117.647058823529,4,2,20,100,0,0
383614,-111.111111111111,4,2,20,100,0,0
383796,-105.263157894737,4,2,20,100,0,0
383978,-133.333333333333,4,2,1,40,0,0
384341,-133.333333333333,4,2,3,40,0,8
384523,-133.333333333333,4,2,4,40,0,8
384705,-133.333333333333,4,2,3,40,0,8
384887,-133.333333333333,4,2,2,40,0,8
385069,-133.333333333333,4,2,5,40,0,8
385432,-133.333333333333,4,2,7,40,0,8
385614,-133.333333333333,4,2,8,40,0,8
385796,-133.333333333333,4,2,7,40,0,8
385978,-133.333333333333,4,2,6,40,0,8
386160,-133.333333333333,4,2,9,40,0,0
386523,-133.333333333333,4,2,11,40,0,0
386705,-133.333333333333,4,2,12,40,0,0
386887,-133.333333333333,4,2,11,40,0,0
387069,-133.333333333333,4,2,10,40,0,0
387250,-133.333333333333,4,2,1,40,0,0
387432,-133.333333333333,4,2,2,40,0,8
387796,-133.333333333333,4,2,4,40,0,8
387978,-133.333333333333,4,2,3,40,0,8
388160,-133.333333333333,4,2,2,40,0,8
388341,-133.333333333333,4,2,13,40,0,0
388887,-133.333333333333,4,2,0,5,0,8
389069,-133.333333333333,4,2,11,40,0,8
389250,-133.333333333333,4,2,15,40,0,8
389432,-133.333333333333,4,2,12,40,0,0
389978,-133.333333333333,4,2,0,5,0,8
390160,-133.333333333333,4,2,13,40,0,8
390341,-133.333333333333,4,2,16,40,0,8
390523,-133.333333333333,4,2,11,40,0,0
390887,-133.333333333333,4,2,3,40,0,8
391069,-133.333333333333,4,2,4,40,0,8
391250,-133.333333333333,4,2,3,40,0,8
391432,-133.333333333333,4,2,2,40,0,8
391614,-133.333333333333,4,2,1,40,0,0
391796,-133.333333333333,4,2,2,40,0,8
391978,-133.333333333333,4,2,3,40,0,8
392160,-133.333333333333,4,2,4,40,0,8
392341,-133.333333333333,4,2,3,40,0,8
392523,-133.333333333333,4,2,2,40,0,8
392705,-133.333333333333,4,2,1,40,0,0
392887,-133.333333333333,4,2,2,40,0,8
393068,-133.333333333333,4,2,3,40,0,8
393250,-133.333333333333,4,2,4,40,0,8
393432,-133.333333333333,4,2,3,40,0,8
393614,-133.333333333333,4,2,2,40,0,8
393796,-133.333333333333,4,2,5,40,0,8
393977,-133.333333333333,4,2,6,40,0,8
394159,-133.333333333333,4,2,7,40,0,8
394341,-133.333333333333,4,2,8,40,0,8
394523,-133.333333333333,4,2,7,40,0,8
394705,-133.333333333333,4,2,6,40,0,8
394887,-133.333333333333,4,2,9,40,0,0
395250,-133.333333333333,4,2,11,40,0,0
395432,-133.333333333333,4,2,12,40,0,0
395614,-133.333333333333,4,2,11,40,0,0
395796,-133.333333333333,4,2,10,40,0,0
395977,-133.333333333333,4,2,1,40,0,0
396341,-133.333333333333,4,2,3,40,0,8
396523,-133.333333333333,4,2,4,40,0,8
396705,-133.333333333333,4,2,3,40,0,8
396887,-133.333333333333,4,2,2,40,0,8
397068,-133.333333333333,4,2,13,40,0,0
397614,-133.333333333333,4,2,0,5,0,8
397796,-133.333333333333,4,2,11,40,0,8
397977,-133.333333333333,4,2,15,40,0,8
398159,-133.333333333333,4,2,12,40,0,0
398705,-133.333333333333,4,2,0,5,0,8
398887,-133.333333333333,4,2,13,40,0,8
399068,-133.333333333333,4,2,16,40,0,8
399250,-133.333333333333,4,2,11,40,0,0
401432,-133.333333333333,4,2,0,5,0,0

[Colours]
Combo1 : 255,255,255
Combo2 : 18,250,139
Combo3 : 18,124,255
Combo4 : 247,111,131

[HitObjects]
176,310,0,6,0,P|226:309|246:315,1,46.6666666666667,2|2,0:0|0:0,0:0:0:0:
290,337,342,1,2,0:0:0:0:
367,254,524,2,0,L|358:312,1,46.6666666666667,2|2,0:0|0:0,0:0:0:0:
313,191,888,1,2,0:0:0:0:
425,92,1070,6,0,P|375:91|355:97,1,46.6666666666667,2|2,0:0|0:0,0:0:0:0:
305,103,1433,1,2,0:0:0:0:
188,160,1615,2,0,L|187:102,1,46.6666666666667,2|2,0:0|0:0,0:0:0:0:
126,70,1979,1,2,0:0:0:0:
54,244,2161,6,0,P|111:253|127:248,1,46.6666666666667,2|2,0:0|0:0,0:0:0:0:
193,251,2524,1,2,0:0:0:0:
98,173,2706,1,2,0:0:0:0:
194,160,2888,1,2,0:0:0:0:
78,154,3070,1,2,0:0:0:0:
90,280,3251,5,2,0:0:0:0:
183,333,3433,2,0,P|227:335|276:338,1,93.3333333333333,2|2,0:0|0:0,0:0:0:0:
387,378,3979,1,2,0:0:0:0:
329,251,4161,1,2,0:0:0:0:
451,158,4342,6,0,B|467:89|467:89|445:12,1,140,2|0,0:0|0:0,0:0:0:0:
380,93,5070,2,0,L|307:100,1,46.6666666666667,2|2,0:0|0:0,0:0:0:0:
177,208,5433,6,0,B|169:150|169:150|182:127|182:127|171:52,1,140,2|0,0:0|0:0,0:0:0:0:
88,172,6161,2,0,L|94:221,1,46.6666666666667,2|2,0:0|0:0,0:0:0:0:
196,324,6524,6,0,P|252:346|310:316,1,93.3333333333333,2|2,0:0|0:0,0:0:0:0:
254,239,7070,2,0,P|309:214|328:152,1,93.3333333333333,2|2,0:0|0:0,0:0:0:0:
237,135,7615,2,0,P|259:79|229:21,1,93.3333333333333,2|2,0:0|0:0,0:0:0:0:
152,76,8161,2,0,P|127:20|65:1,1,93.3333333333333,2|2,0:0|0:0,0:0:0:0:
23,184,8706,6,0,B|133:167,1,93.3333333333333,2|2,0:0|0:0,0:0:0:0:
190,242,9251,2,0,P|244:234|262:243,2,46.6666666666667,2|2|2,0:0|0:0|0:0,0:0:0:0:
309,305,9797,2,0,P|340:235|319:175,1,140,2|2,0:0|0:0,0:0:0:0:
203,78,10524,1,2,0:0:0:0:
234,231,10706,1,2,0:0:0:0:
407,133,10888,6,0,P|449:128|477:137,1,46.6666666666667,2|2,0:0|0:0,0:0:0:0:
374,243,11251,2,0,L|304:235,1,46.6666666666667,2|2,0:0|0:0,0:0:0:0:
170,308,11615,1,2,0:0:0:0:
260,156,11797,1,2,0:0:0:0:
299,330,11979,6,0,P|348:345|385:338,2,46.6666666666667,2|2|2,0:0|0:0|0:0,0:0:0:0:
170,308,12524,2,0,P|141:314|119:315,2,46.6666666666667,2|2|2,0:0|0:0|0:0,0:0:0:0:
248,128,13070,6,0,L|245:273,1,140,2|2,0:0|0:0,0:0:0:0:
333,221,13797,2,0,P|346:174|342:150,1,46.6666666666667,2|2,0:0|0:0,0:0:0:0:
180,317,14161,6,0,P|234:346|306:319,1,140,2|2,0:0|0:0,0:0:0:0:
333,221,14888,1,2,0:0:0:0:
406,292,15070,1,2,0:0:0:0:
457,227,15251,6,0,L|461:135,1,83.9999974365235,2|0,0:0|0:0,0:0:0:0:
368,209,15797,2,0,L|361:131,1,74.6666666666667
307,279,16342,5,2,3:0:0:0:
375,216,16524,1,2,3:0:0:0:
375,216,16615,1,2,3:0:0:0:
375,216,16706,1,2,3:0:0:0:
351,369,16888,6,0,L|261:361,1,55.9999982910157,8|2,2:0|0:0,0:0:0:0:
201,301,17251,1,2,0:0:0:0:
274,245,17433,6,0,L|266:129,1,116.666666666667,4|0,0:1|0:0,0:0:0:0:
340,112,17979,6,0,L|346:68,1,35.0000013351441,8|0,0:0|0:0,0:0:0:0:
197,185,18161,2,0,L|191:141,1,35.0000013351441,2|0,0:0|0:0,0:0:0:0:
72,105,18342,2,0,L|78:61,1,35.0000013351441,2|0,0:0|0:0,0:0:0:0:
24,260,18524,6,0,L|213:273,1,175.00000667572,2|0,0:0|0:0,0:0:0:0:
256,223,19070,1,8,0:0:0:0:
111,366,19251,6,0,L|163:364,1,35.0000013351441,2|0,0:0|0:0,0:0:0:0:
222,357,19433,2,0,L|256:355,1,35.0000013351441,2|0,0:0|0:0,0:0:0:0:
454,348,19615,6,0,B|430:254|430:254|451:167,1,175.00000667572,2|0,0:0|0:0,0:0:0:0:
473,104,20161,1,8,0:0:0:0:
305,209,20342,6,0,L|311:269,1,35.0000013351441,2|0,0:0|0:0,0:0:0:0:
218,162,20524,2,0,L|224:222,1,35.0000013351441,2|0,0:0|0:0,0:0:0:0:
141,100,20706,5,2,0:0:0:0:
0,259,20888,2,0,P|46:274|116:244,1,105.000004005432
133,192,21251,1,8,0:0:0:0:
202,368,21433,6,0,L|206:319,1,35.0000013351441,2|0,0:0|0:0,0:0:0:0:
310,368,21615,2,0,L|306:319,1,35.0000013351441,2|0,0:0|0:0,0:0:0:0:
207,136,21797,6,0,B|267:162|267:162|322:148|322:148|381:163,1,175.00000667572,2|0,0:0|0:0,0:0:0:0:
418,224,22342,1,8,0:0:0:0:
204,41,22524,6,0,L|155:52,1,35.0000013351441,2|0,0:0|0:0,0:0:0:0:
203,222,22706,2,0,L|154:211,1,35.0000013351441,2|0,0:0|0:0,0:0:0:0:
348,356,22888,6,0,B|315:342|315:342|283:354|283:354|248:344|248:344|214:355|214:355|181:341,1,175.00000667572,2|0,0:0|0:0,0:0:0:0:
118,308,23433,1,8,0:0:0:0:
384,237,23615,6,0,L|333:241,1,35.0000013351441,2|0,0:0|0:0,0:0:0:0:
204,205,23797,2,0,L|169:202,1,35.0000013351441,2|0,0:0|0:0,0:0:0:0:
271,85,23979,6,0,B|357:107|357:107|441:72,1,175.00000667572,2|0,0:0|0:0,0:0:0:0:
501,24,24524,1,8,0:0:0:0:
291,187,24706,6,0,L|241:174,1,35.0000013351441,2|0,0:0|0:0,0:0:0:0:
421,185,24888,2,0,L|455:175,1,35.0000013351441,2|0,0:0|0:0,0:0:0:0:
361,268,25070,5,2,0:0:0:0:
257,178,25251,6,0,L|268:133,1,35.0000013351441,2|0,0:0|0:0,0:0:0:0:
147,272,25433,2,0,L|158:227,1,35.0000013351441,2|0,0:0|0:0,0:0:0:0:
20,157,25615,5,10,0:0:0:0:
57,348,25797,6,0,L|96:343,1,35.0000013351441,2|0,0:0|0:0,0:0:0:0:
271,316,25979,2,0,L|236:311,1,35.0000013351441,2|0,0:0|0:0,0:0:0:0:
408,144,26161,6,0,P|439:215|412:259,1,116.666666666667,4|0,0:1|0:0,0:0:0:0:
377,312,26706,6,0,P|378:338|386:353,1,35.0000013351441,8|0,0:0|0:0,0:0:0:0:
284,244,26888,2,0,P|266:263|261:279,1,35.0000013351441,2|0,0:0|0:0,0:0:0:0:
303,136,27070,2,0,P|276:137|262:145,1,35.0000013351441,2|0,0:0|0:0,0:0:0:0:
404,36,27251,6,0,P|264:36|221:19,1,175.00000667572,2|0,0:0|0:0,0:0:0:0:
163,0,27797,1,8,0:0:0:0:
303,136,27979,6,0,P|347:138|361:136,1,35.0000013351441,2|0,0:0|0:0,0:0:0:0:
447,238,28161,2,0,P|464:240|481:240,1,35.0000013351441,2|0,0:0|0:0,0:0:0:0:
319,380,28342,6,0,P|282:338|311:222,1,175.00000667572,2|0,0:0|0:0,0:0:0:0:
370,189,28888,1,8,0:0:0:0:
195,250,29070,6,0,P|146:251|133:256,1,35.0000013351441,2|0,0:0|0:0,0:0:0:0:
362,299,29251,2,0,P|411:298|424:293,1,35.0000013351441,2|0,0:0|0:0,0:0:0:0:
74,344,29433,6,0,L|63:163,1,175.00000667572,2|0,0:0|0:0,0:0:0:0:
89,94,29979,1,8,0:0:0:0:
177,266,30161,6,0,L|183:210,1,35.0000013351441,2|0,0:0|0:0,0:0:0:0:
242,365,30342,2,0,L|285:329,1,35.0000013351441,2|0,0:0|0:0,0:0:0:0:
447,211,30524,6,0,B|402:193|362:215|362:215|335:178|276:189,1,175.00000667572,2|0,0:0|0:0,0:0:0:0:
214,215,31070,1,8,0:0:0:0:
422,316,31251,6,0,P|411:294|411:273,1,35.0000013351441,2|0,0:0|0:0,0:0:0:0:
381,130,31433,2,0,P|389:111|392:87,1,35.0000013351441,2|0,0:0|0:0,0:0:0:0:
266,267,31615,6,0,P|224:288|141:206,1,175.00000667572,2|0,0:0|0:0,0:0:0:0:
147,140,32161,1,8,0:0:0:0:
345,224,32342,6,0,L|349:276,1,35.0000013351441,2|0,0:0|0:0,0:0:0:0:
254,167,32524,2,0,L|258:115,1,35.0000013351441,2|0,0:0|0:0,0:0:0:0:
358,34,32706,6,0,B|398:52|427:47|427:47|395:93|425:151,1,175.00000667572,2|0,0:0|0:0,0:0:0:0:
459,211,33251,1,8,0:0:0:0:
307,109,33433,6,0,P|267:114|242:120,1,35.0000013351441,2|0,0:0|0:0,0:0:0:0:
346,205,33615,2,0,P|306:210|281:216,1,35.0000013351441,2|0,0:0|0:0,0:0:0:0:
208,320,33797,5,2,0:0:0:0:
79,195,33979,6,0,P|73:154|73:145,1,35.0000013351441,2|0,0:0|0:0,0:0:0:0:
176,106,34161,2,0,P|182:65|182:56,1,35.0000013351441,2|0,0:0|0:0,0:0:0:0:
92,284,34342,5,10,0:0:0:0:
316,357,34524,6,0,P|362:362|383:362,1,35.0000013351441,2|0,0:0|0:0,0:0:0:0:
311,246,34706,2,0,P|354:262|374:268,1,35.0000013351441,2|0,0:0|0:0,0:0:0:0:
367,54,34888,6,0,B|356:98|356:98|373:178,1,116.666666666667,4|0,0:1|0:0,0:0:0:0:
417,227,35433,1,8,0:0:0:0:
249,110,35615,6,0,B|259:126|259:126|255:151,1,35.0000013351441,2|0,0:0|0:0,0:0:0:0:
169,253,35797,2,0,B|159:237|159:237|163:212,1,35.0000013351441,2|0,0:0|0:0,0:0:0:0:
294,356,35979,6,0,L|93:346,1,175.00000667572,2|0,0:0|0:0,0:0:0:0:
47,342,36524,1,8,0:0:0:0:
283,265,36706,6,0,P|321:265|337:273,1,35.0000013351441,2|0,0:0|0:0,0:0:0:0:
189,178,36888,2,0,P|227:178|243:170,1,35.0000013351441,2|0,0:0|0:0,0:0:0:0:
96,34,37070,6,0,B|86:100|86:100|114:132|114:132|96:162|102:202,1,175.00000667572,2|0,0:0|0:0,0:0:0:0:
115,269,37615,1,8,0:0:0:0:
189,69,37797,6,0,L|232:64,1,35.0000013351441,2|0,0:0|0:0,0:0:0:0:
363,111,37979,2,0,L|328:115,1,35.0000013351441,2|0,0:0|0:0,0:0:0:0:
176,215,38161,21,2,0:0:0:0:
369,300,38342,2,0,P|313:284|264:324,1,105.000004005432
225,363,38706,1,8,0:0:0:0:
439,242,38888,6,0,L|431:190,1,35.0000013351441,2|0,0:0|0:0,0:0:0:0:
491,375,39070,2,0,L|496:340,1,35.0000013351441,2|0,0:0|0:0,0:0:0:0:
267,189,39251,6,0,B|350:173|350:173|434:207,1,175.00000667572,2|0,0:0|0:0,0:0:0:0:
501,249,39797,1,8,0:0:0:0:
279,98,39979,6,0,L|273:60,1,35.0000013351441,2|0,0:0|0:0,0:0:0:0:
347,287,40161,2,0,L|341:249,1,35.0000013351441,2|0,0:0|0:0,0:0:0:0:
141,144,40342,6,0,P|71:176|114:255,1,175.00000667572,2|0,0:0|0:0,0:0:0:0:
171,288,40888,1,8,0:0:0:0:
251,153,41070,6,0,P|268:155|285:159,1,35.0000013351441,2|0,0:0|0:0,0:0:0:0:
394,197,41251,2,0,P|411:194|428:190,1,35.0000013351441,2|0,0:0|0:0,0:0:0:0:
474,315,41433,6,0,B|437:318|437:318|405:306|405:306|366:318|366:318|345:288|303:281,1,175.00000667572,2|0,0:0|0:0,0:0:0:0:
246,264,41979,5,8,0:0:0:0:
431,202,42161,6,0,P|446:168|444:144,1,35.0000013351441,2|0,0:0|0:0,0:0:0:0:
439,82,42342,2,0,P|425:47|407:31,1,35.0000013351441,2|0,0:0|0:0,0:0:0:0:
256,10,42524,5,2,0:0:0:0:
36,103,42706,6,0,P|51:111|68:114,1,35.0000013351441,2|0,0:0|0:0,0:0:0:0:
165,133,42888,2,0,P|149:166|143:187,1,35.0000013351441,2|0,0:0|0:0,0:0:0:0:
176,302,43070,5,10,0:0:0:0:
303,131,43251,22,0,L|371:126,1,35.0000013351441,2|0,0:0|0:0,0:0:0:0:
274,233,43433,2,0,L|342:228,1,35.0000013351441,2|0,0:0|0:0,0:0:0:0:
81,202,43615,38,0,B|112:153|112:153|171:174,1,116.666666666667,4|0,0:1|0:0,0:0:0:0:
239,199,44161,1,8,0:0:0:0:
356,138,44342,6,0,L|358:94,1,35.0000013351441,2|0,0:0|0:0,0:0:0:0:
417,259,44524,2,0,L|419:303,1,35.0000013351441,2|0,0:0|0:0,0:0:0:0:
239,199,44706,6,0,P|186:159|83:207,1,175.00000667572,2|0,0:0|0:0,0:0:0:0:
53,258,45251,1,8,0:0:0:0:
259,348,45433,6,0,L|327:341,1,35.0000013351441,2|0,0:0|0:0,0:0:0:0:
450,266,45615,2,0,P|407:260|400:262,1,35.0000013351441,2|0,0:0|0:0,0:0:0:0:
211,156,45797,6,0,B|252:169|252:169|283:142|283:142|321:147|321:147|354:103,1,175.00000667572,2|0,0:0|0:0,0:0:0:0:
392,41,46342,1,8,0:0:0:0:
141,103,46524,6,0,P|127:142|127:159,1,35.0000013351441,2|0,0:0|0:0,0:0:0:0:
179,235,46706,2,0,P|145:226|128:226,1,35.0000013351441,2|0,0:0|0:0,0:0:0:0:
7,314,46888,6,0,P|53:273|105:349,1,175.00000667572,2|0,0:0|0:0,0:0:0:0:
40,382,47433,1,8,0:0:0:0:
26,191,47615,6,0,P|54:187|70:188,1,35.0000013351441,2|0,0:0|0:0,0:0:0:0:
146,210,47797,2,0,P|166:237|171:248,1,35.0000013351441,2|0,0:0|0:0,0:0:0:0:
240,107,47979,22,0,L|394:98,1,140,4|0,1:0|0:0,0:0:0:0:
314,206,48706,1,0,0:0:0:0:
406,248,48888,1,0,0:0:0:0:
280,280,49070,6,0,P|243:242|254:153,1,140
314,206,49797,1,0,0:0:0:0:
364,271,49979,1,0,0:0:0:0:
280,280,50161,6,0,B|156:200|76:354|-33:290|-73:212|-51:105|36:77|97:116,1,525
141,165,52342,5,4,1:0:0:0:
256,191,69797,6,0,L|251:295,1,93.3333333333333,8|0,0:0|0:0,0:0:0:0:
320,380,70342,1,2,0:0:0:0:
165,302,70524,1,2,0:0:0:0:
338,223,70706,1,2,0:0:0:0:
202,123,70888,6,0,P|258:107|324:143,1,93.3333333333333,2|0,0:0|0:0,0:0:0:0:
392,151,71433,1,0,0:0:0:0:
253,199,71615,5,8,0:0:0:0:
358,46,71797,1,2,0:0:0:0:
445,220,71979,6,0,L|429:346,1,93.3333333333333,2|2,0:0|0:0,0:0:0:0:
348,361,72524,1,2,0:0:0:0:
256,219,72706,5,8,0:0:0:0:
164,361,72888,1,2,0:0:0:0:
25,243,73070,5,8,0:0:0:0:
25,243,73251,2,0,L|20:182,1,46.6666666666667,8|2,0:0|0:0,0:0:0:0:
85,100,73615,1,2,0:0:0:0:
187,131,73797,1,8,0:0:0:0:
294,130,73979,1,2,0:0:0:0:
417,77,74161,6,0,B|406:136|406:136|426:208,1,93.3333333333333,8|0,0:0|0:0,0:0:0:0:
474,257,74706,1,2,0:0:0:0:
334,220,74888,5,8,0:0:0:0:
493,126,75070,1,8,0:0:0:0:
383,289,75251,6,0,P|339:305|264:276,1,93.3333333333333,8|0,0:0|0:0,0:0:0:0:
214,269,75797,1,0,0:0:0:0:
37,259,75979,5,8,0:0:0:0:
123,341,76161,1,8,0:0:0:0:
123,182,76342,6,0,B|117:150|117:150|131:122|131:122|121:61,1,93.3333333333333,8|2,0:0|0:0,0:0:0:0:
214,22,76888,2,0,L|309:15,1,93.3333333333333,2|0,0:0|0:0,0:0:0:0:
450,33,77432,5,2,0:0:0:0:
302,99,77614,1,2,0:0:0:0:
383,248,77797,1,2,0:0:0:0:
450,176,77978,5,0,0:0:0:0:
345,158,78160,1,0,0:0:0:0:
287,235,78342,1,0,0:0:0:0:
115,100,78524,6,0,L|128:228,1,93.3333333333333,8|0,0:0|0:0,0:0:0:0:
82,292,79070,1,2,0:0:0:0:
205,223,79251,1,2,0:0:0:0:
194,347,79433,1,2,0:0:0:0:
115,173,79615,6,0,P|156:131|192:120,1,93.3333333333333,2|0,0:0|0:0,0:0:0:0:
276,170,80161,1,0,0:0:0:0:
39,124,80342,5,2,0:0:0:0:
205,223,80524,1,2,0:0:0:0:
352,86,80706,6,0,B|400:74|400:74|447:100,1,93.3333333333333,2|0,0:0|0:0,0:0:0:0:
510,161,81251,1,0,0:0:0:0:
305,190,81433,5,2,0:0:0:0:
438,95,81615,1,2,0:0:0:0:
384,250,81797,6,0,L|388:347,1,93.3333333333333,8|2,0:0|0:0,0:0:0:0:
297,297,82342,1,0,0:0:0:0:
469,258,82524,5,8,0:0:0:0:
320,163,82706,1,8,0:0:0:0:
269,320,82888,6,0,P|199:333|146:307,1,105.000004005432,8|0,0:0|0:0,0:0:0:0:
107,276,83615,1,8,0:0:0:0:
103,198,83797,1,8,0:0:0:0:
151,138,83979,6,0,B|204:148|204:148|259:132,1,88.1999973083497,8|0,0:0|0:0,0:0:0:0:
297,114,84706,1,8,0:0:0:0:
361,119,84888,1,8,0:0:0:0:
396,156,85070,6,0,L|391:223,1,46.6666666666667,8|2,0:0|0:0,0:0:0:0:
376,285,85615,2,0,L|371:218,1,46.6666666666667,0|2,0:0|0:0,0:0:0:0:
354,322,86161,5,2,0:0:0:0:
396,156,86342,1,2,0:0:0:0:
396,156,86433,1,2,0:0:0:0:
396,156,86524,1,2,0:0:0:0:
354,322,86706,6,0,L|346:263,1,55.9999982910157,8|2,0:0|0:0,0:0:0:0:
257,217,87070,1,2,0:0:0:0:
232,301,87251,6,0,B|192:297|192:297|167:302|167:302|151:297|151:297|144:299|144:299|139:298|139:298|132:298|132:298|130:296|130:296|126:298|126:298|123:295|123:295|119:297|119:297|112:292|112:292|89:297|89:297|79:292|79:292|69:297|69:297|52:293|52:293|41:295|41:295|30:293|30:293|15:296|15:296|6:295,1,233.333333333333,4|0,2:1|0:0,0:0:0:0:
48,372,87797,1,8,0:0:0:0:
148,187,87979,6,0,L|158:137,1,35.0000013351441,2|0,0:0|0:0,0:0:0:0:
284,58,88161,2,0,L|294:8,1,35.0000013351441,2|0,0:0|0:0,0:0:0:0:
388,245,88342,38,0,P|447:177|358:191,1,233.333333333333,4|0,2:1|0:0,0:0:0:0:
310,253,88888,1,8,0:0:0:0:
373,82,89070,6,0,P|423:78|429:80,1,35.0000013351441
222,149,89251,2,0,P|204:147|187:142,1,35.0000013351441
41,15,89433,38,0,B|30:74|30:74|44:109|44:109|35:140|35:140|48:182|48:182|45:203|45:203|58:227|41:267,1,233.333333333333,4|0,2:1|0:0,0:0:0:0:
28,317,89979,1,8,0:0:0:0:
173,222,90161,6,0,L|170:261,1,35.0000013351441,2|0,0:0|0:0,0:0:0:0:
310,159,90342,2,0,L|315:200,1,35.0000013351441,2|0,0:0|0:0,0:0:0:0:
215,351,90524,5,2,0:0:0:0:
161,112,90706,6,0,L|94:103,1,46.6666666666667,2|0,0:0|0:0,0:0:0:0:
353,70,90888,2,0,L|416:61,1,46.6666666666667,2|0,0:0|0:0,0:0:0:0:
272,276,91070,5,10,0:0:0:0:
98,204,91251,6,0,P|92:255|99:292,1,70.0000026702882,2|0,0:0|0:0,0:0:0:0:
249,141,91433,2,0,P|252:106|246:72,1,70.0000026702882,2|0,0:0|0:0,0:0:0:0:
232,358,91615,38,0,B|302:379|345:328|345:328|371:338|371:338|397:332|397:332|422:338|422:338|450:329,1,233.333333333333,4|0,2:1|0:0,0:0:0:0:
495,268,92161,1,8,0:0:0:0:
272,276,92342,6,0,L|213:266,1,35.0000013351441,2|0,0:0|0:0,0:0:0:0:
341,183,92524,2,0,L|306:134,1,35.0000013351441,2|0,0:0|0:0,0:0:0:0:
136,314,92706,38,0,B|126:286|139:261|139:261|140:234|120:211|120:211|134:186|110:161|110:161|136:138|132:86,1,233.333333333333,4|0,2:1|0:0,0:0:0:0:
100,24,93251,1,8,0:0:0:0:
208,180,93433,6,0,P|252:172|265:176,1,35.0000013351441,2|0,0:0|0:0,0:0:0:0:
379,254,93615,2,0,P|335:246|322:250,1,35.0000013351441,2|0,0:0|0:0,0:0:0:0:
158,346,93797,38,0,B|201:328|233:335|233:335|272:360|272:360|318:339|346:336|346:336|373:358|409:354,1,233.333333333333,4|0,2:1|0:0,0:0:0:0:
444,372,94342,1,8,0:0:0:0:
486,168,94524,6,0,P|454:133|436:127,1,35.0000013351441,2|0,0:0|0:0,0:0:0:0:
396,218,94706,2,0,P|348:215|331:224,1,35.0000013351441,2|0,0:0|0:0,0:0:0:0:
206,269,94888,5,2,0:0:0:0:
63,109,95070,6,0,P|95:74|119:67,1,46.6666666666667,2|0,0:0|0:0,0:0:0:0:
162,183,95251,2,0,P|209:180|232:193,1,46.6666666666667,2|0,0:0|0:0,0:0:0:0:
302,287,95433,5,10,0:0:0:0:
106,355,95615,6,0,L|95:282,1,70.0000026702882,2|0,0:0|0:0,0:0:0:0:
287,180,95797,2,0,L|298:107,1,70.0000026702882,2|0,0:0|0:0,0:0:0:0:
12,156,95979,38,0,B|129:132|129:132|211:250,1,233.333333333333,4|0,2:1|0:0,0:0:0:0:
235,293,96524,1,8,0:0:0:0:
63,69,96706,6,0,L|110:62,1,35.0000013351441,2|0,0:0|0:0,0:0:0:0:
60,220,96888,2,0,L|107:213,1,35.0000013351441,2|0,0:0|0:0,0:0:0:0:
266,61,97070,38,0,B|275:122|275:122|268:147|268:147|276:197|276:197|316:165|315:89,1,233.333333333333,4|0,2:1|0:0,0:0:0:0:
372,51,97615,1,8,0:0:0:0:
451,238,97797,6,0,L|513:247,1,35.0000013351441,2|0,0:0|0:0,0:0:0:0:
344,308,97979,2,0,L|305:357,1,35.0000013351441,2|0,0:0|0:0,0:0:0:0:
347,177,98161,38,0,B|313:162|285:162|285:162|268:166|268:166|256:160|256:160|182:194|116:138,1,233.333333333333,4|0,2:1|0:0,0:0:0:0:
71,86,98706,1,8,0:0:0:0:
116,296,98888,6,0,P|112:320|109:333,1,35.0000013351441,2|0,0:0|0:0,0:0:0:0:
218,262,99070,2,0,P|223:281|225:299,1,35.0000013351441,2|0,0:0|0:0,0:0:0:0:
53,210,99251,5,2,0:0:0:0:
287,143,99433,6,0,L|278:199,1,46.6666666666667,2|0,0:0|0:0,0:0:0:0:
388,58,99615,2,0,L|397:114,1,46.6666666666667,2|0,0:0|0:0,0:0:0:0:
229,26,99797,5,8,0:0:0:0:
288,321,99979,6,0,L|373:313,1,70.0000026702882,2|0,0:0|0:0,0:0:0:0:
141,257,100161,2,0,L|226:249,1,70.0000026702882,2|0,0:0|0:0,0:0:0:0:
341,109,100342,22,0,L|161:98,1,175.00000667572,2|0,0:0|0:0,0:0:0:0:
88,96,100888,1,8,0:0:0:0:
425,216,101070,5,0,0:0:0:0:
432,30,101251,1,0,0:0:0:0:
179,203,101433,6,0,P|235:233|350:187,1,175.00000667572,2|0,0:0|0:0,0:0:0:0:
383,139,101979,1,8,0:0:0:0:
141,289,102161,5,0,0:0:0:0:
371,289,102342,1,0,0:0:0:0:
256,60,102524,22,0,B|246:105|246:105|262:141|262:141|228:179|255:255,1,175.00000667572,2|0,0:0|0:0,0:0:0:0:
269,303,103070,1,8,0:0:0:0:
337,94,103251,5,0,0:0:0:0:
190,284,103433,1,0,0:0:0:0:
165,139,103615,5,2,0:0:0:0:
405,148,103797,1,0,0:0:0:0:
183,58,103979,1,0,0:0:0:0:
334,259,104161,6,0,L|333:234,1,23.3333333333333,10|0,0:0|0:0,0:0:0:0:
340,211,104706,22,0,B|324:353|324:353|289:316|236:328,1,233.333333333333,4|0,2:1|0:0,0:0:0:0:
172,361,105251,1,8,0:0:0:0:
423,238,105433,6,0,L|424:184,1,35.0000013351441,2|0,0:0|0:0,0:0:0:0:
249,238,105615,2,0,L|248:184,1,35.0000013351441,2|0,0:0|0:0,0:0:0:0:
84,275,105797,38,0,B|102:232|108:150|78:108|78:108|57:184,1,233.333333333333,4|0,0:1|0:0,0:0:0:0:
8,229,106342,1,8,0:0:0:0:
183,154,106524,6,0,P|182:204|178:219,1,35.0000013351441,2|0,0:0|0:0,0:0:0:0:
77,73,106706,2,0,P|77:90|79:108,1,35.0000013351441,2|0,0:0|0:0,0:0:0:0:
189,333,106888,38,0,P|240:354|194:275,1,233.333333333333,4|0,2:1|0:0,0:0:0:0:
125,285,107433,1,8,0:0:0:0:
372,233,107615,5,2,0:0:0:0:
114,179,107797,1,2,0:0:0:0:
323,316,107979,5,2,0:0:0:0:
259,153,108161,6,0,L|267:110,1,35.0000013351441,2|0,0:0|0:0,0:0:0:0:
192,238,108342,2,0,L|200:281,1,35.0000013351441,2|0,0:0|0:0,0:0:0:0:
355,141,108524,21,10,0:0:0:0:
241,352,108706,1,2,0:0:0:0:
178,103,108888,1,2,0:0:0:0:
390,283,109070,38,0,B|439:296|478:267|478:267|463:230|436:208|436:208|468:224|506:216,1,233.333333333333,4|0,2:1|0:0,0:0:0:0:
485,140,109615,1,8,0:0:0:0:
306,262,109797,6,0,P|304:317|309:328,1,35.0000013351441,2|0,0:0|0:0,0:0:0:0:
184,311,109979,2,0,P|185:329|191:346,1,35.0000013351441,2|0,0:0|0:0,0:0:0:0:
212,180,110161,38,0,B|161:158|111:188|111:188|142:145|131:110|131:110|116:104|95:74,1,233.333333333333,4|0,2:1|0:0,0:0:0:0:
164,41,110706,1,8,0:0:0:0:
167,255,110888,6,0,L|156:288,1,35.0000013351441,2|0,0:0|0:0,0:0:0:0:
303,201,111070,2,0,L|292:234,1,35.0000013351441,2|0,0:0|0:0,0:0:0:0:
485,125,111251,38,0,B|431:136|431:136|393:114|393:114|356:125|356:125|314:94|251:119,1,233.333333333333,4|0,2:1|0:0,0:0:0:0:
196,154,111797,1,8,0:0:0:0:
383,200,111979,5,2,0:0:0:0:
354,32,112161,1,2,0:0:0:0:
229,231,112342,5,2,0:0:0:0:
58,134,112524,6,0,L|54:93,1,35.0000013351441,2|0,0:0|0:0,0:0:0:0:
121,266,112706,2,0,L|117:225,1,35.0000013351441,2|0,0:0|0:0,0:0:0:0:
220,104,112888,21,10,0:0:0:0:
31,295,113070,5,2,0:0:0:0:
143,41,113251,1,2,0:0:0:0:
326,236,113433,22,0,B|359:232|382:217|382:217|373:309|373:309|330:284|255:290,1,233.333333333333,4|0,0:1|0:0,0:0:0:0:
228,345,113979,1,8,0:0:0:0:
332,157,114161,6,0,P|338:118|331:101,1,35.0000013351441,2|0,0:0|0:0,0:0:0:0:
223,122,114342,2,0,P|199:90|182:83,1,35.0000013351441,2|0,0:0|0:0,0:0:0:0:
118,188,114524,38,0,B|93:189|71:183|71:183|89:247|116:278|116:278|97:315|97:315|104:353,1,233.333333333333,4|0,0:1|0:0,0:0:0:0:
181,332,115070,1,8,0:0:0:0:
0,196,115251,6,0,L|-1:142,1,35.0000013351441,2|0,0:0|0:0,0:0:0:0:
107,75,115433,2,0,L|108:21,1,35.0000013351441,2|0,0:0|0:0,0:0:0:0:
219,191,115615,38,0,P|201:120|259:192,1,233.333333333333,4|0,0:1|0:0,0:0:0:0:
266,248,116161,1,8,0:0:0:0:
375,140,116342,5,2,0:0:0:0:
401,275,116524,1,2,0:0:0:0:
479,79,116706,5,2,0:0:0:0:
304,47,116888,6,0,P|341:54|361:51,1,46.6666666666667,2|0,0:0|0:0,0:0:0:0:
200,8,117070,2,0,P|182:23|172:44,1,46.6666666666667,2|0,0:0|0:0,0:0:0:0:
243,161,117251,5,10,0:0:0:0:
121,344,117433,6,0,P|68:353|23:328,1,70.0000026702882,2|0,0:0|0:0,0:0:0:0:
16,209,117615,2,0,P|50:203|83:213,1,70.0000026702882,2|0,0:0|0:0,0:0:0:0:
252,309,117797,6,0,B|431:295,1,175.00000667572,2|0,0:0|0:0,0:0:0:0:
507,286,118342,1,8,0:0:0:0:
213,240,118524,5,0,0:0:0:0:
462,208,118706,1,0,0:0:0:0:
150,294,118888,22,0,P|130:246|208:157,1,175.00000667572,2|0,0:0|0:0,0:0:0:0:
277,180,119433,1,8,0:0:0:0:
39,280,119615,5,0,0:0:0:0:
63,58,119797,1,0,0:0:0:0:
213,240,119979,6,0,B|277:300|277:300|348:233,1,175.00000667572,2|0,0:0|0:0,0:0:0:0:
392,182,120524,5,8,0:0:0:0:
427,300,120706,1,2,0:0:0:0:
277,180,120888,1,2,0:0:0:0:
314,343,121070,5,0,0:0:0:0:
314,343,121251,1,0,0:0:0:0:
314,343,121433,1,0,0:0:0:0:
314,343,121615,1,0,0:0:0:0:
314,343,121797,1,0,0:0:0:0:
314,343,121979,1,0,0:0:0:0:
314,343,122161,6,0,L|324:227,1,116.666666666667,4|0,0:1|0:0,0:0:0:0:
263,170,122706,6,0,L|213:162,1,46.6666666666667,8|0,0:0|0:0,0:0:0:0:
136,205,122888,2,0,L|86:197,1,46.6666666666667,0|0,1:0|0:0,0:0:0:0:
245,84,123070,2,0,L|195:76,1,46.6666666666667,0|0,1:0|0:0,0:0:0:0:
11,56,123251,6,0,L|21:132,1,46.6666666666667,2|0,0:0|0:0,0:0:0:0:
83,244,123433,2,0,L|89:197,1,46.6666666666667,0|0,1:0|0:0,0:0:0:0:
193,31,123615,2,0,L|203:107,1,46.6666666666667,0|0,1:0|0:0,0:0:0:0:
326,227,123797,6,0,P|373:237|408:230,1,46.6666666666667,8|0,0:0|0:0,0:0:0:0:
463,129,123979,2,0,P|448:83|424:56,1,46.6666666666667,0|0,1:0|0:0,0:0:0:0:
308,77,124161,2,0,P|275:112|264:146,1,46.6666666666667,0|0,1:0|0:0,0:0:0:0:
292,334,124342,6,0,P|341:327|416:344,1,116.666666666667,4|0,0:1|0:0,0:0:0:0:
477,365,124888,1,8,0:0:0:0:
318,221,125070,6,0,L|314:178,1,35.0000013351441,8|0,0:0|0:0,0:0:0:0:
233,81,125251,6,0,L|238:150,1,70.0000026702882,8|0,0:0|0:0,0:0:0:0:
181,222,125433,6,0,L|144:215,1,23.3333333333333,2|0,0:0|0:0,0:0:0:0:
49,321,125615,6,0,L|130:309,1,46.6666666666667,8|0,0:0|0:0,0:0:0:0:
177,365,125797,2,0,L|258:353,1,46.6666666666667,8|0,0:0|0:0,0:0:0:0:
439,285,125979,6,0,L|447:231,1,46.6666666666667,10|0,0:0|0:0,0:0:0:0:
339,133,126161,6,0,P|326:169|331:207,1,58.3333333333333,8|0,0:0|0:0,0:0:0:0:
476,80,126342,6,0,L|446:16,1,70.0000026702882,8|0,0:0|0:0,0:0:0:0:
233,81,126524,6,0,P|179:103|106:86,1,116.666666666667,4|0,0:1|0:0,0:0:0:0:
49,66,127070,6,0,L|46:122,1,46.6666666666667,8|0,0:0|0:0,0:0:0:0:
100,215,127251,2,0,P|153:205|171:204,1,46.6666666666667,0|0,1:0|0:0,0:0:0:0:
237,269,127433,2,0,L|234:325,1,46.6666666666667,0|0,1:0|0:0,0:0:0:0:
344,196,127615,6,0,P|397:206|415:207,1,46.6666666666667,2|0,0:0|0:0,0:0:0:0:
247,123,127797,2,0,P|211:163|201:178,1,46.6666666666667,0|0,1:0|0:0,0:0:0:0:
364,62,127979,2,0,P|346:11|338:-4,1,46.6666666666667,0|0,1:0|0:0,0:0:0:0:
215,157,128161,6,0,L|217:218,1,46.6666666666667,8|0,0:0|0:0,0:0:0:0:
328,281,128342,2,0,L|330:342,1,46.6666666666667,0|0,1:0|0:0,0:0:0:0:
436,156,128524,2,0,L|438:217,1,46.6666666666667,0|0,1:0|0:0,0:0:0:0:
222,322,128706,6,0,B|158:310|158:310|74:339,1,140,4|8,2:1|0:0,0:0:0:0:
9,367,129342,6,0,L|4:348,1,11.6666666666667,8|0,0:0|0:0,0:0:0:0:
21,315,129433,2,0,L|26:296,1,11.6666666666667,8|0,0:0|0:0,0:0:0:0:
36,274,129524,2,0,L|33:262,1,11.6666666666667,8|0,0:0|0:0,0:0:0:0:
47,222,129615,6,0,L|40:168,1,46.6666666666667,8|0,0:0|0:0,0:0:0:0:
83,16,129797,5,2,0:0:0:0:
207,142,129979,6,0,L|204:219,1,58.3333333333333,8|0,0:0|0:0,0:0:0:0:
302,9,130161,2,0,L|299:86,1,58.3333333333333,8|0,0:0|0:0,0:0:0:0:
331,222,130342,6,0,B|342:211|342:211|339:260,1,58.3333333333333,10|0,0:0|0:0,0:0:0:0:
339,295,130888,38,0,B|315:300|299:291|299:291|288:305|288:305|282:293|265:287|246:284|217:299,1,116.666666666667,4|0,0:1|0:0,0:0:0:0:
163,318,131433,6,0,L|104:309,1,46.6666666666667,8|0,0:0|0:0,0:0:0:0:
219,193,131615,2,0,L|160:184,1,46.6666666666667,0|0,1:0|0:0,0:0:0:0:
85,335,131797,2,0,L|26:326,1,46.6666666666667,0|0,1:0|0:0,0:0:0:0:
95,150,131979,6,0,P|84:104|87:83,1,46.6666666666667,2|0,0:0|0:0,0:0:0:0:
215,53,132161,2,0,P|239:12|256:0,1,46.6666666666667,0|0,1:0|0:0,0:0:0:0:
341,105,132342,2,0,P|387:94|408:97,1,46.6666666666667,0|0,1:0|0:0,0:0:0:0:
477,262,132524,6,0,B|471:240|471:240|475:202,1,46.6666666666667,8|0,0:0|0:0,0:0:0:0:
374,324,132706,2,0,B|354:312|354:312|330:282,1,46.6666666666667,0|0,1:0|0:0,0:0:0:0:
200,251,132888,2,0,B|212:231|212:231|242:207,1,46.6666666666667,0|0,1:0|0:0,0:0:0:0:
63,343,133070,6,0,L|52:213,1,116.666666666667,4|0,0:1|0:0,0:0:0:0:
45,151,133615,1,8,0:0:0:0:
160,305,133797,6,0,L|161:262,1,35.0000013351441,8|0,0:0|0:0,0:0:0:0:
226,201,133979,6,0,L|214:117,1,70.0000026702882,8|0,0:0|0:0,0:0:0:0:
124,49,134161,6,0,P|161:51|168:50,1,23.3333333333333,2|0,0:0|0:0,0:0:0:0:
336,28,134342,6,0,B|333:52|333:52|339:81,1,46.6666666666667,2|0,0:0|0:0,0:0:0:0:
401,161,134524,2,0,B|405:191|405:191|396:217,1,46.6666666666667,2|0,0:0|0:0,0:0:0:0:
323,326,134706,5,10,0:0:0:0:
142,230,134888,5,2,0:0:0:0:
223,227,134979,1,8,0:0:0:0:
304,223,135070,1,2,0:0:0:0:
475,100,135251,6,0,P|384:72|309:127,1,175.00000667572,2|0,0:0|0:0,0:0:0:0:
291,186,135797,1,8,0:0:0:0:
162,72,135979,5,0,0:0:0:0:
82,241,136161,1,0,0:0:0:0:
355,335,136342,6,0,B|246:351|246:351|174:307,1,175.00000667572,2|0,0:0|0:0,0:0:0:0:
170,246,136888,1,8,0:0:0:0:
264,56,137070,5,0,0:0:0:0:
423,253,137251,1,0,0:0:0:0:
255,197,137433,22,0,L|80:203,1,175.00000667572,2|0,0:0|0:0,0:0:0:0:
3,209,137979,1,8,0:0:0:0:
222,69,138161,5,0,0:0:0:0:
9,74,138342,1,0,0:0:0:0:
182,200,138524,5,2,0:0:0:0:
327,83,138706,1,0,0:0:0:0:
89,146,138888,1,0,0:0:0:0:
280,3,139070,5,8,0:0:0:0:
262,258,139251,1,0,0:0:0:0:
118,57,139433,1,0,0:0:0:0:
27,329,139615,22,0,P|62:318|127:358,1,116.666666666667,4|0,2:1|0:0,0:0:0:0:
190,308,140161,6,0,P|229:316|255:314,1,46.6666666666667,8|0,0:0|0:0,0:0:0:0:
237,197,140342,2,0,P|276:205|302:203,1,46.6666666666667,0|0,1:0|0:0,0:0:0:0:
292,86,140524,2,0,P|331:94|357:92,1,46.6666666666667,0|0,1:0|0:0,0:0:0:0:
491,184,140706,6,0,L|432:193,1,46.6666666666667,2|0,0:0|0:0,0:0:0:0:
335,300,140888,2,8,L|394:309,1,46.6666666666667,0|0,1:0|0:0,0:0:0:0:
283,205,141070,2,0,L|224:214,1,46.6666666666667,0|0,1:0|0:0,0:0:0:0:
49,104,141251,6,0,P|30:38|31:31,1,46.6666666666667,8|0,0:0|0:0,0:0:0:0:
149,181,141433,2,0,P|142:203|130:223,1,46.6666666666667,0|0,1:0|0:0,0:0:0:0:
212,44,141615,2,0,L|224:95,1,46.6666666666667,0|0,1:0|0:0,0:0:0:0:
321,228,141797,6,0,B|359:211|386:221|386:221|370:248|381:282,1,116.666666666667,4|0,0:1|0:0,0:0:0:0:
405,342,142342,1,8,0:0:0:0:
475,261,142524,5,8,0:0:0:0:
296,330,142706,1,8,0:0:0:0:
389,113,142888,6,0,L|384:155,1,23.3333333333333,2|0,0:0|0:0,0:0:0:0:
239,217,143070,6,0,L|234:152,1,46.6666666666667,8|0,0:0|0:0,0:0:0:0:
120,80,143251,2,0,L|115:145,1,46.6666666666667,8|0,0:0|0:0,0:0:0:0:
39,273,143433,5,8,0:0:0:0:
260,353,143615,6,0,P|325:355|361:334,1,58.3333333333333,8|0,0:0|0:0,0:0:0:0:
475,261,143797,2,0,B|440:256|440:256|400:271,1,70.0000026702882,8|0,0:0|0:0,0:0:0:0:
206,276,143979,38,0,B|217:211|217:211|215:196|215:196|220:151,1,116.666666666667,4|0,0:1|0:0,0:0:0:0:
236,85,144523,6,0,L|293:78,1,46.6666666666667,8|0,0:0|0:0,0:0:0:0:
421,145,144705,2,0,L|370:134,1,46.6666666666667,0|0,1:0|0:0,0:0:0:0:
331,245,144887,2,0,L|280:234,1,46.6666666666667,0|0,1:0|0:0,0:0:0:0:
89,157,145069,6,0,P|84:208|86:216,1,46.6666666666667,2|0,0:0|0:0,0:0:0:0:
214,268,145251,2,0,P|181:228|174:224,1,46.6666666666667,0|0,1:0|0:0,0:0:0:0:
53,322,145432,2,0,P|104:327|112:325,1,46.6666666666667,0|0,1:0|0:0,0:0:0:0:
243,146,145614,6,0,L|306:140,1,46.6666666666667
367,236,145797,2,0,L|429:227,1,46.6666666666667,0|0,1:0|0:0,0:0:0:0:
294,326,145979,2,0,L|236:322,1,46.6666666666667,0|0,1:0|0:0,0:0:0:0:
133,167,146161,6,0,P|81:169|121:221,1,140,4|8,0:1|0:0,0:0:0:0:
197,245,146797,6,0,L|209:227,1,11.6666666666667,8|0,0:0|0:0,0:0:0:0:
255,252,146888,2,0,L|250:231,1,11.6666666666667,8|0,0:0|0:0,0:0:0:0:
304,218,146979,2,0,L|286:205,1,11.6666666666667,8|0,0:0|0:0,0:0:0:0:
317,171,147070,6,0,L|323:122,1,46.6666666666667,8|0,0:0|0:0,0:0:0:0:
403,324,147251,5,2,0:0:0:0:
234,135,147433,1,8,0:0:0:0:
143,352,147615,1,8,0:0:0:0:
455,234,147797,22,0,P|431:222|398:222,1,58.3333333333333,10|0,0:0|0:0,0:0:0:0:
331,262,148342,38,0,P|287:294|296:246,1,116.666666666667,4|0,2:1|0:0,0:0:0:0:
323,180,148888,6,0,L|333:126,1,46.6666666666667,8|0,0:0|0:0,0:0:0:0:
222,176,149070,2,0,L|190:130,1,46.6666666666667,0|0,1:0|0:0,0:0:0:0:
187,274,149251,2,0,L|133:264,1,46.6666666666667,0|0,1:0|0:0,0:0:0:0:
376,360,149433,6,0,P|403:318|402:301,1,46.6666666666667,2|0,0:0|0:0,0:0:0:0:
510,238,149615,2,0,P|499:189|486:177,1,46.6666666666667,0|0,1:0|0:0,0:0:0:0:
497,57,149797,2,0,P|455:30|438:31,1,46.6666666666667,0|0,1:0|0:0,0:0:0:0:
284,118,149979,6,0,L|342:111,1,46.6666666666667,8|0,0:0|0:0,0:0:0:0:
232,220,150161,2,0,L|278:225,1,46.6666666666667,0|0,1:0|0:0,0:0:0:0:
166,322,150342,2,0,L|224:315,1,46.6666666666667,0|0,1:0|0:0,0:0:0:0:
13,189,150524,6,0,B|47:186|47:186|75:198|75:198|96:177|92:143,1,116.666666666667,4|0,2:1|0:0,0:0:0:0:
70,76,151070,1,8,0:0:0:0:
38,266,151251,5,8,0:0:0:0:
183,153,151433,1,8,0:0:0:0:
287,337,151615,6,0,L|243:334,1,23.3333333333333,2|0,0:0|0:0,0:0:0:0:
406,264,151797,6,0,P|395:218|401:202,1,46.6666666666667,8|0,0:0|0:0,0:0:0:0:
495,98,151979,2,0,L|483:155,1,46.6666666666667,8|0,0:0|0:0,0:0:0:0:
366,36,152161,5,8,0:0:0:0:
261,216,152342,5,8,0:0:0:0:
193,189,152433,1,8,0:0:0:0:
126,160,152524,1,8,0:0:0:0:
283,360,152706,6,0,P|346:375|426:349,1,140,4|0,1:0|0:0,0:0:0:0:
469,292,153433,1,0,0:0:0:0:
483,213,153615,1,0,0:0:0:0:
436,141,153797,6,0,P|384:149|327:144,1,105.000004005432
265,116,154524,1,0,0:0:0:0:
237,63,154706,1,0,0:0:0:0:
213,36,154888,22,0,B|129:31|105:98|105:98|137:116|141:153|141:153|131:180|144:214,1,262.5
216,255,157070,5,4,1:0:0:0:
302,238,174524,6,0,L|321:126,1,93.3333333333333,8|0,0:0|0:0,0:0:0:0:
376,57,175070,1,2,0:0:0:0:
466,120,175251,1,2,0:0:0:0:
410,222,175433,1,2,0:0:0:0:
318,146,175615,6,0,P|277:132|227:143,1,93.3333333333333,2|0,0:0|0:0,0:0:0:0:
172,208,176161,1,0,0:0:0:0:
297,54,176342,5,8,0:0:0:0:
131,88,176524,1,2,0:0:0:0:
72,266,176706,6,0,L|173:251,1,93.3333333333333,2|2,0:0|0:0,0:0:0:0:
246,290,177251,1,2,0:0:0:0:
54,180,177433,5,8,0:0:0:0:
140,341,177615,1,2,0:0:0:0:
294,204,177797,5,8,0:0:0:0:
380,316,177979,2,0,L|445:319,1,46.6666666666667,8|2,0:0|0:0,0:0:0:0:
490,228,178342,1,2,0:0:0:0:
278,112,178524,5,8,0:0:0:0:
428,82,178706,1,8,0:0:0:0:
202,64,178888,6,0,P|186:118|206:165,1,93.3333333333333,8|0,0:0|0:0,0:0:0:0:
229,227,179433,1,0,0:0:0:0:
278,112,179615,5,8,0:0:0:0:
110,199,179797,1,8,0:0:0:0:
262,305,179979,6,0,B|217:317|217:317|173:294,1,93.3333333333333,8|0,0:0|0:0,0:0:0:0:
99,342,180524,1,0,0:0:0:0:
25,192,180706,5,8,0:0:0:0:
156,140,180888,1,8,0:0:0:0:
269,221,181070,6,0,P|319:232|367:222,1,93.3333333333333,8|0,0:0|0:0,0:0:0:0:
462,180,181615,2,0,L|452:279,1,93.3333333333333
320,137,182161,5,2,0:0:0:0:
299,291,182342,1,2,0:0:0:0:
229,135,182524,1,2,0:0:0:0:
396,92,182706,5,0,0:0:0:0:
285,59,182888,1,0,0:0:0:0:
357,7,183070,1,0,0:0:0:0:
246,185,183251,6,0,P|170:191|146:179,1,93.3333333333333,8|0,0:0|0:0,0:0:0:0:
77,144,183797,1,2,0:0:0:0:
208,57,183979,5,2,0:0:0:0:
246,185,184161,1,2,0:0:0:0:
123,320,184342,6,0,B|171:312|171:312|223:330,1,93.3333333333333,2|0,0:0|0:0,0:0:0:0:
284,366,184888,1,0,0:0:0:0:
394,275,185070,5,2,0:0:0:0:
233,229,185251,1,2,0:0:0:0:
471,205,185433,6,0,P|486:161|464:101,1,93.3333333333333,2|0,0:0|0:0,0:0:0:0:
411,64,185979,1,0,0:0:0:0:
246,145,186161,5,2,0:0:0:0:
369,174,186342,1,2,0:0:0:0:
411,64,186523,6,0,P|373:52|321:64,1,93.3333333333333,8|0,0:0|0:0,0:0:0:0:
278,129,187070,1,0,0:0:0:0:
432,171,187251,5,8,0:0:0:0:
278,212,187433,1,8,0:0:0:0:
138,167,187615,6,0,L|142:73,1,93.3333333333333,8|0,0:0|0:0,0:0:0:0:
146,1,188161,1,0,0:0:0:0:
40,101,188342,5,8,0:0:0:0:
96,247,188524,1,8,0:0:0:0:
264,171,188706,6,0,P|213:165|171:185,1,93.3333333333333,8|0,0:0|0:0,0:0:0:0:
227,245,189251,1,0,0:0:0:0:
322,325,189433,5,8,0:0:0:0:
412,242,189615,1,8,0:0:0:0:
337,145,189797,6,0,L|441:132,1,93.3333333333333,8|2,0:0|0:0,0:0:0:0:
466,42,190342,2,0,L|373:53,1,93.3333333333333
296,68,190888,5,2,0:0:0:0:
322,163,191070,1,2,0:0:0:0:
355,288,191251,1,2,0:0:0:0:
77,186,191433,5,0,0:0:0:0:
77,186,191979,6,0,L|85:237,1,46.6666666666667,2|0,0:0|0:0,0:0:0:0:
161,279,192524,2,0,L|169:228,1,46.6666666666667
234,158,193070,6,0,P|269:151|310:165,1,77.0000023498536
372,234,193797,1,0,0:0:0:0:
451,180,193979,1,0,0:0:0:0:
265,242,194161,6,0,L|274:330,1,83.9999974365235,2|0,0:0|0:0,0:0:0:0:
190,364,194888,1,0,0:0:0:0:
135,262,195070,1,0,0:0:0:0:
265,193,195251,5,0,0:0:0:0:
161,157,195433,2,0,P|171:128|199:104,1,60.6666638895672
289,77,195979,5,0,0:0:0:0:
175,18,196161,1,0,0:0:0:0:
244,187,196342,6,0,L|316:181,1,65.3333313395183,2|0,0:0|0:0,0:0:0:0:
385,225,196888,1,0,0:0:0:0:
243,269,197070,5,0,0:0:0:0:
282,105,197251,1,0,0:0:0:0:
357,300,197433,6,0,P|390:305|429:294,1,70.0000026702882
485,241,197979,1,0,0:0:0:0:
284,156,198161,5,0,0:0:0:0:
385,225,198342,1,0,0:0:0:0:
469,107,198524,6,0,B|438:95|438:95|392:104,1,74.6666666666667,2|0,0:0|0:0,0:0:0:0:
329,137,199070,1,0,0:0:0:0:
331,142,199251,1,0,0:0:0:0:
333,147,199433,1,0,0:0:0:0:
410,198,199615,5,0,0:0:0:0:
331,217,199797,1,0,0:0:0:0:
364,331,199979,5,0,0:0:0:0:
294,288,200161,1,0,0:0:0:0:
229,382,200342,5,0,0:0:0:0:
209,302,200524,1,0,0:0:0:0:
82,368,200706,6,0,P|69:332|76:278,1,83.9999974365235,2|0,0:0|0:0,0:0:0:0:
128,201,201251,2,0,L|36:189,1,83.9999974365235
239,125,201797,6,0,B|218:162|218:162|236:255,1,132.999996448517,2|0,0:0|0:0,0:0:0:0:
144,117,202524,1,0,0:0:0:0:
313,40,202706,1,0,0:0:0:0:
442,229,202888,6,0,P|419:235|317:180,1,140,2|0,0:0|0:0,0:0:0:0:
405,141,203615,1,0,0:0:0:0:
352,306,203797,1,0,0:0:0:0:
243,172,203979,6,0,B|247:15,1,146.999995513916,2|0,0:0|0:0,0:0:0:0:
144,91,204706,2,0,B|142:151,1,48.9999985046387
317,255,205070,5,2,0:0:0:0:
318,265,205251,1,0,0:0:0:0:
320,274,205433,1,0,0:0:0:0:
166,250,205615,5,2,0:0:0:0:
168,269,205797,1,0,0:0:0:0:
170,288,205979,1,0,0:0:0:0:
371,173,206161,5,2,0:0:0:0:
365,135,206342,1,0,0:0:0:0:
361,97,206524,1,0,0:0:0:0:
172,152,206706,5,2,0:0:0:0:
165,103,206888,1,0,0:0:0:0:
160,54,207070,1,0,0:0:0:0:
280,315,207251,5,2,0:0:0:0:
478,279,207433,1,2,0:0:0:0:
229,228,207615,5,2,0:0:0:0:
427,192,207797,1,2,0:0:0:0:
191,138,207979,5,2,0:0:0:0:
366,344,208161,1,2,0:0:0:0:
478,93,208342,5,2,0:0:0:0:
91,192,208524,1,2,0:0:0:0:
91,192,208615,1,2,0:0:0:0:
91,192,208706,1,2,0:0:0:0:
91,192,208797,1,2,0:0:0:0:
91,192,208888,5,8,0:0:0:0:
191,264,209070,1,2,0:0:0:0:
264,317,209251,1,2,0:0:0:0:
327,358,209433,6,0,L|320:242,1,116.666666666667,4|0,0:1|0:0,0:0:0:0:
296,169,209979,6,0,L|397:165,1,70.0000026702882,8|0,0:0|0:0,0:0:0:0:
135,182,210161,6,0,P|119:124|129:97,1,46.6666666666667,8|0,0:0|0:0,0:0:0:0:
117,288,210342,2,0,P|64:258|52:232,1,46.6666666666667,8|0,0:0|0:0,0:0:0:0:
228,111,210524,5,2,0:0:0:0:
346,269,210706,6,0,L|416:254,1,46.6666666666667,8|0,0:0|0:0,0:0:0:0:
315,363,210888,2,0,L|385:348,1,46.6666666666667,8|0,0:0|0:0,0:0:0:0:
202,228,211070,5,8,0:0:0:0:
403,56,211251,2,0,L|398:120,1,46.6666666666667,8|0,0:0|0:0,0:0:0:0:
318,165,211432,2,0,L|313:229,1,46.6666666666667,8|0,0:0|0:0,0:0:0:0:
113,358,211615,38,0,B|98:328|103:305|103:305|90:282|90:282|114:282|131:274,1,116.666666666667,4|0,0:1|0:0,0:0:0:0:
196,241,212161,6,0,L|200:129,1,70.0000026702882,8|0,0:0|0:0,0:0:0:0:
121,51,212342,6,0,P|111:106|118:123,1,46.6666666666667,8|0,0:0|0:0,0:0:0:0:
300,163,212524,2,0,P|297:139|288:118,1,46.6666666666667,8|0,0:0|0:0,0:0:0:0:
29,220,212706,6,0,L|58:211,1,23.3333333333333,2|0,0:0|0:0,0:0:0:0:
229,315,212888,6,0,P|175:315|163:308,1,46.6666666666667,8|0,0:0|0:0,0:0:0:0:
349,249,213070,2,0,P|403:249|415:256,1,46.6666666666667,8|0,0:0|0:0,0:0:0:0:
150,173,213251,6,0,B|133:136|133:136|139:76,1,70.0000026702882,8|0,0:0|0:0,0:0:0:0:
258,39,213433,6,0,L|260:15,1,23.3333333333333,2|0,0:0|0:0,0:0:0:0:
271,112,213615,2,0,L|273:88,1,23.3333333333333,2|0,0:0|0:0,0:0:0:0:
465,221,213797,22,0,B|434:224|411:214|411:214|383:223|383:223|363:215|334:229,1,116.666666666667,4|0,0:1|0:0,0:0:0:0:
296,277,214342,6,0,P|265:285|219:268,1,70.0000026702882,8|0,0:0|0:0,0:0:0:0:
55,181,214524,6,0,L|47:124,1,46.6666666666667,8|0,0:0|0:0,0:0:0:0:
144,243,214706,2,0,L|152:186,1,46.6666666666667,8|0,0:0|0:0,0:0:0:0:
22,330,214888,5,2,0:0:0:0:
227,325,215070,6,0,P|262:315|288:319,1,46.6666666666667,8|0,0:0|0:0,0:0:0:0:
333,195,215251,2,0,P|364:212|380:233,1,46.6666666666667,8|0,0:0|0:0,0:0:0:0:
432,363,215433,5,2,0:0:0:0:
198,223,215614,2,0,B|229:217|229:217|263:226,1,46.6666666666667,8|0,0:0|0:0,0:0:0:0:
478,177,215796,2,0,B|448:183|448:183|414:174,1,46.6666666666667,8|0,0:0|0:0,0:0:0:0:
263,61,215979,38,0,P|225:53|152:89,1,116.666666666667,4|0,0:1|0:0,0:0:0:0:
137,158,216524,6,0,L|145:211,1,46.6666666666667,8|0,0:0|0:0,0:0:0:0:
375,158,216706,2,0,L|367:211,1,46.6666666666667,8|0,0:0|0:0,0:0:0:0:
127,184,216888,2,0,L|135:237,1,46.6666666666667,8|0,0:0|0:0,0:0:0:0:
385,302,217070,6,0,L|438:294,1,46.6666666666667,2|0,0:0|0:0,0:0:0:0:
127,302,217251,2,0,L|74:294,1,46.6666666666667,8|0,0:0|0:0,0:0:0:0:
367,290,217433,2,0,L|420:282,1,46.6666666666667,8|0,0:0|0:0,0:0:0:0:
127,302,217615,6,0,B|133:329|133:329|132:343|132:343|136:362,1,58.3333333333333,8|0,0:0|0:0,0:0:0:0:
82,237,218161,6,0,B|136:220|136:220|192:252,1,116.666666666667,4|0,0:1|0:0,0:0:0:0:
248,311,218706,6,0,L|322:300,1,70.0000026702882,8|0,0:0|0:0,0:0:0:0:
186,134,218888,6,0,P|103:125|82:141,1,70.0000026702882,8|0,0:0|0:0,0:0:0:0:
339,193,219070,2,0,P|373:193|404:177,1,70.0000026702882,8|0,0:0|0:0,0:0:0:0:
300,24,219251,5,2,0:0:0:0:
133,206,219433,6,0,L|146:283,1,70.0000026702882,8|0,0:0|0:0,0:0:0:0:
314,278,219615,2,0,L|327:355,1,70.0000026702882,8|0,0:0|0:0,0:0:0:0:
467,119,219797,5,8,0:0:0:0:
216,103,219979,6,0,B|214:66|214:66|233:17,1,70.0000026702882,8|0,0:0|0:0,0:0:0:0:
133,206,220161,2,0,B|101:199|101:199|70:177,1,70.0000026702882,8|0,0:0|0:0,0:0:0:0:
47,366,220342,22,0,P|96:351|149:390,1,116.666666666667,4|0,0:1|0:0,0:0:0:0:
207,322,220888,6,0,P|216:260|206:230,1,70.0000026702882,8|0,0:0|0:0,0:0:0:0:
93,171,221070,6,0,L|162:151,1,70.0000026702882,8|0,0:0|0:0,0:0:0:0:
310,52,221251,2,0,L|241:32,1,70.0000026702882,8|0,0:0|0:0,0:0:0:0:
319,184,221433,6,0,P|336:179|357:178,1,23.3333333333333,2|0,0:0|0:0,0:0:0:0:
436,338,221615,6,0,P|427:302|431:249,1,70.0000026702882,8|0,0:0|0:0,0:0:0:0:
436,46,221797,2,0,P|427:82|431:135,1,70.0000026702882,8|0,0:0|0:0,0:0:0:0:
289,268,221979,6,0,P|248:268|226:270,1,46.6666666666667,2|0,0:0|0:0,0:0:0:0:
125,334,222161,6,0,L|90:319,1,23.3333333333333,2|0,0:0|0:0,0:0:0:0:
190,369,222342,2,0,L|155:354,1,23.3333333333333,2|0,0:0|0:0,0:0:0:0:
8,196,222524,22,0,B|63:178|63:178|91:177|127:182,1,116.666666666667,4|0,0:1|0:0,0:0:0:0:
179,222,223070,6,0,B|211:208|211:208|242:231,1,70.0000026702882,8|0,0:0|0:0,0:0:0:0:
68,87,223251,6,0,P|56:47|57:5,1,46.6666666666667,8|0,0:0|0:0,0:0:0:0:
239,2,223433,6,0,L|216:94,1,70.0000026702882,8|0,0:0|0:0,0:0:0:0:
385,163,223615,6,0,P|368:156|337:160,1,46.6666666666667,2|0,0:0|0:0,0:0:0:0:
381,250,223797,2,0,P|364:243|333:247,1,46.6666666666667,8|0,0:0|0:0,0:0:0:0:
375,339,223979,2,0,P|358:332|327:336,1,46.6666666666667,8|0,0:0|0:0,0:0:0:0:
70,263,224161,6,0,L|62:206,1,46.6666666666667,8|0,0:0|0:0,0:0:0:0:
158,251,224342,2,0,L|150:194,1,46.6666666666667,8|0,0:0|0:0,0:0:0:0:
245,241,224524,2,0,L|237:184,1,46.6666666666667,8|0,0:0|0:0,0:0:0:0:
366,55,224706,6,0,P|312:30|361:103,1,233.333333333333,2|0,0:0|0:0,0:0:0:0:
433,121,225251,6,0,P|414:161|397:176,1,46.6666666666667,8|0,0:0|0:0,0:0:0:0:
424,300,225433,2,0,P|398:263|394:241,1,46.6666666666667
271,205,225615,2,0,P|315:201|336:208,1,46.6666666666667
85,319,225797,6,0,L|8:324,1,46.6666666666667,2|0,0:0|0:0,0:0:0:0:
164,197,225979,2,0,L|200:258,1,46.6666666666667
25,189,226161,2,0,L|59:119,1,46.6666666666667
261,57,226342,6,0,L|263:69,1,11.6666666666667,10|0,0:0|0:0,0:0:0:0:
275,142,226888,6,0,B|309:134|325:110|325:110|308:156|312:180,1,116.666666666667,4|0,0:1|0:0,0:0:0:0:
356,227,227433,5,8,0:0:0:0:
435,72,227615,2,0,L|424:23,1,46.6666666666667,8|0,0:0|0:0,0:0:0:0:
333,309,227979,5,2,0:0:0:0:
254,154,228161,2,0,L|265:105,1,46.6666666666667,8|0,0:0|0:0,0:0:0:0:
314,384,228524,5,8,0:0:0:0:
470,210,228706,2,0,L|421:221,1,46.6666666666667,8|0,0:0|0:0,0:0:0:0:
65,299,229070,6,0,P|87:265|149:304,1,116.666666666667,4|0,0:1|0:0,0:0:0:0:
149,363,229615,5,8,0:0:0:0:
166,157,229797,1,8,0:0:0:0:
243,348,229979,1,8,0:0:0:0:
259,78,230161,6,0,P|312:65|329:66,1,46.6666666666667,2|0,0:0|0:0,0:0:0:0:
480,156,230342,5,8,0:0:0:0:
234,232,230524,1,8,0:0:0:0:
498,66,230706,6,0,B|473:62|473:62|465:64|465:64|457:61|457:61|447:63|447:63|417:60,1,70.0000026702882,2|0,0:0|0:0,0:0:0:0:
367,268,230888,6,0,L|374:296,1,23.3333333333333,2|0,0:0|0:0,0:0:0:0:
358,194,231070,2,0,L|351:222,1,23.3333333333333,2|0,0:0|0:0,0:0:0:0:
178,340,231251,38,0,B|150:335|140:324|140:324|109:333|109:333|95:307|115:287,1,116.666666666667,4|0,0:1|0:0,0:0:0:0:
158,235,231797,5,2,0:0:0:0:
228,31,231979,2,0,L|232:85,1,46.6666666666667,8|0,0:0|0:0,0:0:0:0:
399,310,232342,5,0,0:0:0:0:
329,106,232524,2,0,L|325:160,1,46.6666666666667,8|0,0:0|0:0,0:0:0:0:
186,362,232888,5,8,0:0:0:0:
144,150,233070,2,0,L|174:194,1,46.6666666666667,8|0,0:0|0:0,0:0:0:0:
457,242,233433,6,0,B|413:221|368:247|368:247|374:223|365:203,1,116.666666666667,4|0,0:1|0:0,0:0:0:0:
337,157,233979,5,8,0:0:0:0:
422,332,234161,1,8,0:0:0:0:
235,170,234342,1,8,0:0:0:0:
175,353,234524,5,2,0:0:0:0:
368,246,234706,1,8,0:0:0:0:
134,184,234888,1,8,0:0:0:0:
365,359,235070,6,0,L|304:350,1,58.3333333333333,10|0,0:0|0:0,0:0:0:0:
236,322,235615,6,0,B|242:298|242:298|233:279|233:279|242:232|242:232|239:224|239:224|240:204,1,116.666666666667,4|0,0:1|0:0,0:0:0:0:
280,145,236161,6,0,P|241:133|185:154,1,70.0000026702882,8|0,0:0|0:0,0:0:0:0:
393,275,236342,5,8,0:0:0:0:
389,281,236433,1,8,0:0:0:0:
384,286,236524,6,0,L|393:233,1,46.6666666666667,8|0,0:0|0:0,0:0:0:0:
416,74,236706,5,2,0:0:0:0:
139,191,236888,5,8,0:0:0:0:
137,183,236979,1,8,0:0:0:0:
135,175,237070,1,8,0:0:0:0:
133,167,237161,1,8,0:0:0:0:
132,160,237251,6,0,L|137:97,1,46.6666666666667,8|0,0:0|0:0,0:0:0:0:
250,264,237433,6,0,P|258:205|250:179,1,70.0000026702882,2|0,0:0|0:0,0:0:0:0:
133,335,237615,2,0,P|77:312|59:292,1,70.0000026702882,2|0,0:0|0:0,0:0:0:0:
135,113,237797,6,0,B|136:146|125:164|125:164|145:188|145:188|141:202|149:225,1,116.666666666667,4|0,0:1|0:0,0:0:0:0:
183,283,238342,5,8,0:0:0:0:
359,145,238524,2,0,P|362:96|359:81,1,46.6666666666667,8|0,0:0|0:0,0:0:0:0:
266,242,238888,5,2,0:0:0:0:
99,95,239070,2,0,P|96:46|99:31,1,46.6666666666667,8|0,0:0|0:0,0:0:0:0:
166,308,239433,5,8,0:0:0:0:
243,325,239615,6,0,L|263:323,1,11.6666666666667
324,338,239797,6,0,L|347:336,1,17.500000667572
412,355,239979,6,0,P|403:307|442:250,1,116.666666666667,2|0,0:0|0:0,0:0:0:0:
477,317,240524,5,8,0:0:0:0:
311,254,240706,1,0,0:0:0:0:
512,191,240888,1,0,0:0:0:0:
239,165,241070,6,0,B|282:148|312:167|312:167|344:159|344:159|359:178|359:178|379:160|410:163,1,175.00000667572,2|0,0:0|0:0,0:0:0:0:
472,176,241615,5,8,0:0:0:0:
371,67,241797,1,0,0:0:0:0:
417,246,241979,1,0,0:0:0:0:
192,137,242161,6,0,P|256:77|241:164,1,233.333333333333,2|0,0:0|0:0,0:0:0:0:
98,225,242706,6,0,L|40:215,1,46.6666666666667,8|0,0:0|0:0,0:0:0:0:
213,298,242888,2,0,L|155:288,1,46.6666666666667,2|0,0:0|0:0,0:0:0:0:
326,361,243070,2,0,L|268:351,1,46.6666666666667,2|0,0:0|0:0,0:0:0:0:
83,351,243251,6,0,P|73:300|75:281,1,46.6666666666667,2|0,0:0|0:0,0:0:0:0:
97,136,243433,2,0,P|146:152|161:164,1,46.6666666666667,2|0,0:0|0:0,0:0:0:0:
269,252,243615,2,0,P|229:286|212:293,1,46.6666666666667,2|0,0:0|0:0,0:0:0:0:
286,88,243797,22,0,P|289:84|292:78,1,11.6666666666667,10|0,0:0|0:0,0:0:0:0:
332,8,244342,38,0,B|338:28|361:44|361:44|392:27|434:45,1,116.666666666667,4|0,0:1|0:0,0:0:0:0:
484,102,244888,5,8,0:0:0:0:
213,129,245070,1,0,1:0:0:0:
484,207,245251,1,0,1:0:0:0:
245,42,245433,6,0,L|169:44,1,46.6666666666667,2|0,0:0|0:0,0:0:0:0:
3,112,245615,1,0,1:0:0:0:
192,216,245797,1,0,1:0:0:0:
18,357,245979,6,0,P|76:349|97:326,1,46.6666666666667,8|0,0:0|0:0,0:0:0:0:
250,298,246161,1,0,1:0:0:0:
122,122,246342,1,0,1:0:0:0:
382,301,246524,6,0,B|381:286|381:286|381:254|381:254|391:229|391:229|386:183,1,116.666666666667,4|0,0:1|0:0,0:0:0:0:
356,117,247070,6,0,P|322:110|275:121,1,70.0000026702882,8|0,0:0|0:0,0:0:0:0:
132,268,247251,6,0,L|123:227,1,23.3333333333333,8|0,0:0|0:0,0:0:0:0:
201,337,247433,6,0,L|216:280,1,46.6666666666667,8|0,0:0|0:0,0:0:0:0:
163,93,247615,6,0,P|113:85|85:93,1,70.0000026702882,2|0,0:0|0:0,0:0:0:0:
328,251,247797,6,0,L|406:239,1,70.0000026702882,8|0,0:0|0:0,0:0:0:0:
201,337,247979,2,0,L|279:325,1,70.0000026702882,8|0,0:0|0:0,0:0:0:0:
34,349,248161,38,0,B|45:313|45:313|36:269,1,70.0000026702882,8|0,0:0|0:0,0:0:0:0:
298,144,248342,22,0,L|232:132,1,46.6666666666667,8|0,0:0|0:0,0:0:0:0:
94,185,248524,6,0,L|164:176,1,70.0000026702882,8|0,0:0|0:0,0:0:0:0:
472,104,248706,6,0,P|431:91|458:132,1,116.666666666667,4|0,0:1|0:0,0:0:0:0:
491,200,249251,5,8,0:0:0:0:
336,12,249433,1,0,1:0:0:0:
242,237,249615,1,0,1:0:0:0:
26,58,249797,6,0,L|37:126,1,46.6666666666667,2|0,0:0|0:0,0:0:0:0:
62,283,249979,1,0,1:0:0:0:
208,115,250161,1,0,1:0:0:0:
324,294,250342,6,0,L|329:248,1,46.6666666666667,8|0,0:0|0:0,0:0:0:0:
285,72,250524,1,0,1:0:0:0:
224,323,250706,1,0,1:0:0:0:
35,170,250888,6,0,B|68:184|68:184|104:177|104:177|127:189|127:189|148:178|186:186,1,140,4|0,0:1|0:0,0:0:0:0:
299,45,251524,6,0,L|302:87,1,23.3333333333333,8|0,0:0|0:0,0:0:0:0:
320,107,251615,2,0,L|323:149,1,23.3333333333333,8|0,0:0|0:0,0:0:0:0:
349,176,251706,2,0,L|352:218,1,23.3333333333333,8|0,0:0|0:0,0:0:0:0:
378,242,251797,2,0,P|401:244|423:238,1,46.6666666666667,8|0,0:0|0:0,0:0:0:0:
199,280,251979,6,0,L|210:345,1,46.6666666666667,2|0,0:0|0:0,0:0:0:0:
65,245,252161,6,0,P|44:177|54:149,1,70.0000026702882,8|0,0:0|0:0,0:0:0:0:
144,182,252342,2,0,P|177:119|204:106,1,70.0000026702882,8|0,0:0|0:0,0:0:0:0:
299,221,252524,22,0,B|288:196|288:196|280:225,1,58.3333333333333,10|0,0:0|0:0,0:0:0:0:
304,299,253070,38,0,P|339:292|376:222,1,116.666666666667,4|0,0:1|0:0,0:0:0:0:
367,146,253615,5,8,0:0:0:0:
413,353,253797,1,0,1:0:0:0:
213,286,253979,1,0,1:0:0:0:
487,198,254161,6,0,L|493:134,1,46.6666666666667,2|0,0:0|0:0,0:0:0:0:
386,15,254342,1,0,1:0:0:0:
415,241,254524,1,0,1:0:0:0:
185,129,254706,6,0,P|153:116|116:116,1,46.6666666666667,8|0,0:0|0:0,0:0:0:0:
35,319,254888,1,0,1:0:0:0:
191,230,255070,1,0,1:0:0:0:
360,334,255251,6,0,L|368:198,1,116.666666666667,4|0,0:1|0:0,0:0:0:0:
376,140,255797,6,0,P|408:156|447:157,1,70.0000026702882,8|0,0:0|0:0,0:0:0:0:
274,277,255979,6,0,L|233:267,1,23.3333333333333,8|0,0:0|0:0,0:0:0:0:
452,317,256161,6,0,L|511:302,1,46.6666666666667,8|0,0:0|0:0,0:0:0:0:
171,314,256342,6,0,P|159:268|170:234,1,70.0000026702882,2|0,0:0|0:0,0:0:0:0:
263,92,256524,6,0,L|258:173,1,70.0000026702882,8|0,0:0|0:0,0:0:0:0:
172,10,256706,2,0,L|167:91,1,70.0000026702882,8|0,0:0|0:0,0:0:0:0:
29,178,256888,6,0,B|60:156|60:156|99:162,1,70.0000026702882,8|0,0:0|0:0,0:0:0:0:
259,267,257070,1,8,0:0:0:0:
337,253,257161,1,8,0:0:0:0:
411,239,257251,1,8,0:0:0:0:
138,340,257433,6,0,P|62:297|153:299,1,233.333333333333,2|0,0:0|0:0,0:0:0:0:
218,330,257979,1,8,0:0:0:0:
54,170,258161,5,0,0:0:0:0:
337,253,258342,1,0,0:0:0:0:
479,58,258524,6,0,B|370:92|370:92|238:19,1,233.333333333333,2|0,0:0|0:0,0:0:0:0:
197,1,259070,1,8,0:0:0:0:
459,154,259251,5,0,0:0:0:0:
370,318,259433,1,0,0:0:0:0:
129,246,259615,22,0,B|188:224|188:224|230:250|230:250|265:221|305:239|305:239|327:213|360:217,1,233.333333333333,2|0,0:0|0:0,0:0:0:0:
415,231,260161,1,8,0:0:0:0:
232,118,260342,1,0,0:0:0:0:
366,289,260524,1,0,0:0:0:0:
73,308,260706,6,0,P|54:251|61:232,1,46.6666666666667,2|0,0:0|0:0,0:0:0:0:
126,89,260888,1,0,0:0:0:0:
249,267,261070,1,0,0:0:0:0:
466,57,261251,22,0,L|460:124,1,46.6666666666667,8|0,0:0|0:0,0:0:0:0:
409,320,261433,1,0,0:0:0:0:
314,131,261615,1,0,0:0:0:0:
42,160,261797,22,0,B|79:162|103:149|103:149|87:128|83:90,1,116.666666666667,4|0,0:1|0:0,0:0:0:0:
162,94,262342,6,0,P|194:85|222:83,1,46.6666666666667,8|0,0:0|0:0,0:0:0:0:
198,207,262524,2,0,P|226:223|248:241,1,46.6666666666667,0|0,1:0|0:0,0:0:0:0:
144,312,262706,2,0,P|152:344|155:372,1,46.6666666666667,0|0,1:0|0:0,0:0:0:0:
409,311,262888,6,0,L|432:263,1,46.6666666666667,2|0,0:0|0:0,0:0:0:0:
325,197,263070,2,0,L|302:149,1,46.6666666666667,0|0,1:0|0:0,0:0:0:0:
405,85,263251,2,0,L|428:37,1,46.6666666666667,0|0,1:0|0:0,0:0:0:0:
241,38,263433,6,0,P|206:37|164:69,1,46.6666666666667,8|0,0:0|0:0,0:0:0:0:
74,125,263615,2,0,L|84:171,1,46.6666666666667,0|0,1:0|0:0,0:0:0:0:
190,231,263797,2,0,L|200:277,1,46.6666666666667,0|0,1:0|0:0,0:0:0:0:
313,363,263979,6,0,B|324:335|324:335|315:323|315:323|325:293|325:293|320:283|320:283|330:248|330:248,1,116.666666666667,4|0,0:1|0:0,0:0:0:0:
292,184,264524,6,0,P|338:177|362:183,1,70.0000026702882,8|0,0:0|0:0,0:0:0:0:
244,329,264706,6,0,L|235:287,1,23.3333333333333,8|0,0:0|0:0,0:0:0:0:
422,333,264888,6,0,L|430:283,1,46.6666666666667,8|0,0:0|0:0,0:0:0:0:
179,227,265070,22,0,L|140:223,1,23.3333333333333,2|0,0:0|0:0,0:0:0:0:
31,73,265251,6,0,B|51:55|51:55|95:78,1,46.6666666666667,8|0,0:0|0:0,0:0:0:0:
153,105,265433,2,0,B|173:87|173:87|217:110,1,46.6666666666667,8|0,0:0|0:0,0:0:0:0:
334,201,265615,38,0,P|284:185|243:205,1,70.0000026702882,2|0,0:0|0:0,0:0:0:0:
121,336,265797,6,0,L|123:298,1,23.3333333333333,8|0,0:0|0:0,0:0:0:0:
287,266,265979,6,0,L|291:312,1,46.6666666666667,8|0,0:0|0:0,0:0:0:0:
70,202,266161,6,0,B|124:179|124:179|184:209,1,116.666666666667,4|0,0:1|0:0,0:0:0:0:
254,184,266706,6,0,L|251:234,1,46.6666666666667,8|0,0:0|0:0,0:0:0:0:
143,338,266888,2,0,L|140:288,1,46.6666666666667,0|0,1:0|0:0,0:0:0:0:
72,155,267070,2,0,L|69:205,1,46.6666666666667,0|0,1:0|0:0,0:0:0:0:
224,46,267251,6,0,P|196:30|178:28,1,46.6666666666667,2|0,0:0|0:0,0:0:0:0:
323,122,267433,2,0,P|291:130|277:141,1,46.6666666666667,0|0,1:0|0:0,0:0:0:0:
450,106,267615,2,0,P|434:134|432:151,1,46.6666666666667,0|0,1:0|0:0,0:0:0:0:
472,305,267797,6,0,B|450:294|450:294|422:302,1,46.6666666666667,8|0,0:0|0:0,0:0:0:0:
327,346,267979,2,0,B|305:357|305:357|277:349,1,46.6666666666667,0|0,1:0|0:0,0:0:0:0:
180,294,268161,2,0,B|158:283|158:283|130:291,1,46.6666666666667,0|0,1:0|0:0,0:0:0:0:
12,347,268342,6,0,L|3:198,1,140,4|8,0:1|0:0,0:0:0:0:
74,139,268979,2,0,L|83:123,1,11.6666666666667,8|0,0:0|0:0,0:0:0:0:
129,148,269070,2,0,L|147:144,1,11.6666666666667,8|0,0:0|0:0,0:0:0:0:
161,184,269161,2,0,L|176:193,1,11.6666666666667,8|0,0:0|0:0,0:0:0:0:
182,231,269251,6,0,L|235:217,1,46.6666666666667,8|0,0:0|0:0,0:0:0:0:
438,248,269433,6,0,P|408:238|389:241,1,46.6666666666667,2|0,0:0|0:0,0:0:0:0:
286,349,269615,6,0,L|283:268,1,70.0000026702882,8|0,0:0|0:0,0:0:0:0:
324,122,269797,2,0,L|321:203,1,70.0000026702882,8|0,0:0|0:0,0:0:0:0:
154,75,269979,6,0,L|213:84,1,58.3333333333333,10|0,0:0|0:0,0:0:0:0:
254,144,270524,38,0,P|277:115|266:37,1,116.666666666667,4|0,0:1|0:0,0:0:0:0:
212,84,271070,6,0,L|151:81,1,46.6666666666667
118,181,271251,2,0,L|57:178,1,46.6666666666667,0|0,1:0|0:0,0:0:0:0:
160,291,271433,2,0,L|99:288,1,46.6666666666667,0|0,1:0|0:0,0:0:0:0:
315,359,271615,6,0,P|305:325|308:299,1,46.6666666666667,2|0,0:0|0:0,0:0:0:0:
266,179,271797,2,0,P|300:187|321:202,1,46.6666666666667,0|0,1:0|0:0,0:0:0:0:
449,223,271979,2,0,P|424:248|400:259,1,46.6666666666667,0|0,1:0|0:0,0:0:0:0:
181,220,272161,6,0,L|173:162,1,46.6666666666667,8|0,0:0|0:0,0:0:0:0:
308,42,272342,2,0,L|300:100,1,46.6666666666667,0|0,1:0|0:0,0:0:0:0:
144,9,272524,2,0,L|152:67,1,46.6666666666667,0|0,1:0|0:0,0:0:0:0:
303,257,272706,6,0,B|339:245|339:245|363:224|363:224|373:244|363:277,1,116.666666666667,4|0,0:1|0:0,0:0:0:0:
350,343,273251,6,0,B|379:321|379:321|428:330,1,70.0000026702882,8|0,0:0|0:0,0:0:0:0:
226,234,273433,6,0,P|226:273|228:277,1,23.3333333333333,8|0,0:0|0:0,0:0:0:0:
308,117,273615,6,0,L|301:179,1,46.6666666666667,8|0,0:0|0:0,0:0:0:0:
129,122,273797,6,0,L|106:124,1,23.3333333333333,2|0,0:0|0:0,0:0:0:0:
94,284,273979,22,0,L|38:274,1,46.6666666666667,8|0,0:0|0:0,0:0:0:0:
206,344,274161,2,0,L|150:334,1,46.6666666666667,8|0,0:0|0:0,0:0:0:0:
358,288,274342,5,8,0:0:0:0:
146,196,274524,1,8,0:0:0:0:
221,179,274615,1,8,0:0:0:0:
295,159,274706,1,8,0:0:0:0:
493,39,274888,22,0,L|387:25,1,105.000004005432,4|0,0:1|0:0,0:0:0:0:
304,28,275615,1,0,0:0:0:0:
234,75,275797,1,0,0:0:0:0:
258,141,275979,6,0,P|219:122|163:125,1,88.1999973083497
120,167,276706,1,0,0:0:0:0:
96,233,276888,1,0,0:0:0:0:
108,287,277070,6,0,B|160:326|187:249|256:293|256:293|231:244|237:199|268:197|284:232,1,280
306,259,296706,6,0,L|224:248,1,70.0000026702882,2|0,0:0|0:0,0:0:0:0:
158,236,297251,1,0,0:0:0:0:
182,313,297433,1,2,0:0:0:0:
210,174,297615,1,2,0:0:0:0:
254,346,297797,6,0,P|304:361|327:359,1,70.0000026702882,2|0,0:0|0:0,0:0:0:0:
399,329,298342,1,0,0:0:0:0:
445,258,298524,1,2,0:0:0:0:
307,282,298706,1,2,0:0:0:0:
356,142,298888,6,0,L|359:106,1,35.0000013351441,2|2,0:0|0:0,0:0:0:0:
252,167,299251,2,0,L|246:93,1,70.0000026702882,2|0,0:0|0:0,0:0:0:0:
189,34,299797,1,0,0:0:0:0:
138,101,299979,6,0,L|103:105,1,35.0000013351441,2|0,0:0|0:0,0:0:0:0:
211,227,300342,2,0,P|237:239|290:226,1,70.0000026702882,2|2,0:0|0:0,0:0:0:0:
344,182,300888,1,0,0:0:0:0:
127,182,301070,6,0,L|134:256,1,70.0000026702882,2|0,0:0|0:0,0:0:0:0:
146,333,301615,1,0,0:0:0:0:
42,269,301797,1,2,0:0:0:0:
208,153,301979,1,2,0:0:0:0:
18,116,302161,6,0,P|51:96|96:102,1,70.0000026702882,2|0,0:0|0:0,0:0:0:0:
154,138,302706,1,0,0:0:0:0:
183,216,302888,1,2,0:0:0:0:
94,334,303070,1,2,0:0:0:0:
258,290,303251,6,0,P|285:284|305:284,1,35.0000013351441,2|0,0:0|0:0,0:0:0:0:
424,321,303615,2,0,P|400:287|399:250,2,70.0000026702882,2|2|2,0:0|0:0|0:0,0:0:0:0:
480,259,304524,5,2,0:0:0:0:
431,190,304706,2,0,P|397:182|358:193,1,70.0000026702882,2|0,0:0|0:0,0:0:0:0:
205,52,305433,6,0,B|212:86|212:86|191:127,1,70.0000026702882,2|0,0:0|0:0,0:0:0:0:
162,194,305979,1,0,0:0:0:0:
109,93,306161,1,2,0:0:0:0:
296,76,306342,1,2,0:0:0:0:
261,197,306524,6,0,P|272:240|286:270,1,70.0000026702882,2|0,0:0|0:0,0:0:0:0:
316,334,307070,1,0,0:0:0:0:
363,225,307251,1,2,0:0:0:0:
187,241,307433,1,2,0:0:0:0:
307,105,307615,6,0,P|334:92|354:92,1,35.0000013351441,2|0,0:0|0:0,0:0:0:0:
211,149,307979,2,0,L|203:65,2,70.0000026702882,2|2|2,0:0|0:0|0:0,0:0:0:0:
221,224,308888,1,2,0:0:0:0:
231,302,309070,2,0,B|186:293|186:293|163:300,1,70.0000026702882,2|0,0:0|0:0,0:0:0:0:
381,357,309797,6,0,P|387:320|379:288,1,70.0000026702882,2|0,0:0|0:0,0:0:0:0:
324,223,310342,1,0,0:0:0:0:
190,189,310524,5,2,0:0:0:0:
319,105,310706,1,2,0:0:0:0:
246,259,310888,6,0,L|255:337,1,70.0000026702882,2|0,0:0|0:0,0:0:0:0:
254,328,311615,1,2,0:0:0:0:
260,161,311797,1,2,0:0:0:0:
254,328,311979,6,0,P|217:319|214:319,1,35.0000013351441,2|0,0:0|0:0,0:0:0:0:
122,350,312342,2,0,P|93:358|48:344,1,70.0000026702882,2|2,0:0|0:0,0:0:0:0:
55,349,313070,1,2,0:0:0:0:
99,240,313251,1,2,0:0:0:0:
80,110,313433,5,2,0:0:0:0:
159,23,313615,2,0,L|233:16,1,70.0000026702882,2|0,0:0|0:0,0:0:0:0:
302,74,314161,6,0,B|338:78|338:78|378:62,1,74.6666666666667,2|0,0:0|0:0,0:0:0:0:
446,23,314706,1,2,0:0:0:0:
303,170,314888,1,2,0:0:0:0:
404,151,315070,1,2,0:0:0:0:
505,132,315251,6,0,L|501:214,1,74.6666666666667,2|0,0:0|0:0,0:0:0:0:
493,286,315797,1,2,0:0:0:0:
341,375,315979,1,2,0:0:0:0:
328,271,316161,1,2,0:0:0:0:
318,163,316342,6,0,P|281:152|239:166,2,74.6666666666667,2|0|0,0:0|0:0|0:0,0:0:0:0:
142,288,317433,1,2,0:0:0:0:
157,184,317615,1,2,0:0:0:0:
237,250,317797,2,0,L|231:324,1,74.6666666666667,2|0,0:0|0:0,0:0:0:0:
98,137,318524,6,0,P|132:111|171:111,1,74.6666666666667,2|0,0:0|0:0,0:0:0:0:
236,146,319070,1,2,0:0:0:0:
351,29,319251,1,2,0:0:0:0:
366,132,319433,1,2,0:0:0:0:
381,235,319615,6,0,L|459:226,2,74.6666666666667,2|0|0,0:0|0:0|0:0,0:0:0:0:
268,149,320524,1,2,0:0:0:0:
154,300,320706,5,2,0:0:0:0:
258,300,320888,1,2,0:0:0:0:
335,370,321070,2,0,P|353:341|361:290,1,74.6666666666667,2|0,0:0|0:0,0:0:0:0:
153,154,321797,5,2,0:0:0:0:
218,235,321979,1,2,0:0:0:0:
291,160,322161,2,0,P|331:152|376:160,1,74.6666666666667,2|0,0:0|0:0,0:0:0:0:
457,296,322888,6,0,L|468:211,1,74.6666666666667,2|0,0:0|0:0,0:0:0:0:
483,140,323433,1,2,0:0:0:0:
360,268,323615,1,2,0:0:0:0:
275,206,323797,1,2,0:0:0:0:
177,244,323979,6,0,L|188:326,2,74.6666666666667,2|0|0,0:0|0:0|0:0,0:0:0:0:
86,191,324888,1,0,0:0:0:0:
212,96,325070,6,0,P|182:93|139:57,2,74.6666666666667,2|0|0,0:0|0:0|0:0,0:0:0:0:
292,69,325979,1,0,0:0:0:0:
380,195,326161,5,2,0:0:0:0:
452,120,326342,1,2,0:0:0:0:
494,215,326524,2,0,L|480:290,1,74.6666666666667,2|0,0:0|0:0,0:0:0:0:
207,222,327251,6,0,P|246:211|290:222,1,74.6666666666667,2|0,0:0|0:0,0:0:0:0:
351,265,327797,1,2,0:0:0:0:
177,326,327979,1,2,0:0:0:0:
107,247,328161,1,2,0:0:0:0:
122,144,328342,6,0,P|141:105|164:80,1,74.6666666666667,2|0,0:0|0:0,0:0:0:0:
246,30,328888,1,2,0:0:0:0:
221,198,329070,1,2,0:0:0:0:
294,127,329251,1,2,0:0:0:0:
399,210,329433,6,0,P|426:213|488:197,2,74.6666666666667,2|2|2,0:0|0:0|0:0,0:0:0:0:
250,340,330524,1,2,0:0:0:0:
235,236,330706,1,2,0:0:0:0:
217,132,330888,2,0,P|190:142|139:136,1,74.6666666666667,2|0,0:0|0:0,0:0:0:0:
70,108,331433,1,0,0:0:0:0:
26,249,331615,6,0,B|70:237|70:237|116:257,1,93.3333333333333,4|0,0:1|0:0,0:0:0:0:
176,326,332161,2,0,L|271:313,1,93.3333333333333
404,358,332706,2,0,P|372:309|396:222,1,140
457,285,333433,1,0,0:0:0:0:
286,217,333615,1,0,0:0:0:0:
489,77,333797,6,0,L|344:88,1,140,2|0,0:0|0:0,0:0:0:0:
256,100,334524,1,0,0:0:0:0:
126,32,334706,1,0,0:0:0:0:
42,167,334888,5,0,0:0:0:0:
90,246,335070,2,0,P|152:264|197:249,1,93.3333333333333
255,205,335615,1,0,0:0:0:0:
126,342,335797,1,0,0:0:0:0:
144,158,335979,6,0,B|128:66|128:66|139:19,1,140,2|0,0:0|0:0,0:0:0:0:
206,69,336706,1,0,0:0:0:0:
66,168,336888,1,0,0:0:0:0:
269,261,337070,6,0,P|215:282|137:245,1,140
211,197,337797,1,0,0:0:0:0:
282,352,337979,1,0,0:0:0:0:
404,193,338161,6,0,L|417:335,1,140,2|0,0:0|0:0,0:0:0:0:
315,246,338888,1,0,0:0:0:0:
322,160,339070,1,0,0:0:0:0:
331,76,339251,5,0,0:0:0:0:
209,199,339433,1,0,0:0:0:0:
310,329,339615,1,0,0:0:0:0:
430,219,339797,5,0,0:0:0:0:
319,209,339979,1,0,0:0:0:0:
209,199,340161,1,0,0:0:0:0:
33,106,340342,6,0,B|76:121|76:121|133:91,1,93.3333333333333,2|0,0:0|0:0,0:0:0:0:
182,50,340888,1,0,0:0:0:0:
136,183,341070,1,0,0:0:0:0:
70,39,341251,1,0,0:0:0:0:
226,150,341433,6,0,L|324:140,1,97.9999970092774,2|0,0:0|0:0,0:0:0:0:
403,128,341979,1,0,0:0:0:0:
229,237,342161,1,0,0:0:0:0:
416,278,342342,1,0,0:0:0:0:
190,350,342524,6,0,P|154:361|87:329,1,102.666669799805,2|0,0:0|0:0,0:0:0:0:
46,273,343070,1,0,0:0:0:0:
161,137,343251,1,0,0:0:0:0:
153,283,343433,1,0,0:0:0:0:
49,127,343615,6,0,P|37:88|66:22,1,107.333335380554,2|0,0:0|0:0,0:0:0:0:
122,83,344161,1,0,0:0:0:0:
224,48,344342,1,0,0:0:0:0:
302,89,344524,1,0,0:0:0:0:
375,54,344706,6,0,L|489:43,1,111.999996582031,2|0,0:0|0:0,0:0:0:0:
377,146,345251,6,0,L|497:134,1,116.666666666667,2|0,0:0|0:0,0:0:0:0:
319,253,345797,6,0,P|284:258|226:223,1,93.3333333333333,2|0,0:0|0:0,0:0:0:0:
363,134,346342,6,0,P|343:159|284:174,1,83.9999974365235,2|0,0:0|0:0,0:0:0:0:
285,39,346888,5,2,0:0:0:0:
289,47,347070,1,2,0:0:0:0:
294,55,347251,1,2,0:0:0:0:
410,86,347433,5,2,0:0:0:0:
407,96,347615,1,2,0:0:0:0:
404,107,347797,1,2,0:0:0:0:
185,147,347979,5,2,0:0:0:0:
391,228,348161,1,2,0:0:0:0:
391,228,348251,1,2,0:0:0:0:
391,228,348342,1,2,0:0:0:0:
391,228,348433,1,2,0:0:0:0:
391,228,348524,5,10,0:0:0:0:
283,320,348706,1,2,0:0:0:0:
183,303,348888,1,2,0:0:0:0:
121,247,349070,6,0,B|126:208|126:208|115:172|115:172|124:91,1,140.000005340576,4|0,0:1|0:0,0:0:0:0:
311,38,349615,2,0,P|268:15|186:50,1,140.000005340576,8|0,0:0|0:0,0:0:0:0:
266,209,350161,6,0,B|349:184|349:184|434:220,1,175.00000667572,2|0,0:0|0:0,0:0:0:0:
496,257,350706,1,8,0:0:0:0:
266,127,350888,5,0,0:0:0:0:
345,315,351070,1,0,0:0:0:0:
318,67,351251,6,0,P|229:55|185:134,1,175.00000667572,2|0,0:0|0:0,0:0:0:0:
185,194,351797,1,8,0:0:0:0:
345,163,351979,5,0,0:0:0:0:
86,80,352161,1,0,0:0:0:0:
61,310,352342,5,2,0:0:0:0:
153,227,352524,2,0,L|262:236,1,105.000004005432
335,248,352888,1,8,0:0:0:0:
166,323,353070,5,0,0:0:0:0:
153,115,353251,1,0,0:0:0:0:
353,127,353433,6,0,P|371:72|276:6,1,175.00000667572,2|0,0:0|0:0,0:0:0:0:
220,47,353979,1,8,0:0:0:0:
316,223,354161,5,0,0:0:0:0:
97,146,354342,1,0,0:0:0:0:
403,156,354524,6,0,B|413:207|413:207|396:256|396:256|405:286|405:286|396:338,1,175.00000667572,2|0,0:0|0:0,0:0:0:0:
337,371,355070,1,8,0:0:0:0:
252,148,355251,5,0,0:0:0:0:
235,320,355433,1,0,0:0:0:0:
0,117,355615,6,0,B|37:118|51:140|51:140|88:121|88:121|114:142|165:121,1,175.00000667572,2|0,0:0|0:0,0:0:0:0:
219,70,356161,1,8,0:0:0:0:
153,248,356342,5,0,0:0:0:0:
153,248,356524,1,0,0:0:0:0:
313,91,356706,5,2,0:0:0:0:
369,257,356888,1,0,0:0:0:0:
211,180,357070,1,0,0:0:0:0:
448,95,357251,5,8,0:0:0:0:
362,295,357433,1,0,0:0:0:0:
184,155,357615,1,0,0:0:0:0:
29,352,357797,6,0,P|90:364|167:331,1,140.000005340576,4|0,0:1|0:0,0:0:0:0:
212,197,358342,2,0,P|151:185|74:218,1,140.000005340576,8|0,0:0|0:0,0:0:0:0:
352,302,358888,6,0,L|340:99,1,175.00000667572,2|0,0:0|0:0,0:0:0:0:
335,49,359433,1,8,0:0:0:0:
449,291,359615,5,0,0:0:0:0:
464,116,359797,1,0,0:0:0:0:
267,235,359979,6,0,B|181:254|181:254|86:192,1,175.00000667572,2|0,0:0|0:0,0:0:0:0:
39,160,360524,1,8,0:0:0:0:
117,350,360706,5,0,0:0:0:0:
289,317,360888,1,0,0:0:0:0:
176,131,361070,6,0,B|232:138|260:124|260:124|259:154|276:192|276:192|286:181|292:162,1,175.00000667572,2|0,0:0|0:0,0:0:0:0:
345,129,361615,1,8,0:0:0:0:
127,203,361797,5,0,0:0:0:0:
213,53,361979,1,0,0:0:0:0:
251,288,362161,6,0,L|448:274,1,175.00000667572,2|0,0:0|0:0,0:0:0:0:
487,319,362706,1,8,0:0:0:0:
261,202,362888,5,0,0:0:0:0:
353,370,363070,1,0,0:0:0:0:
64,267,363251,6,0,P|134:255|184:341,1,175.00000667572,2|0,0:0|0:0,0:0:0:0:
111,326,363797,1,8,0:0:0:0:
232,152,363979,5,0,0:0:0:0:
39,180,364161,1,0,0:0:0:0:
270,244,364342,6,0,B|319:233|319:233|350:242|350:242|372:224|372:224|406:247|459:224,1,175.00000667572,2|0,0:0|0:0,0:0:0:0:
417,157,364888,1,8,0:0:0:0:
231,116,365070,5,0,0:0:0:0:
231,116,365251,1,0,0:0:0:0:
317,318,365433,5,2,0:0:0:0:
142,252,365615,1,0,0:0:0:0:
309,158,365797,1,0,0:0:0:0:
121,80,365979,5,8,0:0:0:0:
239,259,366161,1,0,0:0:0:0:
352,48,366342,1,0,0:0:0:0:
130,177,366524,6,0,B|116:241|116:241|131:268|131:268|118:353,1,175.00000667572,4|0,0:1|0:0,0:0:0:0:
201,340,367070,6,0,L|207:296,1,35.0000013351441,8|0,0:0|0:0,0:0:0:0:
37,230,367251,2,0,L|43:186,1,35.0000013351441,2|0,0:0|0:0,0:0:0:0:
206,196,367433,2,0,L|212:152,1,35.0000013351441,2|0,0:0|0:0,0:0:0:0:
23,95,367615,6,0,P|63:116|178:63,1,175.00000667572,2|0,0:0|0:0,0:0:0:0:
209,5,368161,1,8,0:0:0:0:
346,126,368342,6,0,L|391:120,1,35.0000013351441,2|0,0:0|0:0,0:0:0:0:
308,221,368524,2,0,L|353:227,1,35.0000013351441,2|0,0:0|0:0,0:0:0:0:
194,299,368706,6,0,B|158:256|172:182|172:182|204:196|201:239,1,175.00000667572,2|0,0:0|0:0,0:0:0:0:
194,299,369251,1,8,0:0:0:0:
212,117,369433,6,0,P|182:107|152:106,1,35.0000013351441,2|0,0:0|0:0,0:0:0:0:
75,192,369615,2,0,P|81:222|95:249,1,35.0000013351441,2|0,0:0|0:0,0:0:0:0:
271,267,369797,5,2,0:0:0:0:
22,337,369979,2,0,B|91:316|91:316|141:340,1,105.000004005432
182,373,370342,1,8,0:0:0:0:
348,306,370524,6,0,P|377:298|397:298,1,35.0000013351441,2|0,0:0|0:0,0:0:0:0:
246,246,370706,2,0,P|217:238|197:238,1,35.0000013351441,2|0,0:0|0:0,0:0:0:0:
361,160,370888,6,0,B|377:105|360:59|360:59|325:83|281:79,1,175.00000667572,2|0,0:0|0:0,0:0:0:0:
218,56,371433,1,8,0:0:0:0:
410,225,371615,6,0,P|433:197|438:177,1,35.0000013351441,2|0,0:0|0:0,0:0:0:0:
317,227,371797,2,0,P|294:199|289:179,1,35.0000013351441,2|0,0:0|0:0,0:0:0:0:
444,325,371979,6,0,B|365:298|365:298|257:341,1,175.00000667572,2|0,0:0|0:0,0:0:0:0:
211,370,372524,1,8,0:0:0:0:
111,236,372706,6,0,L|105:296,1,35.0000013351441,2|0,0:0|0:0,0:0:0:0:
192,165,372888,2,0,L|186:225,1,35.0000013351441,2|0,0:0|0:0,0:0:0:0:
30,138,373070,6,0,P|78:138|130:25,1,175.00000667572,2|0,0:0|0:0,0:0:0:0:
57,59,373615,5,8,0:0:0:0:
254,120,373797,5,0,0:0:0:0:
30,231,373979,1,0,0:0:0:0:
215,336,374161,1,2,0:0:0:0:
428,262,374342,6,0,P|386:246|377:248,1,35.0000013351441
344,162,374524,2,0,P|309:190|306:199,1,35.0000013351441
351,346,374706,5,8,0:0:0:0:
219,170,374888,1,0,0:0:0:0:
371,19,375070,1,0,0:0:0:0:
177,258,375251,6,0,L|-3:238,1,175.00000667572,4|0,0:1|0:0,0:0:0:0:
28,319,375797,1,8,0:0:0:0:
129,150,375979,1,2,0:0:0:0:
207,350,376161,1,2,0:0:0:0:
53,96,376342,22,0,P|109:61|206:106,1,175.00000667572,2|0,0:0|0:0,0:0:0:0:
207,183,376888,1,8,0:0:0:0:
384,109,377070,6,0,P|391:75|385:61,1,35.0000013351441,2|0,0:0|0:0,0:0:0:0:
308,192,377251,2,0,P|333:215|349:216,1,35.0000013351441,2|0,0:0|0:0,0:0:0:0:
499,316,377433,6,0,P|423:300|376:383,1,175.00000667572,2|0,0:0|0:0,0:0:0:0:
450,374,377979,1,8,0:0:0:0:
257,283,378161,6,0,L|210:273,1,35.0000013351441,2|0,0:0|0:0,0:0:0:0:
78,326,378342,2,0,L|112:333,1,35.0000013351441,2|0,0:0|0:0,0:0:0:0:
159,91,378524,6,0,B|145:128|145:128|159:163|159:163|118:207|148:278,1,175.00000667572,2|0,0:0|0:0,0:0:0:0:
211,223,379070,5,8,0:0:0:0:
39,138,379251,1,0,0:0:0:0:
247,38,379433,1,0,0:0:0:0:
273,303,379615,22,0,L|377:306,1,105.000004005432,6|0,0:0|0:0,0:0:0:0:
430,236,380342,1,0,0:0:0:0:
447,150,380524,1,0,0:0:0:0:
429,64,380706,6,0,P|390:42|340:48,1,88.1999973083497
304,104,381433,1,0,0:0:0:0:
235,131,381615,1,0,0:0:0:0:
176,133,381797,6,0,B|131:127|105:145|105:145|119:172|120:192,1,116.666666666667
72,264,382888,5,0,0:0:0:0:
144,319,383070,6,0,L|147:351,1,17.500000667572
163,279,383251,6,0,L|162:309,1,18.6666666666667
196,231,383433,6,0,L|201:258,1,19.8333337116242
214,164,383615,6,0,L|230:180,1,20.9999993591309
202,89,383797,6,0,L|241:85,1,22.1666660747528
331,78,383979,6,0,P|363:81|406:68,1,70.0000026702882,4|2,0:1|0:0,0:0:0:0:
476,144,384524,2,0,P|474:123|477:98,2,35.0000013351441,2|2|2,0:0|0:0|0:0,0:0:0:0:
424,229,385070,6,0,P|381:211|346:207,1,70.0000026702882,2|2,0:0|0:0,0:0:0:0:
298,277,385615,2,0,L|295:313,2,35.0000013351441,2|2|2,0:0|0:0|0:0,0:0:0:0:
192,220,386161,6,0,L|200:298,1,70.0000026702882,2|2,0:0|0:0,0:0:0:0:
208,384,386706,1,2,0:0:0:0:
300,323,386888,1,2,0:0:0:0:
201,206,387070,1,2,0:0:0:0:
300,153,387251,5,2,0:0:0:0:
200,91,387433,2,0,L|203:13,1,70.0000026702882,2|2,0:0|0:0,0:0:0:0:
297,50,387979,2,0,L|288:6,1,35.0000013351441,2|2,0:0|0:0,0:0:0:0:
345,135,388342,6,0,P|374:144|454:117,1,105.000004005432,2|2,0:0|0:0,0:0:0:0:
383,56,389070,1,2,0:0:0:0:
266,91,389251,1,2,0:0:0:0:
218,220,389433,6,0,P|232:246|307:284,1,105.000004005432,2|2,0:0|0:0,0:0:0:0:
406,274,390161,1,2,0:0:0:0:
478,329,390342,1,2,0:0:0:0:
408,377,390524,6,0,P|380:377|333:348,1,70.0000026702882,2|2,0:0|0:0,0:0:0:0:
260,274,391070,2,0,P|265:242|265:232,2,35.0000013351441,2|2|2,0:0|0:0|0:0,0:0:0:0:
184,317,391615,6,0,L|178:280,2,35.0000013351441,2|2|2,0:0|0:0|0:0,0:0:0:0:
84,356,392161,2,0,L|40:337,1,35.0000013351441,2|2,0:0|0:0,0:0:0:0:
89,252,392524,1,2,0:0:0:0:
23,128,392706,6,0,L|98:117,1,70.0000026702882,2|2,0:0|0:0,0:0:0:0:
207,196,393251,2,0,P|236:212|280:211,1,70.0000026702882,2|2,0:0|0:0,0:0:0:0:
387,177,393797,2,0,P|382:159|379:139,2,35.0000013351441,2|2|2,0:0|0:0|0:0,0:0:0:0:
427,252,394342,1,2,0:0:0:0:
467,134,394524,5,2,0:0:0:0:
337,78,394706,1,2,0:0:0:0:
257,166,394888,6,0,P|257:203|276:239,1,70.0000026702882,2|2,0:0|0:0,0:0:0:0:
339,300,395433,1,2,0:0:0:0:
333,187,395615,1,2,0:0:0:0:
178,236,395797,1,2,0:0:0:0:
63,140,395979,6,0,P|94:158|139:157,1,70.0000026702882,2|2,0:0|0:0,0:0:0:0:
207,97,396524,1,2,0:0:0:0:
275,166,396706,1,2,0:0:0:0:
377,82,396888,1,2,0:0:0:0:
483,188,397070,6,0,P|442:178|372:206,1,105.000004005432,2|2,0:0|0:0,0:0:0:0:
362,282,397797,1,2,0:0:0:0:
245,208,397979,1,2,0:0:0:0:
169,289,398161,6,0,L|157:182,1,105.000004005432,2|0,0:0|0:0,0:0:0:0:
142,69,398888,1,2,0:0:0:0:
243,105,399070,1,2,0:0:0:0:
256,192,399251,5,2,0:0:0:0:
256,192,399342,12,0,401433,0:0:0:0:
