osu file format v14

[General]
AudioFilename: audio.mp3
AudioLeadIn: 0
PreviewTime: 17500
Countdown: 0
SampleSet: Normal
StackLeniency: 0.7
Mode: 0
LetterboxInBreaks: 0
WidescreenStoryboard: 0

[Editor]
Bookmarks: 207318,209681,211318
DistanceSpacing: 2.4
BeatDivisor: 6
GridSize: 4
TimelineZoom: 1.5

[Metadata]
Title:Holystone
TitleUnicode:Holystone
Artist:Phantom Sage
ArtistUnicode:Phantom Sage
Creator:f4stronix
Version:Holy shit!
Source:
Tags:electro dubstep phantom sage holystone zelda
BeatmapID:1203475
BeatmapSetID:567792

[Difficulty]
HPDrainRate:5.5
CircleSize:3.5
OverallDifficulty:7.5
ApproachRate:9.3
SliderMultiplier:1.8
SliderTickRate:1

[Events]
//Background and Video events
0,0,"shards_stone_background_light_85542_1920x1080.jpg",0,0
//Break Periods
//Storyboard Layer 0 (Background)
//Storyboard Layer 1 (Fail)
//Storyboard Layer 2 (Pass)
//Storyboard Layer 3 (Foreground)
//Storyboard Layer 4 (Overlay)
//Storyboard Sound Samples

[TimingPoints]
17500,545.454545454546,4,1,0,100,1,0
48045,-142.857142857143,4,1,0,100,0,0
49136,-200,4,1,0,100,0,0
52409,-133.333333333333,4,1,0,100,0,0
87318,-166.666666666667,4,1,0,100,0,1
100409,-100,4,1,0,100,0,1
104227,-50,4,1,0,100,0,1
104772,-166.666666666667,4,1,0,100,0,1
117863,-100,4,1,0,100,0,1
122227,-166.666666666667,4,1,0,100,0,1
124954,-66.6666666666667,4,1,0,100,0,1
125500,-41.6666666666667,4,1,0,100,0,1
126045,-66.6666666666667,4,1,0,100,0,1
126590,-166.666666666667,4,1,0,100,0,1
129318,-100,4,1,0,100,0,1
130408,-37.037037037037,4,1,0,100,0,1
130954,-166.666666666667,4,1,0,100,0,1
133680,-66.6666666666667,4,1,0,100,0,1
134227,-41.6666666666667,4,1,0,100,0,1
135318,-100,4,1,0,100,0,1
139680,-166.666666666667,4,1,0,100,0,1
142409,-66.6666666666667,4,1,0,100,0,1
142954,-41.6666666666667,4,1,0,100,0,1
143681,-66.6666666666667,4,1,0,100,0,1
144038,-166.666666666667,4,1,0,100,0,1
146765,-100,4,1,0,100,0,1
147862,-37.037037037037,4,1,0,100,0,1
148407,-166.666666666667,4,1,0,100,0,1
151136,-66.6666666666667,4,1,0,100,0,1
151634,-41.666666666667,4,1,0,100,0,1
152772,-100,4,1,0,100,0,1
153860,-142.857142857143,4,1,0,100,0,0
154951,-200,4,1,0,100,0,0
157133,-125,4,1,0,100,0,0
192042,-100,4,1,0,100,0,0
209499,-166.666666666667,4,1,0,100,0,1
210227,-57.1428571428571,4,1,0,100,0,1
211681,-166.666666666667,4,1,0,100,0,1
212409,-57.1428571428571,4,1,0,100,0,1
213318,-66.6666666666667,4,1,0,100,0,1
213863,-166.666666666667,4,1,0,100,0,1
214590,-57.1428571428571,4,1,0,100,0,1
216045,-166.666666666667,4,1,0,100,0,1
216590,-200,4,1,0,100,0,1
217681,-37.037037037037,4,1,0,100,0,1
218227,-166.666666666667,4,1,0,100,0,1
218954,-57.1428571428571,4,1,0,100,0,1
220409,-166.666666666667,4,1,0,100,0,1
221136,-57.1428571428571,4,1,0,100,0,1
222045,-66.6666666666667,4,1,0,100,0,1
222590,-166.666666666667,4,1,0,100,0,1
223318,-57.1428571428571,4,1,0,100,0,1
224772,-100,4,1,0,100,0,1
226408,-50,4,1,0,100,0,1
226954,-166.666666666667,4,1,0,100,0,1
227500,-57.1428571428571,4,1,0,100,0,1
229136,-166.666666666667,4,1,0,100,0,1
229863,-57.1428571428571,4,1,0,100,0,1
230772,-66.6666666666667,4,1,0,100,0,1
231318,-166.666666666667,4,1,0,100,0,1
231863,-50,4,1,0,100,0,1
233500,-166.666666666667,4,1,0,100,0,1
234045,-200,4,1,0,100,0,1
235136,-37.037037037037,4,1,0,100,0,1
235681,-166.666666666667,4,1,0,100,0,1
236227,-57.1428571428571,4,1,0,100,0,1
237863,-166.666666666667,4,1,0,100,0,1
238409,-57.1428571428571,4,1,0,100,0,1
239499,-100,4,1,0,100,0,1
243862,-50,4,1,0,100,0,1
244408,-166.666666666667,4,1,0,100,0,1
246590,-166.666666666667,4,1,0,100,0,1
247136,-66.6666666666667,4,1,0,100,0,1
247681,-41.666666666667,4,1,0,100,0,1
248227,-66.6666666666667,4,1,0,100,0,1
248772,-166.666666666667,4,1,0,100,0,1
250954,-166.666666666667,4,1,0,100,0,1
251500,-100,4,1,0,100,0,1
252590,-37.037037037037,4,1,0,100,0,1
253135,-166.666666666667,4,1,0,100,0,1
255863,-66.6666666666667,4,1,0,100,0,1
256409,-41.666666666667,4,1,0,100,0,1
257499,-100,4,1,0,100,0,1
261862,-166.666666666667,4,1,0,100,0,1
264590,-66.6666666666667,4,1,0,100,0,1
265136,-41.666666666667,4,1,0,100,0,1
265681,-66.6666666666667,4,1,0,100,0,1
266226,-166.666666666667,4,1,0,100,0,1
268956,-100,4,1,0,100,0,1
270045,-37.037037037037,4,1,0,100,0,1
270590,-166.666666666667,4,1,0,100,0,1
273318,-66.6666666666667,4,1,0,100,0,1
273863,-41.666666666667,4,1,0,100,0,1
274953,-100,4,1,0,100,0,0
276042,-142.857142857143,4,1,0,100,0,0
277136,-200,4,1,0,100,0,0
279317,-133.333333333333,4,1,0,100,0,0
349135,-100,4,1,0,100,0,0
384044,-100,4,1,0,100,0,0

[HitObjects]
156,254,11681,6,0,P|148:218|158:169,1,60
256,192,12045,12,0,12590,0:0:0:0:
356,130,12772,6,0,P|363:158|362:188,1,60
256,192,13136,12,0,13681,0:0:0:0:
156,130,13863,6,0,P|148:166|158:215,1,60
256,192,14227,12,0,14772,0:0:0:0:
356,254,14954,6,0,P|364:218|354:169,1,60
121,210,15318,6,0,P|92:177|91:133,1,90
319,219,15863,6,0,P|304:177|310:133,1,90
64,298,16409,1,0,0:0:0:0:
81,168,16590,1,0,0:0:0:0:
103,129,16681,1,0,0:0:0:0:
146,112,16772,1,0,0:0:0:0:
225,112,16954,1,0,0:0:0:0:
152,203,17136,1,0,0:0:0:0:
293,194,17318,1,0,0:0:0:0:
203,272,17500,6,0,P|244:230|293:194,1,120
98,221,18045,1,0,0:0:0:0:
293,194,18227,1,0,0:0:0:0:
186,132,18409,1,0,0:0:0:0:
293,194,18590,2,0,B|248:220|185:295,1,120
91,133,19318,5,0,0:0:0:0:
83,246,19500,1,0,0:0:0:0:
247,131,19681,2,0,B|251:144|211:196|207:244,1,120
247,131,20409,1,0,0:0:0:0:
207,243,20590,1,0,0:0:0:0:
316,256,20772,2,0,L|268:184,2,60
282,206,21318,1,0,0:0:0:0:
325,127,21500,5,0,0:0:0:0:
238,88,21681,1,0,0:0:0:0:
192,160,21863,2,0,B|160:208|160:208|284:208,1,180
282,208,22590,5,0,0:0:0:0:
333,96,22772,1,0,0:0:0:0:
282,208,22954,2,0,B|268:88|268:88|344:88,1,180
282,208,23681,5,0,0:0:0:0:
238,90,23863,1,0,0:0:0:0:
244,68,24045,2,0,B|205:92|223:155|223:155|156:210|156:210,1,180
224,152,24772,5,0,0:0:0:0:
348,80,24954,1,0,0:0:0:0:
356,216,25136,1,0,0:0:0:0:
348,80,25318,5,0,0:0:0:0:
224,152,25500,1,0,0:0:0:0:
356,216,25682,1,0,0:0:0:0:
256,248,25863,5,0,0:0:0:0:
202,254,26045,1,0,0:0:0:0:
167,257,26227,6,0,P|175:181|210:124,1,120
368,222,26772,1,0,0:0:0:0:
416,88,26954,1,0,0:0:0:0:
368,222,27136,1,0,0:0:0:0:
368,222,27318,2,0,B|312:192|312:192|308:112|244:112,1,180
246,112,28045,1,0,0:0:0:0:
364,244,28227,1,0,0:0:0:0:
264,180,28409,2,0,B|376:116|252:276|368:248,1,180
264,180,29125,5,0,0:0:0:0:
228,172,29318,1,0,0:0:0:0:
196,164,29500,2,0,B|212:80|212:80|224:180,1,180
397,140,30227,5,0,0:0:0:0:
275,273,30409,1,0,0:0:0:0:
296,172,30590,2,0,P|240:128|131:107,1,180
275,273,31318,5,0,0:0:0:0:
205,183,31500,1,0,0:0:0:0:
304,84,31681,2,0,P|233:71|128:104,1,180
416,172,32409,5,0,0:0:0:0:
344,268,32590,1,0,0:0:0:0:
296,172,32772,2,0,P|240:128|131:107,1,180
328,60,33500,5,0,0:0:0:0:
416,172,33681,1,0,0:0:0:0:
296,172,33863,1,0,0:0:0:0:
300,264,34045,5,0,0:0:0:0:
408,228,34227,1,0,0:0:0:0:
296,172,34409,1,0,0:0:0:0:
300,264,34590,5,0,0:0:0:0:
389,189,34772,1,0,0:0:0:0:
288,128,34954,6,0,P|352:160|400:200,1,120
304,264,35500,1,0,0:0:0:0:
200,212,35681,1,0,0:0:0:0:
224,112,35863,1,0,0:0:0:0:
230,112,36045,2,0,P|302:80|278:132,1,180
192,284,36772,5,0,0:0:0:0:
280,220,36954,1,0,0:0:0:0:
192,284,37136,2,0,B|152:212|152:212|208:184|136:136,1,180
424,116,37863,5,0,0:0:0:0:
340,208,38045,1,0,0:0:0:0:
292,140,38227,2,0,L|252:72,2,60
292,140,38772,1,0,0:0:0:0:
366,94,38954,5,0,0:0:0:0:
225,184,39136,1,0,0:0:0:0:
296,144,39318,2,0,L|404:288,1,180
261,251,40045,5,0,0:0:0:0:
180,191,40227,1,0,0:0:0:0:
144,112,40409,2,0,P|176:108|329:114,1,180
228,104,41136,5,0,0:0:0:0:
216,212,41318,1,0,0:0:0:0:
324,224,41500,2,0,B|372:212|372:212|384:152|384:152|456:152,1,180
160,184,42227,5,0,0:0:0:0:
240,68,42409,1,0,0:0:0:0:
296,232,42590,1,0,0:0:0:0:
352,156,42772,1,0,0:0:0:0:
160,184,42954,1,0,0:0:0:0:
124,76,43136,1,0,0:0:0:0:
240,68,43318,1,0,0:0:0:0:
272,152,43500,1,0,0:0:0:0:
197,244,43681,6,0,P|160:178|203:138,1,120
204,228,44227,1,0,0:0:0:0:
352,264,44409,1,0,0:0:0:0:
204,228,44590,1,0,0:0:0:0:
352,264,44772,2,0,B|404:224|404:224|388:136|320:192|368:204,1,180
352,264,45500,5,0,0:0:0:0:
232,196,45681,1,0,0:0:0:0:
308,100,45863,2,0,B|424:88|408:136|408:136|356:84,1,180
264,264,46590,5,0,0:0:0:0:
228,248,46772,1,0,0:0:0:0:
196,232,46954,2,0,P|264:168|360:176,1,180
265,164,47681,5,0,0:0:0:0:
213,204,47863,1,0,0:0:0:0:
192,248,48045,2,0,B|200:264|200:264|216:280|216:280|228:264|228:264|240:284|240:284|256:268|256:268|260:280|260:280|276:272,1,125.999996154785
300,151,48772,5,0,0:0:0:0:
274,134,48954,1,0,0:0:0:0:
252,124,49136,2,0,B|220:116|200:124|200:124|172:152,1,90
220,232,49863,5,0,0:0:0:0:
239,264,50045,1,0,0:0:0:0:
243,280,50227,2,0,P|210:273|234:295,1,90
256,192,50954,12,0,52227,0:0:0:0:
256,188,52409,5,0,0:0:0:0:
272,128,52772,1,0,0:0:0:0:
272,128,52954,2,0,L|272:200,1,67.5000025749208
228,292,53500,2,0,B|224:292|211:279|188:248,1,45.0000017166138
228,292,53863,6,0,P|260:296|288:292,1,45.0000017166138
272,295,54227,1,0,0:0:0:0:
447,353,54409,1,0,0:0:0:0:
464,296,54590,2,0,P|484:324|432:344,1,90.0000034332277
380,320,55136,1,0,0:0:0:0:
316,280,55318,1,0,0:0:0:0:
260,228,55500,1,0,0:0:0:0:
220,164,55681,2,0,P|284:156|296:156,1,67.5000025749208
356,144,56227,5,0,0:0:0:0:
232,248,56409,1,0,0:0:0:0:
152,208,56590,2,0,L|112:160,1,45.0000017166138
280,120,56954,1,0,0:0:0:0:
294,226,57136,5,0,0:0:0:0:
348,168,57318,2,0,P|332:212|280:224,1,90.0000034332277
146,197,57863,2,0,P|193:157|266:117,1,135.000005149842
433,121,58772,2,0,B|390:156|390:156|364:113,1,90.0000034332277
256,114,59500,5,0,0:0:0:0:
369,119,59681,2,0,L|424:118,1,45.0000017166138
307,214,60045,1,0,0:0:0:0:
369,119,60227,1,0,0:0:0:0:
295,47,60409,1,0,0:0:0:0:
273,128,60590,2,0,L|208:128,1,45.0000017166138
307,214,60954,1,0,0:0:0:0:
224,128,61136,1,0,0:0:0:0:
227,133,61590,6,0,P|215:173|235:209,1,67.5000025749208
349,317,62045,1,0,0:0:0:0:
312,336,62227,2,0,P|336:332|352:300,1,45.0000017166138
385,140,62590,1,0,0:0:0:0:
412,176,62772,2,0,P|400:156|368:128,1,45.0000017166138
184,181,63136,1,0,0:0:0:0:
248,224,63318,2,0,P|196:212|185:171,1,90.0000034332277
360,145,63863,1,0,0:0:0:0:
360,235,64045,2,0,L|360:139,1,90.0000034332277
336,80,64590,6,0,L|376:48,2,45.0000017166138
256,64,65136,2,0,B|208:43|196:85|158:91|188:137|198:125|226:132|226:149|257:151|271:190|233:232|191:235|168:238|139:206,1,292.50001115799
156,216,66590,1,0,0:0:0:0:
256,64,66954,1,0,0:0:0:0:
364,224,67136,1,0,0:0:0:0:
156,216,67500,1,0,0:0:0:0:
192,216,68045,5,0,0:0:0:0:
332,224,68227,1,0,0:0:0:0:
268,96,68409,1,0,0:0:0:0:
192,216,68590,1,0,0:0:0:0:
140,68,69045,5,0,0:0:0:0:
328,156,69318,2,0,P|308:160|299:199,1,45.0000017166138
140,68,69681,1,0,0:0:0:0:
328,156,69863,1,0,0:0:0:0:
328,156,70227,1,0,0:0:0:0:
328,156,70409,6,0,P|308:108|304:104,1,45.0000017166138
113,183,70772,1,0,0:0:0:0:
140,108,70954,2,0,P|108:168|124:196,1,90.0000034332277
228,276,71500,1,0,0:0:0:0:
380,188,71681,1,0,0:0:0:0:
376,160,71863,1,0,0:0:0:0:
368,132,72045,2,0,B|344:108|344:108|324:104,1,45.0000017166138
316,112,72590,5,0,0:0:0:0:
176,124,72772,1,0,0:0:0:0:
288,68,72954,1,0,0:0:0:0:
176,124,73136,2,0,L|216:172,1,45.0000017166138
92,112,73681,5,0,0:0:0:0:
240,232,74045,2,0,P|276:232|296:248,1,45.0000017166138
283,235,74590,1,0,0:0:0:0:
228,220,74772,1,0,0:0:0:0:
176,204,74954,1,0,0:0:0:0:
124,200,75136,1,0,0:0:0:0:
96,204,75318,6,0,P|88:160|103:99,1,90.0000034332277
242,185,76227,2,0,L|242:65,1,112.500004291535
160,240,76954,5,0,0:0:0:0:
316,252,77136,1,0,0:0:0:0:
168,312,77318,1,0,0:0:0:0:
320,324,77500,1,0,0:0:0:0:
160,240,77863,5,0,0:0:0:0:
88,128,78045,2,0,B|128:100|128:100|176:100|136:132|136:132|136:132,1,90.0000034332277
115,240,78590,2,0,L|175:240,1,45.0000017166138
160,240,78954,5,0,0:0:0:0:
424,256,79136,2,0,B|376:284|376:284|340:284|376:252|376:252|376:252,1,90.0000034332277
168,244,79681,2,0,L|120:244,1,45.0000017166138
160,96,80409,5,0,0:0:0:0:
316,164,80590,1,0,0:0:0:0:
180,268,80772,1,0,0:0:0:0:
180,268,81500,5,0,0:0:0:0:
316,164,81681,1,0,0:0:0:0:
144,148,81863,1,0,0:0:0:0:
144,148,82590,5,0,0:0:0:0:
220,300,82772,1,0,0:0:0:0:
316,164,82954,1,0,0:0:0:0:
316,164,83681,5,0,0:0:0:0:
340,332,83863,1,0,0:0:0:0:
192,244,84045,1,0,0:0:0:0:
192,244,84772,5,0,0:0:0:0:
144,80,84954,1,0,0:0:0:0:
192,244,85136,1,0,0:0:0:0:
256,192,85227,12,0,87136,0:0:0:0:
84,124,87318,6,0,P|116:80|132:72,1,71.9999978027344
184,156,87863,5,0,0:0:0:0:
320,96,88045,1,0,0:0:0:0:
280,244,88227,1,0,0:0:0:0:
352,312,88409,6,0,P|416:316|424:304,1,71.9999978027344
484,208,88954,5,0,0:0:0:0:
410,82,89136,1,0,0:0:0:0:
328,209,89318,1,0,0:0:0:0:
280,304,89500,6,0,P|240:320|208:312,1,71.9999978027344
154,273,90045,5,0,0:0:0:0:
155,130,90227,1,0,0:0:0:0:
269,204,90409,1,0,0:0:0:0:
386,99,90590,5,0,0:0:0:0:
431,235,90772,1,0,0:0:0:0:
269,204,90954,1,0,0:0:0:0:
143,253,91136,5,0,0:0:0:0:
231,126,91318,1,0,0:0:0:0:
104,105,91500,1,0,0:0:0:0:
88,224,91681,6,0,P|120:256|148:252,1,71.9999978027344
216,204,92227,5,0,0:0:0:0:
220,56,92409,1,0,0:0:0:0:
216,204,92590,1,0,0:0:0:0:
320,172,92772,6,0,P|352:180|372:216,1,71.9999978027344
304,300,93318,5,0,0:0:0:0:
180,208,93500,1,0,0:0:0:0:
248,80,93681,1,0,0:0:0:0:
248,80,93863,6,0,P|292:96|296:128,1,71.9999978027344
272,200,94409,5,0,0:0:0:0:
120,160,94590,1,0,0:0:0:0:
136,304,94772,1,0,0:0:0:0:
272,200,94954,2,0,L|284:160,1,35.9999989013672
136,304,95318,1,0,0:0:0:0:
138,169,95500,1,0,0:0:0:0:
272,76,95681,1,0,0:0:0:0:
160,183,95863,1,0,0:0:0:0:
228,311,96045,6,0,P|260:275|252:239,1,71.9999978027344
272,76,96590,5,0,0:0:0:0:
128,160,96772,1,0,0:0:0:0:
336,256,96954,1,0,0:0:0:0:
228,311,97136,6,0,P|240:271|276:248,1,71.9999978027344
156,160,97681,5,0,0:0:0:0:
264,60,97863,1,0,0:0:0:0:
264,256,98045,1,0,0:0:0:0:
264,50,98227,6,0,P|303:42|345:59,1,71.9999978027344
401,225,98772,6,0,L|401:174,1,35.9999989013672
264,50,99136,1,0,0:0:0:0:
401,186,99318,2,0,L|402:230,1,35.9999989013672
263,186,99681,1,0,0:0:0:0:
243,218,99863,2,0,L|266:179,1,35.9999989013672
264,50,100227,1,0,0:0:0:0:
176,100,100409,6,0,B|92:200|100:216|100:216|128:188,1,180
216,288,101136,1,0,0:0:0:0:
296,154,101318,1,0,0:0:0:0:
372,288,101500,2,0,P|267:253|215:289,1,180
109,128,102227,1,0,0:0:0:0:
216,284,102409,1,0,0:0:0:0:
109,128,102590,2,0,B|158:101|158:101|195:109|195:109|222:86|222:86|266:97,1,150
261,96,103318,5,0,0:0:0:0:
109,128,103500,1,0,0:0:0:0:
252,180,103681,1,0,0:0:0:0:
98,300,103863,1,0,0:0:0:0:
105,158,104045,1,0,0:0:0:0:
216,264,104227,6,0,P|228:184|248:280,1,240
105,158,104772,6,0,P|137:130|169:118,1,71.9999978027344
263,282,105318,5,0,0:0:0:0:
372,152,105500,1,0,0:0:0:0:
161,122,105681,1,0,0:0:0:0:
263,282,105863,6,0,P|267:238|299:222,1,71.9999978027344
156,124,106409,5,0,0:0:0:0:
287,223,106590,1,0,0:0:0:0:
156,124,106772,1,0,0:0:0:0:
339,107,106954,6,0,P|365:135|365:175,1,71.9999978027344
358,309,107500,5,0,0:0:0:0:
193,235,107681,1,0,0:0:0:0:
358,169,107863,1,0,0:0:0:0:
358,279,108045,5,0,0:0:0:0:
358,125,108227,1,0,0:0:0:0:
193,192,108409,1,0,0:0:0:0:
358,95,108590,5,0,0:0:0:0:
193,166,108772,1,0,0:0:0:0:
358,254,108954,1,0,0:0:0:0:
80,120,109136,6,0,P|120:92|156:96,1,71.9999978027344
240,44,109681,5,0,0:0:0:0:
168,184,109863,1,0,0:0:0:0:
344,136,110045,1,0,0:0:0:0:
180,244,110227,6,0,P|156:212|180:176,1,71.9999978027344
344,136,110772,5,0,0:0:0:0:
167,183,110954,1,0,0:0:0:0:
324,260,111136,1,0,0:0:0:0:
167,183,111318,6,0,P|163:211|188:252,1,71.9999978027344
319,313,111863,5,0,0:0:0:0:
312,152,112044,1,0,0:0:0:0:
183,248,112226,1,0,0:0:0:0:
312,152,112409,5,0,0:0:0:0:
438,233,112590,1,0,0:0:0:0:
319,313,112772,1,0,0:0:0:0:
183,248,112953,5,0,0:0:0:0:
312,152,113135,1,0,0:0:0:0:
319,313,113317,1,0,0:0:0:0:
312,152,113500,6,0,P|345:163|372:187,1,71.9999978027344
196,224,114045,5,0,0:0:0:0:
312,152,114227,1,0,0:0:0:0:
196,224,114409,1,0,0:0:0:0:
96,272,114590,6,0,P|104:308|144:324,1,71.9999978027344
196,224,115136,5,0,0:0:0:0:
108,128,115318,1,0,0:0:0:0:
96,272,115500,1,0,0:0:0:0:
196,224,115681,6,0,P|228:204|268:200,1,71.9999978027344
96,272,116227,5,0,0:0:0:0:
108,128,116409,1,0,0:0:0:0:
196,224,116590,1,0,0:0:0:0:
304,116,116772,5,0,0:0:0:0:
408,208,116954,1,0,0:0:0:0:
320,300,117136,1,0,0:0:0:0:
304,116,117318,5,0,0:0:0:0:
261,199,117500,1,0,0:0:0:0:
248,296,117681,1,0,0:0:0:0:
248,296,117863,2,0,B|199:227|199:227|235:115,1,180
248,296,118590,1,0,0:0:0:0:
360,268,118772,1,0,0:0:0:0:
440,212,118954,2,0,B|464:152|464:152|412:124|400:56,1,180
360,232,119681,1,0,0:0:0:0:
224,200,119863,1,0,0:0:0:0:
327,117,120045,2,0,P|352:177|362:248,1,120
267,101,120772,5,0,0:0:0:0:
146,146,120954,1,0,0:0:0:0:
267,101,121136,1,0,0:0:0:0:
361,154,121318,1,0,0:0:0:0:
240,214,121500,1,0,0:0:0:0:
240,214,121681,1,0,0:0:0:0:
131,271,121863,1,0,0:0:0:0:
248,331,122045,1,0,0:0:0:0:
146,146,122227,6,0,P|174:114|210:106,1,71.9999978027344
333,63,122772,5,0,0:0:0:0:
201,105,122954,1,0,0:0:0:0:
337,177,123136,1,0,0:0:0:0:
209,250,123318,1,0,0:0:0:0:
363,205,123500,1,0,0:0:0:0:
206,109,123681,1,0,0:0:0:0:
375,118,123863,2,0,L|342:138,1,35.9999989013672
214,253,124227,1,0,0:0:0:0:
340,200,124409,6,0,P|356:156|332:128,1,71.9999978027344
272,64,124954,1,0,0:0:0:0:
344,136,125136,2,0,P|392:168|408:216,1,90.0000034332277
44,104,125500,2,0,L|88:156,1,35.9999989013672
272,64,125681,2,0,L|252:128,1,35.9999989013672
192,212,125863,2,0,B|188:212|195:215|216:256,1,35.9999989013672
384,200,126045,1,0,0:0:0:0:
192,212,126227,2,0,P|224:268|260:288,1,90.0000034332277
384,200,126590,6,0,B|376:176|376:144|376:144|352:128,1,71.9999978027344
289,145,127136,5,0,0:0:0:0:
232,272,127318,1,0,0:0:0:0:
289,145,127499,1,0,0:0:0:0:
232,272,127681,5,0,0:0:0:0:
175,141,127863,1,0,0:0:0:0:
226,270,128045,1,0,0:0:0:0:
86,226,128226,5,0,0:0:0:0:
232,272,128408,1,0,0:0:0:0:
86,226,128590,1,0,0:0:0:0:
232,272,128772,6,0,P|216:220|216:192,1,71.9999978027344
328,152,129318,2,0,P|352:120|360:120,4,30
280,312,129863,1,0,0:0:0:0:
204,184,130045,1,0,0:0:0:0:
280,312,130226,1,0,0:0:0:0:
368,224,130409,6,0,B|288:160|288:160|388:140|388:140|284:32|284:32,1,324.000001235962
86,253,130954,6,0,P|70:209|90:177,1,71.9999978027344
220,216,131500,5,0,0:0:0:0:
79,187,131681,1,0,0:0:0:0:
217,96,131863,1,0,0:0:0:0:
220,216,132045,1,0,0:0:0:0:
372,140,132227,1,0,0:0:0:0:
340,292,132409,1,0,0:0:0:0:
220,216,132590,1,0,0:0:0:0:
217,96,132772,1,0,0:0:0:0:
359,157,132954,1,0,0:0:0:0:
220,216,133136,6,0,P|180:224|144:240,1,71.9999978027344
290,121,133680,5,0,0:0:0:0:
208,88,133863,2,0,P|136:112|120:140,1,90.0000034332277
176,256,134227,2,0,L|204:196,1,35.9999989013672
376,248,134409,2,0,L|344:192,1,35.9999989013672
436,64,134590,2,0,L|376:92,1,35.9999989013672
290,121,134772,1,0,0:0:0:0:
176,256,134954,2,0,L|132:132,2,71.9999978027344
328,272,135318,6,0,B|372:192|304:184|304:184|288:112,1,180
290,121,136045,1,0,0:0:0:0:
184,248,136227,1,0,0:0:0:0:
264,184,136409,6,0,B|296:128|296:128|244:92|244:92|260:20,1,180
264,184,137136,1,0,0:0:0:0:
184,248,137318,1,0,0:0:0:0:
316,168,137500,6,0,B|312:96|280:112|280:112|211:215,1,180
324,80,138227,5,0,0:0:0:0:
180,36,138409,1,0,0:0:0:0:
140,156,138590,5,0,0:0:0:0:
296,112,138772,1,0,0:0:0:0:
328,244,138954,5,0,0:0:0:0:
164,188,139136,1,0,0:0:0:0:
152,344,139318,5,0,0:0:0:0:
312,276,139500,1,0,0:0:0:0:
94,197,139681,6,0,P|142:197|174:181,1,71.9999978027344
188,182,140226,5,0,0:0:0:0:
280,320,140409,1,0,0:0:0:0:
398,184,140590,1,0,0:0:0:0:
277,248,140772,5,0,0:0:0:0:
387,121,140954,1,0,0:0:0:0:
200,108,141136,1,0,0:0:0:0:
282,171,141318,5,0,0:0:0:0:
208,33,141500,1,0,0:0:0:0:
384,53,141681,1,0,0:0:0:0:
282,171,141863,6,0,P|314:227|326:231,1,71.9999978027344
152,152,142409,5,0,0:0:0:0:
247,156,142590,2,0,L|120:156,1,90.0000034332277
157,156,142954,2,0,L|212:156,1,35.9999989013672
168,272,143136,2,0,P|176:244|184:216,1,35.9999989013672
376,320,143318,2,0,B|372:320|371:299|364:256,1,35.9999989013672
172,276,143500,1,0,0:0:0:0:
376,320,143681,2,0,P|408:284|408:220,1,90.0000034332277
179,272,144045,6,0,P|143:224|139:204,1,71.9999978027344
91,88,144590,1,0,0:0:0:0:
179,272,144772,1,0,0:0:0:0:
256,84,144954,1,0,0:0:0:0:
340,272,145136,1,0,0:0:0:0:
444,92,145318,1,0,0:0:0:0:
340,272,145500,1,0,0:0:0:0:
256,84,145681,1,0,0:0:0:0:
179,272,145863,1,0,0:0:0:0:
364,188,146045,1,0,0:0:0:0:
424,348,146227,6,0,P|452:312|452:288,1,71.9999978027344
364,188,146772,6,0,P|384:156|388:140,4,30
400,96,147318,1,0,0:0:0:0:
364,92,147500,1,0,0:0:0:0:
324,100,147681,1,0,0:0:0:0:
292,112,147863,2,0,B|280:136|280:136|208:168|208:168|268:240|268:240|220:340,1,283.500001081467
145,119,148409,6,0,P|205:91|221:95,1,71.9999978027344
400,32,148954,5,0,0:0:0:0:
207,91,149136,1,0,0:0:0:0:
392,164,149318,1,0,0:0:0:0:
207,91,149500,5,0,0:0:0:0:
392,164,149681,1,0,0:0:0:0:
216,220,149863,1,0,0:0:0:0:
388,272,150045,5,0,0:0:0:0:
216,220,150227,1,0,0:0:0:0:
388,272,150409,1,0,0:0:0:0:
212,324,150590,6,0,P|200:287|216:247,1,71.9999978027344
208,92,151136,5,0,0:0:0:0:
340,108,151318,2,0,P|384:140|424:196,1,90.0000034332277
160,164,151681,2,0,L|208:164,1,35.9999989013672
312,312,151863,2,0,L|248:312,1,35.9999989013672
371,165,152045,2,0,L|422:167,1,35.9999989013672
272,224,152227,1,0,0:0:0:0:
160,164,152409,2,0,B|157:169|144:148|115:83,2,71.9999978027344
160,164,152772,6,0,P|120:240|130:334,1,180
187,221,153500,1,0,0:0:0:0:
208,92,153681,1,0,0:0:0:0:
127,331,153863,6,0,P|176:236|200:208,1,125.999996154785
288,160,154590,1,0,0:0:0:0:
208,92,154772,1,0,0:0:0:0:
221,229,154954,6,0,P|181:241|193:217,1,90
256,192,155681,12,0,156954,0:0:0:0:
256,192,157136,5,0,0:0:0:0:
124,84,157499,5,0,0:0:0:0:
260,84,157681,2,0,P|304:84|324:84,1,48
228,280,158045,2,0,L|168:248,1,48
168,124,158408,1,0,0:0:0:0:
360,256,158590,1,0,0:0:0:0:
256,192,158772,1,0,0:0:0:0:
448,132,159317,6,0,P|416:56|396:52,1,96
120,340,160136,6,0,P|80:272|96:248,1,96
256,204,160772,5,0,0:0:0:0:
256,252,160954,2,0,L|256:196,1,48
372,100,161317,1,0,0:0:0:0:
192,144,161499,1,0,0:0:0:0:
372,100,161772,5,0,0:0:0:0:
192,144,162045,2,0,P|164:80|152:68,1,72
112,156,162590,1,0,0:0:0:0:
216,248,162953,1,0,0:0:0:0:
368,192,163408,1,0,0:0:0:0:
256,192,163681,5,0,0:0:0:0:
368,192,164044,5,0,0:0:0:0:
312,100,164226,1,0,0:0:0:0:
200,100,164408,1,0,0:0:0:0:
144,192,164590,1,0,0:0:0:0:
256,192,164772,5,0,0:0:0:0:
368,192,165135,5,0,0:0:0:0:
312,284,165317,1,0,0:0:0:0:
200,284,165499,1,0,0:0:0:0:
144,192,165681,1,0,0:0:0:0:
256,192,165863,5,0,0:0:0:0:
406,148,166226,5,0,0:0:0:0:
332,104,166408,2,0,P|380:112|408:164,1,96
133,268,166954,2,0,P|105:216|125:172,1,96
432,296,167500,1,0,0:0:0:0:
352,168,167863,2,0,P|336:116|328:104,1,48
116,184,168409,1,0,0:0:0:0:
340,284,168590,1,0,0:0:0:0:
298,70,168954,2,0,P|260:88|272:40,1,96
208,100,169499,6,0,L|152:80,1,48
121,226,169954,2,0,P|148:261|198:253,1,96
316,256,170590,5,0,0:0:0:0:
372,177,170772,1,0,0:0:0:0:
196,256,170953,1,0,0:0:0:0:
140,177,171135,1,0,0:0:0:0:
140,177,171317,6,0,L|208:273,1,96
280,272,171863,1,0,0:0:0:0:
368,104,172226,2,0,B|348:104|348:104|348:152|348:152|376:152|376:152|348:152|348:152|348:180,1,144
120,144,172953,5,0,0:0:0:0:
224,264,173136,1,0,0:0:0:0:
339,225,173318,2,0,L|352:172,2,48
188,112,173863,5,0,0:0:0:0:
384,296,174045,2,0,P|356:240|352:196,1,96
164,192,174590,2,0,B|124:136|124:136|164:84|204:124,1,144
148,228,175499,1,0,0:0:0:0:
187,111,175681,1,0,0:0:0:0:
312,104,176226,5,0,0:0:0:0:
200,280,176408,1,0,0:0:0:0:
344,132,176590,1,0,0:0:0:0:
168,252,176772,1,0,0:0:0:0:
164,112,177500,1,0,0:0:0:0:
364,184,177681,1,0,0:0:0:0:
216,248,177863,2,0,L|168:272,2,48
164,112,178409,5,0,0:0:0:0:
312,104,178772,2,0,P|344:80|327:135,1,144
168,252,179499,5,0,0:0:0:0:
344,132,179681,1,0,0:0:0:0:
200,280,179863,1,0,0:0:0:0:
312,104,180045,1,0,0:0:0:0:
224,286,180408,1,0,0:0:0:0:
312,104,180954,6,0,B|236:104|236:104|236:200|236:200|296:200|296:200|236:200|236:200|235:295,1,384
312,104,182590,5,0,0:0:0:0:
232,288,182772,2,0,B|176:280|176:280|200:236,1,90.0000034332277
136,128,183317,5,0,0:0:0:0:
364,135,183681,1,0,0:0:0:0:
192,197,183863,2,0,L|124:112,1,90.0000034332277
186,130,184772,2,0,L|198:74,1,48
366,136,185227,6,0,P|285:66|194:85,1,204
188,128,186227,2,0,L|200:72,2,48
324,256,186953,1,0,0:0:0:0:
324,128,187135,1,0,0:0:0:0:
188,128,187317,1,0,0:0:0:0:
188,256,187499,1,0,0:0:0:0:
232,52,187681,6,0,P|214:104|182:136,1,90.0000034332277
400,280,188226,2,0,P|400:208|388:192,1,96
152,76,189135,1,0,0:0:0:0:
188,256,189317,1,0,0:0:0:0:
300,212,189681,6,0,B|300:76|300:76|352:152|352:152|408:76|408:76|412:220,1,456
128,104,192044,5,0,0:0:0:0:
356,108,192590,2,0,L|356:300,1,180
152,204,193862,5,0,0:0:0:0:
360,88,194044,1,0,0:0:0:0:
256,88,194226,2,0,L|256:268,1,180
152,204,194953,5,0,0:0:0:0:
360,88,195135,1,0,0:0:0:0:
256,204,195317,2,0,L|256:132,2,60
112,96,196044,5,0,0:0:0:0:
292,96,196226,1,0,0:0:0:0:
112,96,196408,2,0,L|296:96,1,180
256,292,197135,5,0,0:0:0:0:
76,292,197317,1,0,0:0:0:0:
256,292,197499,2,0,L|72:292,1,180
96,168,198226,5,0,0:0:0:0:
138,187,198408,1,0,0:0:0:0:
96,168,198590,2,0,P|112:120|120:188,1,180
312,44,199318,2,0,L|372:84,1,60
200,340,199681,2,0,L|132:296,1,60
361,77,200045,2,0,L|416:112,1,60
149,307,200409,2,0,L|80:260,1,60
410,110,200772,5,0,0:0:0:0:
101,273,201862,5,0,0:0:0:0:
101,111,202953,5,0,0:0:0:0:
411,273,204044,5,0,0:0:0:0:
256,192,205135,5,0,0:0:0:0:
101,273,205681,5,0,0:0:0:0:
411,111,206226,5,0,0:0:0:0:
101,111,206772,5,0,0:0:0:0:
348,228,207317,5,0,0:0:0:0:
200,108,207499,1,0,0:0:0:0:
348,228,207681,1,0,0:0:0:0:
212,240,207862,1,0,0:0:0:0:
160,292,208044,1,0,0:0:0:0:
88,284,208226,1,0,0:0:0:0:
348,228,208408,5,0,0:0:0:0:
244,176,208590,1,0,0:0:0:0:
248,140,208681,1,0,0:0:0:0:
244,104,208772,1,0,0:0:0:0:
224,72,208863,1,0,0:0:0:0:
200,44,208954,1,0,0:0:0:0:
120,228,209135,1,0,0:0:0:0:
348,228,209317,1,0,0:0:0:0:
120,228,209500,6,0,P|88:176|92:160,1,71.9999978027344
320,104,210045,5,0,0:0:0:0:
280,344,210227,6,0,B|261:302|261:302|220:297|220:297|214:230,1,105.000001001358
352,100,210590,1,0,0:0:0:0:
84,176,210772,2,0,B|93:217|93:217|133:230|133:230|125:298,1,105.000001001358
84,176,211136,1,0,0:0:0:0:
392,124,211318,2,0,B|356:96|356:96|317:112|317:112|281:54,1,105.000001001358
224,276,211681,6,0,P|265:269|277:241,1,71.9999978027344
336,96,212227,5,0,0:0:0:0:
132,237,212409,6,0,B|164:264|164:264|202:252|202:252|233:309,1,105.000001001358
356,128,212772,1,0,0:0:0:0:
148,140,212954,2,0,B|128:150|128:150|143:188|143:188|117:223,1,105.000001001358
248,208,213318,6,0,L|248:276,1,45.0000017166138
356,128,213500,2,0,L|356:83,1,45.0000017166138
468,208,213681,2,0,L|468:256,1,45.0000017166138
248,208,213863,6,0,P|232:172|200:144,1,71.9999978027344
136,272,214409,5,0,0:0:0:0:
432,292,214590,6,0,B|423:270|423:270|384:279|384:279|354:249,1,105.000001001358
379,81,214954,1,0,0:0:0:0:
108,200,215136,2,0,B|151:200|151:200|172:166|172:166|192:174,1,105.000001001358
294,269,215500,1,0,0:0:0:0:
464,56,215681,2,0,B|443:47|443:47|422:81|422:81|379:81,1,105.000001001358
308,340,216045,6,0,P|304:304|292:264,1,71.9999978027344
108,92,216590,6,0,L|82:66,2,30
404,292,217136,6,0,L|430:318,2,30
351,137,217681,2,0,B|289:51|289:51|169:135|169:135|45:63,1,324.000001235962
92,140,218227,6,0,P|116:168|152:168,1,71.9999978027344
288,196,218772,5,0,0:0:0:0:
236,92,218954,6,0,L|292:92,1,52.500000500679
360,276,219136,2,0,L|412:276,1,52.500000500679
416,144,219318,1,0,0:0:0:0:
288,196,219500,2,0,L|236:196,1,52.500000500679
412,276,219681,2,0,L|465:276,1,52.500000500679
236,196,219863,1,0,0:0:0:0:
416,144,220045,2,0,L|352:144,1,52.500000500679
192,328,220227,2,0,L|244:328,1,52.500000500679
236,196,220409,6,0,P|188:152|188:140,1,71.9999978027344
372,188,220954,5,0,0:0:0:0:
156,136,221136,2,0,L|212:176,1,52.500000500679
414,218,221318,2,0,L|372:188,1,52.500000500679
200,164,221500,1,0,0:0:0:0:
328,240,221681,2,0,L|297:282,1,52.500000500679
244,112,221863,2,0,L|284:56,1,52.500000500679
204,260,222045,6,0,L|204:165,2,90.0000034332277
304,232,222590,6,0,P|364:216|373:183,1,89.9999972534181
256,128,223136,1,0,0:0:0:0:
152,80,223318,2,0,L|96:80,1,52.500000500679
239,280,223500,2,0,L|299:280,1,52.500000500679
256,128,223681,1,0,0:0:0:0:
408,100,223863,6,0,B|370:118|370:118|365:157|365:157|301:162,1,105.000001001358
256,128,224227,1,0,0:0:0:0:
292,280,224409,2,0,B|322:308|322:308|361:298|361:298|389:357,1,105.000001001358
152,216,224772,2,0,B|147:168|172:128|172:128|223:144|260:124,1,180
76,88,225500,5,0,0:0:0:0:
224,68,225681,1,0,0:0:0:0:
360,124,225863,1,0,0:0:0:0:
156,156,226045,1,0,0:0:0:0:
290,264,226227,1,0,0:0:0:0:
216,264,226409,6,0,P|228:184|248:280,1,240
72,96,226954,6,0,P|120:80|152:88,1,71.9999978027344
100,269,227500,6,0,B|155:303|155:303|171:298|165:282|150:257,1,105.000001001358
272,56,228045,6,0,B|208:54|208:54|197:68|210:78|236:92,1,105.000001001358
416,270,228590,6,0,B|428:281|438:294|425:304|425:304|363:288,1,105.000001001358
400,208,229136,6,0,P|392:176|368:144,1,71.9999978027344
180,252,229681,5,0,0:0:0:0:
424,88,229863,6,0,B|413:66|413:66|374:76|374:76|344:48,1,105.000001001358
160,264,230227,1,0,0:0:0:0:
392,292,230409,2,0,B|412:280|412:280|400:242|400:242|427:210,1,105.000001001358
160,264,230772,6,0,L|160:216,1,45.0000017166138
296,120,230954,2,0,L|295:72,1,45.0000017166138
392,292,231136,2,0,L|392:240,1,45.0000017166138
160,219,231318,6,0,P|188:179|216:163,1,71.9999978027344
392,292,231863,6,0,B|405:285|422:281|426:297|426:297|376:360,1,120
116,112,232409,6,0,B|102:118|85:122|81:106|81:106|128:44,1,120
268,272,232954,6,0,B|254:280|242:292|253:304|253:304|336:292,1,120
432,224,233500,6,0,P|440:184|424:156,1,71.9999978027344
404,92,234045,6,0,L|430:66,2,30
108,292,234590,6,0,L|82:318,2,30
161,137,235136,6,0,B|223:51|223:51|343:135|343:135|467:63,1,324.000001235962
161,137,235681,6,0,P|120:148|112:184,1,71.9999978027344
344,131,236227,5,0,0:0:0:0:
159,137,236409,2,0,L|158:83,2,52.500000500679
146,264,236772,1,0,0:0:0:0:
186,283,236863,1,0,0:0:0:0:
226,290,236954,1,0,0:0:0:0:
265,288,237045,1,0,0:0:0:0:
288,284,237136,2,0,L|253:229,1,52.500000500679
148,128,237318,6,0,L|208:128,1,52.500000500679
288,284,237500,2,0,L|348:284,1,52.500000500679
400,116,237681,2,0,L|472:116,1,52.500000500679
210,99,237863,6,0,P|170:107|142:135,1,71.9999978027344
320,288,238409,6,0,B|310:300|303:316|318:323|318:323|375:292,1,105.000001001358
210,99,238954,6,0,B|153:70|153:70|150:54|167:50|183:51,1,105.000001001358
144,224,239500,5,0,0:0:0:0:
135,94,239681,1,0,0:0:0:0:
268,160,239863,1,0,0:0:0:0:
144,224,240045,2,0,P|88:148|156:92,1,180
264,96,240772,1,0,0:0:0:0:
261,264,240954,1,0,0:0:0:0:
167,129,241136,6,0,P|231:177|343:153,1,180
348,88,241863,1,0,0:0:0:0:
224,52,242045,1,0,0:0:0:0:
128,64,242227,6,0,B|88:108|88:108|100:160|176:136|176:136|192:168,1,180
144,280,242954,1,0,0:0:0:0:
290,264,243136,1,0,0:0:0:0:
182,148,243318,1,0,0:0:0:0:
332,96,243500,1,0,0:0:0:0:
290,264,243681,1,0,0:0:0:0:
216,264,243863,6,0,P|228:184|248:280,1,240
68,140,244409,6,0,P|95:116|139:104,1,71.9999978027344
114,233,244954,5,0,0:0:0:0:
129,105,245136,1,0,0:0:0:0:
212,317,245318,1,0,0:0:0:0:
114,233,245500,5,0,0:0:0:0:
339,286,245681,1,0,0:0:0:0:
212,317,245863,1,0,0:0:0:0:
387,166,246045,5,0,0:0:0:0:
339,286,246227,1,0,0:0:0:0:
314,57,246409,1,0,0:0:0:0:
387,166,246590,6,0,P|390:199|374:239,1,71.9999978027344
256,320,247136,1,0,0:0:0:0:
110,235,247318,2,0,P|130:195|208:168,1,90.0000034332277
256,320,247681,2,0,L|256:273,1,35.9999989013672
167,170,247863,2,0,P|140:180|116:204,1,35.9999989013672
320,102,248045,2,0,L|356:102,1,35.9999989013672
168,168,248227,1,0,0:0:0:0:
256,320,248409,2,0,P|328:316|372:300,1,90.0000034332277
420,132,248772,6,0,P|390:110|354:102,1,71.9999978027344
288,224,249318,5,0,0:0:0:0:
176,92,249500,1,0,0:0:0:0:
415,92,249682,1,0,0:0:0:0:
168,200,249863,5,0,0:0:0:0:
308,64,250045,1,0,0:0:0:0:
396,208,250227,1,0,0:0:0:0:
176,92,250409,5,0,0:0:0:0:
415,92,250590,1,0,0:0:0:0:
291,257,250772,1,0,0:0:0:0:
356,64,250954,6,0,P|416:92|420:104,1,71.9999978027344
136,232,251500,2,0,L|124:192,4,30
176,92,252045,1,0,0:0:0:0:
415,92,252227,1,0,0:0:0:0:
291,257,252409,1,0,0:0:0:0:
176,92,252590,2,0,B|136:148|168:180|168:180|136:236|136:236|216:292|332:244,1,324.000001235962
415,92,253136,2,0,P|368:52|348:48,1,71.9999978027344
176,92,253681,5,0,0:0:0:0:
224,252,253863,1,0,0:0:0:0:
340,168,254045,1,0,0:0:0:0:
176,92,254227,5,0,0:0:0:0:
224,252,254409,1,0,0:0:0:0:
80,256,254591,1,0,0:0:0:0:
224,252,254772,5,0,0:0:0:0:
176,92,254954,1,0,0:0:0:0:
300,132,255136,1,0,0:0:0:0:
224,252,255318,6,0,P|280:272|296:268,1,71.9999978027344
300,132,255863,5,0,0:0:0:0:
108,72,256045,2,0,P|84:108|92:172,1,90.0000034332277
300,168,256409,6,0,L|300:132,1,35.9999989013672
119,153,256590,2,0,L|83:153,1,35.9999989013672
204,268,256772,2,0,L|204:304,1,35.9999989013672
300,168,256954,1,0,0:0:0:0:
108,72,257136,2,0,P|84:108|92:184,2,71.9999978027344
300,168,257500,6,0,B|304:116|332:72|380:80|420:152|388:188,1,180
204,268,258227,1,0,0:0:0:0:
144,144,258409,1,0,0:0:0:0:
260,104,258590,2,0,B|244:188|244:188|192:232|204:268,1,180
260,104,259318,1,0,0:0:0:0:
400,172,259500,1,0,0:0:0:0:
203,267,259681,2,0,B|171:235|83:287|115:203|119:155|167:139,1,180
260,104,260409,5,0,0:0:0:0:
203,267,260590,1,0,0:0:0:0:
380,220,260772,1,0,0:0:0:0:
148,148,260954,5,0,0:0:0:0:
292,264,261136,1,0,0:0:0:0:
360,104,261318,1,0,0:0:0:0:
148,148,261500,5,0,0:0:0:0:
360,104,261681,1,0,0:0:0:0:
292,264,261863,6,0,P|248:260|224:248,1,71.9999978027344
156,64,262409,5,0,0:0:0:0:
190,166,262590,1,0,0:0:0:0:
360,62,262772,1,0,0:0:0:0:
259,251,262954,5,0,0:0:0:0:
262,46,263135,1,0,0:0:0:0:
327,165,263317,1,0,0:0:0:0:
360,62,263500,5,0,0:0:0:0:
156,64,263681,1,0,0:0:0:0:
259,251,263863,1,0,0:0:0:0:
190,166,264045,6,0,P|216:151|260:143,1,71.9999978027344
176,252,264590,5,0,0:0:0:0:
190,91,264772,2,0,P|242:115|259:169,1,90.0000034332277
176,252,265136,2,0,L|212:252,1,35.9999989013672
292,142,265318,2,0,L|256:142,1,35.9999989013672
120,64,265500,2,0,L|164:64,1,35.9999989013672
176,252,265681,1,0,0:0:0:0:
292,144,265863,2,0,P|348:68|372:48,1,90.0000034332277
408,284,266227,6,0,P|392:296|328:304,1,71.9999978027344
176,260,266772,5,0,0:0:0:0:
336,124,266954,1,0,0:0:0:0:
151,205,267136,1,0,0:0:0:0:
360,178,267318,1,0,0:0:0:0:
161,146,267500,1,0,0:0:0:0:
350,237,267681,1,0,0:0:0:0:
201,102,267863,1,0,0:0:0:0:
310,281,268045,1,0,0:0:0:0:
258,87,268227,1,0,0:0:0:0:
350,237,268409,6,0,P|376:236|404:200,1,71.9999978027344
258,87,268954,6,0,L|292:88,4,17.9999994506836
404,200,269500,1,0,0:0:0:0:
172,264,269681,1,0,0:0:0:0:
272,96,269863,1,0,0:0:0:0:
280,240,270045,6,0,B|244:260|228:268|192:272|176:268|160:276|112:272|84:252|100:208|84:192|88:168|108:148|128:120|184:124,1,324.000001235962
168,196,270590,6,0,P|220:192|244:176,1,71.9999978027344
149,128,271136,5,0,0:0:0:0:
176,272,271318,1,0,0:0:0:0:
293,101,271500,1,0,0:0:0:0:
176,272,271681,5,0,0:0:0:0:
320,245,271863,1,0,0:0:0:0:
149,128,272045,1,0,0:0:0:0:
320,245,272227,5,0,0:0:0:0:
293,101,272409,1,0,0:0:0:0:
176,272,272590,1,0,0:0:0:0:
320,245,272772,6,0,P|368:228|380:200,1,71.9999978027344
176,272,273318,1,0,0:0:0:0:
128,148,273500,2,0,P|180:112|248:100,1,90.0000034332277
408,232,273863,2,0,L|374:209,1,35.9999989013672
188,72,274045,2,0,L|204:103,1,35.9999989013672
193,303,274227,2,0,L|176:271,1,35.9999989013672
128,148,274409,1,0,0:0:0:0:
108,292,274590,2,0,P|190:260|210:244,2,71.9999978027344
296,284,274954,6,0,P|364:244|400:140,1,180
216,144,275681,1,0,0:0:0:0:
204,320,275863,1,0,0:0:0:0:
296,284,276045,6,0,B|332:276|348:260|368:244|380:232|384:216|396:192,1,125.999996154785
256,164,276772,1,0,0:0:0:0:
240,296,276954,1,0,0:0:0:0:
296,284,277136,6,0,B|312:276|328:276|336:268|352:260|360:248|372:236,1,90
256,192,277863,12,0,279318,0:0:0:0:
