osu file format v14

[General]
AudioFilename: audio.mp3
AudioLeadIn: 0
PreviewTime: -1
Countdown: 1
SampleSet: Normal
StackLeniency: 1
Mode: 0
LetterboxInBreaks: 0
WidescreenStoryboard: 0

[Editor]
DistanceSpacing: 2
BeatDivisor: 3
GridSize: 4
TimelineZoom: 1.2

[Metadata]
Title:Holystone
TitleUnicode:Holystone
Artist:Phantom Sage
ArtistUnicode:Phantom Sage
Creator:Bacwux
Version:Holy
Source:
Tags:
BeatmapID:1025902
BeatmapSetID:480570

[Difficulty]
HPDrainRate:7
CircleSize:4.6
OverallDifficulty:9
ApproachRate:9
SliderMultiplier:1.7
SliderTickRate:1

[Events]
//Background and Video events
0,0,"holystone.jpg",0,0
//Break Periods
2,52661,69316
2,76661,78043
2,157388,174043
2,181388,182770
2,279570,296225
2,331934,333316
2,334116,335498
2,336298,337679
2,338479,339861
//Storyboard Layer 0 (Background)
//Storyboard Layer 1 (Fail)
//Storyboard Layer 2 (Pass)
//Storyboard Layer 3 (Foreground)
//Storyboard Sound Samples

[TimingPoints]
98,545.454545454546,4,1,0,100,1,0
87370,-100,4,1,0,100,0,1
113552,-100,4,1,0,100,0,0
209552,-100,4,1,0,100,0,1
240098,-100,4,1,0,100,0,0

[Colours]
Combo1 : 128,64,0
Combo2 : 255,255,0
Combo3 : 255,128,64

[HitObjects]
84,76,98,6,0,P|116:136|132:144,1,56.6666666666667
132,104,461,2,0,P|164:164|180:172,1,56.6666666666667
180,136,825,2,0,P|212:196|228:204,1,56.6666666666667
428,308,1188,2,0,P|396:248|380:240,1,56.6666666666667
380,280,1551,2,0,P|348:220|332:212,1,56.6666666666667
332,248,1915,2,0,P|300:188|284:180,1,56.6666666666667
248,216,2279,2,0,P|256:156|356:148,1,170
300,88,3007,2,0,L|252:48,1,56.6666666666667
188,44,3370,5,0,0:0:0:0:
120,52,3552,2,0,B|104:96|104:96|124:112|124:112|112:156,1,113.333333333333
160,136,4098,2,0,L|164:200,1,56.6666666666667
104,228,4461,2,0,P|164:260|232:188,1,170
252,124,5188,1,0,0:0:0:0:
308,64,5370,1,0,0:0:0:0:
396,108,5552,2,0,B|368:160|368:160|372:192|372:192|340:272,1,170
332,184,6279,2,0,L|304:248,1,56.6666666666667
248,280,6643,5,0,0:0:0:0:
196,308,6825,1,0,0:0:0:0:
136,304,7007,1,0,0:0:0:0:
92,264,7188,1,0,0:0:0:0:
80,204,7370,1,0,0:0:0:0:
104,148,7552,1,0,0:0:0:0:
104,236,7734,5,0,0:0:0:0:
80,180,7916,1,0,0:0:0:0:
92,120,8098,1,0,0:0:0:0:
136,80,8279,1,0,0:0:0:0:
196,76,8461,1,0,0:0:0:0:
248,104,8643,1,0,0:0:0:0:
252,180,8825,6,0,P|308:160|320:96,1,113.333333333333
328,32,9370,2,0,P|380:48|399:99,1,113.333333333333
388,172,9916,2,0,B|388:220|388:220|364:248|364:248|364:336,1,170
324,284,10643,1,0,0:0:0:0:
272,240,10825,1,0,0:0:0:0:
208,268,11007,2,0,P|208:208|316:184,1,170
256,128,11734,2,0,L|276:72,1,56.6666666666667
244,28,12098,2,0,B|192:48|192:48|172:16|108:12|84:40|72:88,1,170
140,92,12825,5,0,0:0:0:0:
128,160,13007,1,0,0:0:0:0:
80,208,13188,2,0,B|136:248|136:248|176:220|176:220|256:272,1,170
192,184,13916,2,0,L|248:224,1,56.6666666666667
328,276,14279,2,0,B|364:220|364:220|328:176|328:176|312:92,1,170
368,160,15007,2,0,L|356:96,1,56.6666666666667
304,64,15370,5,0,0:0:0:0:
220,52,15552,1,0,0:0:0:0:
136,68,15734,1,0,0:0:0:0:
76,128,15916,1,0,0:0:0:0:
48,208,16098,1,0,0:0:0:0:
60,292,16279,1,0,0:0:0:0:
116,356,16461,1,0,0:0:0:0:
280,304,16643,1,0,0:0:0:0:
280,304,16734,1,0,0:0:0:0:
280,304,16825,1,0,0:0:0:0:
180,152,17007,6,0,L|188:224,1,56.6666666666667
300,80,17370,1,0,0:0:0:0:
392,256,17552,2,0,L|384:140,1,113.333333333333
248,44,18098,1,0,0:0:0:0:
128,140,18279,1,0,0:0:0:0:
168,296,18461,1,0,0:0:0:0:
324,172,18643,2,0,L|184:192,1,113.333333333333
304,312,19188,5,0,0:0:0:0:
404,184,19370,1,0,0:0:0:0:
320,40,19552,1,0,0:0:0:0:
164,88,19734,2,0,L|216:192,1,113.333333333333
96,244,20279,1,0,0:0:0:0:
328,232,20461,1,0,0:0:0:0:
92,212,20643,1,0,0:0:0:0:
308,288,20825,2,0,L|280:164,1,113.333333333333
336,40,21370,6,0,L|216:88,1,113.333333333333
200,276,21916,2,0,L|80:232,1,113.333333333333
100,112,22461,1,0,0:0:0:0:
168,320,22643,1,0,0:0:0:0:
240,124,22825,1,0,0:0:0:0:
200,356,23007,2,0,L|216:240,1,113.333333333333
356,252,23552,5,0,0:0:0:0:
248,120,23734,1,0,0:0:0:0:
396,52,23916,1,0,0:0:0:0:
280,152,24098,2,0,L|156:172,1,113.333333333333
84,124,24643,1,0,0:0:0:0:
220,44,24825,1,0,0:0:0:0:
120,252,25007,1,0,0:0:0:0:
240,64,25188,1,0,0:0:0:0:
180,324,25370,1,0,0:0:0:0:
276,80,25552,1,0,0:0:0:0:
284,356,25734,5,0,0:0:0:0:
312,80,25916,1,0,0:0:0:0:
400,364,26098,1,0,0:0:0:0:
352,56,26279,2,0,L|312:176,1,113.333333333333
376,124,26825,1,0,0:0:0:0:
256,240,27007,1,0,0:0:0:0:
116,208,27188,1,0,0:0:0:0:
196,40,27370,2,0,L|160:184,1,113.333333333333
96,280,27916,5,0,0:0:0:0:
296,276,28098,1,0,0:0:0:0:
184,332,28279,1,0,0:0:0:0:
276,188,28461,2,0,L|300:48,1,113.333333333333
400,176,29007,2,0,L|436:184,1,28.3333333333333
224,172,29188,2,0,L|188:168,1,28.3333333333333
384,224,29370,2,0,L|424:236,1,28.3333333333333
240,112,29552,2,0,L|256:236,1,113.333333333333
324,328,30098,5,0,0:0:0:0:
192,304,30279,1,0,0:0:0:0:
136,160,30461,1,0,0:0:0:0:
368,356,30643,2,0,L|344:244,1,113.333333333333
400,136,31188,1,0,0:0:0:0:
208,88,31370,1,0,0:0:0:0:
284,76,31552,1,0,0:0:0:0:
188,252,31734,2,0,L|172:124,1,113.333333333333
128,208,32279,5,0,0:0:0:0:
268,164,32461,1,0,0:0:0:0:
408,168,32643,1,0,0:0:0:0:
232,216,32825,2,0,L|232:96,1,113.333333333333
280,200,33370,5,0,0:0:0:0:
232,184,33552,1,0,0:0:0:0:
304,236,33734,1,0,0:0:0:0:
208,148,33916,1,0,0:0:0:0:
312,280,34098,1,0,0:0:0:0:
200,104,34279,1,0,0:0:0:0:
304,324,34461,1,0,0:0:0:0:
208,60,34643,1,0,0:0:0:0:
264,352,34825,1,0,0:0:0:0:
248,32,35007,6,0,L|312:152,1,113.333333333333
392,152,35552,1,0,0:0:0:0:
216,116,35734,1,0,0:0:0:0:
104,220,35916,1,0,0:0:0:0:
256,72,36098,2,0,L|276:192,1,113.333333333333
344,240,36643,1,0,0:0:0:0:
200,328,36825,1,0,0:0:0:0:
88,160,37007,1,0,0:0:0:0:
228,112,37188,2,0,L|224:244,1,113.333333333333
368,232,37734,5,0,0:0:0:0:
304,60,37916,1,0,0:0:0:0:
100,40,38098,1,0,0:0:0:0:
196,144,38279,2,0,B|184:184|184:184|152:204|152:204|140:268,1,113.333333333333
220,336,38825,5,0,0:0:0:0:
416,328,39007,1,0,0:0:0:0:
184,312,39188,1,0,0:0:0:0:
448,360,39370,2,0,L|444:232,1,113.333333333333
360,128,39916,1,0,0:0:0:0:
256,284,40098,1,0,0:0:0:0:
400,112,40279,1,0,0:0:0:0:
256,328,40461,2,0,L|192:216,1,113.333333333333
64,212,41007,5,0,0:0:0:0:
156,108,41188,1,0,0:0:0:0:
296,120,41370,1,0,0:0:0:0:
104,260,41552,2,0,L|80:140,1,113.333333333333
428,124,42098,1,0,0:0:0:0:
292,44,42280,1,0,0:0:0:0:
392,252,42462,1,0,0:0:0:0:
272,64,42643,1,0,0:0:0:0:
332,324,42825,1,0,0:0:0:0:
236,80,43007,1,0,0:0:0:0:
228,356,43189,5,0,0:0:0:0:
200,80,43371,1,0,0:0:0:0:
112,364,43553,1,0,0:0:0:0:
160,56,43734,2,0,L|200:176,1,113.333333333333
272,312,44279,1,0,0:0:0:0:
320,120,44461,1,0,0:0:0:0:
416,292,44643,1,0,0:0:0:0:
292,60,44825,2,0,L|224:168,1,113.333333333333
120,276,45370,1,0,0:0:0:0:
280,244,45552,6,0,L|312:244,1,28.3333333333333
100,224,45734,2,0,L|56:224,1,28.3333333333333
332,296,45916,2,0,L|352:168,1,113.333333333333
480,188,46461,1,0,0:0:0:0:
416,76,46643,1,0,0:0:0:0:
280,44,46825,1,0,0:0:0:0:
152,96,47007,2,0,L|228:216,1,113.333333333333
304,140,47552,1,0,0:0:0:0:
300,320,47734,1,0,0:0:0:0:
120,144,47916,1,0,0:0:0:0:
136,300,48098,6,0,L|308:248,1,170
384,260,48825,1,0,0:0:0:0:
440,196,49007,1,0,0:0:0:0:
412,120,49188,2,0,B|344:116|344:116|328:160|328:160|232:152,1,170
304,200,49916,2,0,L|228:192,1,56.6666666666667
256,192,50279,12,0,52461,0:0:0:0:
92,80,69916,5,0,0:0:0:0:
92,80,71007,1,0,0:0:0:0:
92,80,72098,1,0,0:0:0:0:
92,80,73188,1,0,0:0:0:0:
116,168,73916,1,0,0:0:0:0:
120,184,74098,1,0,0:0:0:0:
124,200,74279,1,0,0:0:0:0:
176,268,75007,1,0,0:0:0:0:
192,256,75188,1,0,0:0:0:0:
208,244,75370,6,0,L|248:356,1,113.333333333333
348,328,76098,1,0,0:0:0:0:
360,312,76279,1,0,0:0:0:0:
372,296,76461,1,0,0:0:0:0:
436,228,78643,5,0,0:0:0:0:
436,228,79734,1,0,0:0:0:0:
436,228,80825,1,0,0:0:0:0:
376,112,81552,5,0,0:0:0:0:
348,96,81734,1,0,0:0:0:0:
320,80,81916,2,0,L|324:140,1,56.6666666666667
264,212,82643,1,0,0:0:0:0:
232,204,82825,1,0,0:0:0:0:
200,196,83007,1,0,0:0:0:0:
128,128,83734,5,0,0:0:0:0:
104,172,83916,1,0,0:0:0:0:
80,216,84098,1,0,0:0:0:0:
144,316,84825,1,0,0:0:0:0:
204,336,85007,1,0,0:0:0:0:
264,352,85188,1,0,0:0:0:0:
408,324,86279,5,0,0:0:0:0:
396,148,86461,1,0,0:0:0:0:
396,148,86552,1,0,0:0:0:0:
396,148,86643,1,0,0:0:0:0:
240,272,86825,2,0,L|324:260,1,56.6666666666667
200,136,87188,1,0,0:0:0:0:
220,340,87370,2,0,L|184:216,1,113.333333333333
132,72,87916,5,0,0:0:0:0:
356,88,88098,1,0,0:0:0:0:
128,184,88279,1,0,0:0:0:0:
384,16,88461,2,0,L|416:144,1,113.333333333333
336,216,89007,1,0,0:0:0:0:
260,356,89188,1,0,0:0:0:0:
256,148,89370,1,0,0:0:0:0:
136,344,89552,2,0,L|264:312,1,113.333333333333
412,288,90098,5,0,0:0:0:0:
352,112,90279,1,0,0:0:0:0:
336,340,90461,1,0,0:0:0:0:
452,156,90643,1,0,0:0:0:0:
228,136,90825,1,0,0:0:0:0:
504,232,91007,1,0,0:0:0:0:
256,68,91188,1,0,0:0:0:0:
316,244,91369,1,0,0:0:0:0:
332,16,91551,1,0,0:0:0:0:
240,344,91734,6,0,L|280:200,1,113.333333333333
252,76,92279,1,0,0:0:0:0:
48,188,92461,1,0,0:0:0:0:
320,200,92643,1,0,0:0:0:0:
216,24,92825,2,0,L|224:160,1,113.333333333333
384,64,93370,1,0,0:0:0:0:
368,264,93552,1,0,0:0:0:0:
148,216,93734,1,0,0:0:0:0:
424,292,93916,2,0,L|352:184,1,113.333333333333
360,92,94461,5,0,0:0:0:0:
112,216,94643,1,0,0:0:0:0:
300,284,94825,1,0,0:0:0:0:
160,84,95007,1,0,0:0:0:0:
152,328,95188,1,0,0:0:0:0:
452,216,95370,1,0,0:0:0:0:
292,32,95552,1,0,0:0:0:0:
264,304,95734,1,0,0:0:0:0:
436,64,95916,1,0,0:0:0:0:
256,72,96098,6,0,L|256:200,1,113.333333333333
160,272,96643,1,0,0:0:0:0:
320,316,96825,1,0,0:0:0:0:
396,148,97007,1,0,0:0:0:0:
280,368,97188,2,0,L|308:232,1,113.333333333333
396,148,97734,1,0,0:0:0:0:
108,148,97916,1,0,0:0:0:0:
324,56,98098,1,0,0:0:0:0:
152,252,98279,2,0,L|156:112,1,113.333333333333
328,60,98825,1,0,0:0:0:0:
424,192,99007,5,0,0:0:0:0:
256,192,99188,1,0,0:0:0:0:
328,324,99370,1,0,0:0:0:0:
256,192,99552,1,0,0:0:0:0:
184,324,99734,1,0,0:0:0:0:
256,192,99916,1,0,0:0:0:0:
88,192,100098,1,0,0:0:0:0:
256,192,100279,1,0,0:0:0:0:
184,60,100461,2,0,L|272:220,1,170
228,288,101188,5,0,0:0:0:0:
348,188,101370,1,0,0:0:0:0:
200,344,101552,2,0,B|180:284|180:284|204:232|204:232|190:184,1,170
248,44,102279,1,0,0:0:0:0:
148,216,102461,1,0,0:0:0:0:
304,56,102643,2,0,B|244:92|244:92|308:132|308:132|344:152,1,170
396,88,103370,1,0,0:0:0:0:
288,276,103552,1,0,0:0:0:0:
412,240,103734,1,0,0:0:0:0:
192,188,103916,5,0,0:0:0:0:
364,336,104098,1,0,0:0:0:0:
280,88,104279,1,0,0:0:0:0:
280,88,104825,2,0,L|332:224,1,113.333333333333
436,256,105370,1,0,0:0:0:0:
320,324,105552,1,0,0:0:0:0:
192,248,105734,1,0,0:0:0:0:
488,280,105916,2,0,L|424:168,1,113.333333333333
328,128,106461,5,0,0:0:0:0:
288,304,106643,1,0,0:0:0:0:
320,64,106825,1,0,0:0:0:0:
336,332,107007,2,0,L|184:364,1,113.333333333333
288,304,107552,1,0,0:0:0:0:
132,252,107734,1,0,0:0:0:0:
364,240,107916,1,0,0:0:0:0:
204,296,108098,1,0,0:0:0:0:
244,68,108279,1,0,0:0:0:0:
348,264,108461,5,0,0:0:0:0:
144,172,108643,1,0,0:0:0:0:
368,136,108825,1,0,0:0:0:0:
204,296,109007,1,0,0:0:0:0:
348,264,109188,2,0,L|332:144,1,113.333333333333
388,216,109734,5,0,0:0:0:0:
272,320,109916,1,0,0:0:0:0:
164,184,110098,1,0,0:0:0:0:
288,84,110279,2,0,L|188:168,1,113.333333333333
272,152,110825,1,0,0:0:0:0:
368,312,111007,1,0,0:0:0:0:
468,160,111188,1,0,0:0:0:0:
272,100,111370,2,0,L|212:228,1,113.333333333333
284,156,111916,5,0,0:0:0:0:
324,216,112098,1,0,0:0:0:0:
244,216,112279,1,0,0:0:0:0:
284,116,112461,1,0,0:0:0:0:
352,240,112643,1,0,0:0:0:0:
216,244,112825,1,0,0:0:0:0:
284,72,113007,1,0,0:0:0:0:
384,268,113188,1,0,0:0:0:0:
188,272,113370,1,0,0:0:0:0:
284,188,113552,6,0,L|284:312,1,113.333333333333
388,332,114098,1,0,0:0:0:0:
168,336,114279,1,0,0:0:0:0:
360,184,114461,1,0,0:0:0:0:
204,104,114643,2,0,L|292:208,1,113.333333333333
128,180,115188,1,0,0:0:0:0:
280,56,115370,1,0,0:0:0:0:
428,140,115552,1,0,0:0:0:0:
336,288,115734,6,0,L|360:156,1,113.333333333333
280,64,116279,1,0,0:0:0:0:
172,276,116461,1,0,0:0:0:0:
148,40,116643,1,0,0:0:0:0:
292,228,116825,1,0,0:0:0:0:
60,168,117007,1,0,0:0:0:0:
284,88,117188,1,0,0:0:0:0:
432,272,117370,1,0,0:0:0:0:
192,264,117552,1,0,0:0:0:0:
400,148,117734,1,0,0:0:0:0:
188,164,117916,6,0,B|228:228|228:228|272:260|344:228,1,170
292,172,118643,1,0,0:0:0:0:
316,100,118825,1,0,0:0:0:0:
372,56,119007,2,0,B|400:128|384:180|384:180|412:224,1,170
424,292,119734,1,0,0:0:0:0:
360,336,119916,1,0,0:0:0:0:
292,304,120098,2,0,B|232:272|232:272|184:304|184:304|128:272,1,170
124,200,120825,1,0,0:0:0:0:
148,120,121007,1,0,0:0:0:0:
216,68,121188,5,0,0:0:0:0:
300,56,121370,1,0,0:0:0:0:
376,96,121552,1,0,0:0:0:0:
408,176,121734,1,0,0:0:0:0:
380,256,121916,1,0,0:0:0:0:
320,316,122098,1,0,0:0:0:0:
236,336,122279,2,0,L|172:180,1,113.333333333333
100,244,122825,5,0,0:0:0:0:
312,220,123007,1,0,0:0:0:0:
140,288,123188,2,0,L|156:220,1,56.6666666666667
308,56,123552,2,0,L|295:111,1,56.6666666666667
132,112,123916,1,0,0:0:0:0:
300,304,124098,1,0,0:0:0:0:
228,64,124279,1,0,0:0:0:0:
264,352,124461,2,0,L|272:232,1,113.333333333333
368,144,125007,6,0,L|328:132,1,28.3333333333333
160,136,125188,2,0,L|120:124,1,28.3333333333333
224,316,125370,2,0,L|184:304,1,28.3333333333333
256,116,125552,1,0,0:0:0:0:
256,116,125643,5,0,0:0:0:0:
332,260,125825,2,0,L|359:268,1,28.3333333333333
148,144,126007,2,0,L|175:152,1,28.3333333333333
368,64,126188,2,0,L|395:72,1,28.3333333333333
212,256,126370,1,0,0:0:0:0:
212,256,126461,1,0,0:0:0:0:
224,296,126552,1,0,0:0:0:0:
244,336,126643,6,0,L|300:208,1,113.333333333333
416,272,127188,1,0,0:0:0:0:
340,72,127370,1,0,0:0:0:0:
160,264,127552,1,0,0:0:0:0:
372,320,127734,2,0,L|384:248,1,56.6666666666667
188,120,128098,5,0,0:0:0:0:
440,132,128279,1,0,0:0:0:0:
208,304,128461,1,0,0:0:0:0:
308,28,128643,1,0,0:0:0:0:
472,176,128825,2,0,L|356:144,1,113.333333333333
276,196,129370,6,0,L|248:184,1,28.3333333333333
104,168,129552,1,0,0:0:0:0:
100,136,129643,2,0,L|140:152,1,28.3333333333333
188,276,129916,1,0,0:0:0:0:
216,112,130098,2,0,L|252:128,1,28.3333333333333
412,144,130279,2,0,L|368:124,1,28.3333333333333
320,40,130461,2,0,B|320:80|320:80|308:120|308:120|308:168,1,113.333333333333
376,212,131007,6,0,L|248:284,1,113.333333333333
336,288,131552,2,0,L|252:336,1,56.6666666666667
60,280,131916,2,0,L|109:251,1,56.6666666666667
284,312,132279,1,0,0:0:0:0:
240,136,132461,1,0,0:0:0:0:
172,300,132643,1,0,0:0:0:0:
368,176,132825,2,0,L|336:112,1,56.6666666666667
308,56,133188,6,0,L|284:184,1,113.333333333333
156,88,133734,2,0,L|156:120,1,28.3333333333333
240,312,133916,2,0,L|240:340,1,28.3333333333333
344,104,134098,2,0,L|344:136,1,28.3333333333333
120,224,134279,1,0,0:0:0:0:
120,224,134370,1,0,0:0:0:0:
120,224,134461,1,0,0:0:0:0:
372,248,134643,2,0,L|372:280,1,28.3333333333333
120,224,134825,5,0,0:0:0:0:
352,144,135007,1,0,0:0:0:0:
340,224,135098,1,0,0:0:0:0:
328,304,135188,1,0,0:0:0:0:
308,344,135370,2,0,B|276:292|276:292|288:248|288:248|252:192,1,170
160,224,136098,1,0,0:0:0:0:
176,128,136279,1,0,0:0:0:0:
104,120,136461,6,0,P|136:64|240:92,1,170
176,128,137188,1,0,0:0:0:0:
244,168,137370,1,0,0:0:0:0:
296,112,137552,2,0,L|332:240,1,113.333333333333
392,268,138098,1,0,0:0:0:0:
204,284,138279,1,0,0:0:0:0:
416,300,138461,1,0,0:0:0:0:
168,256,138643,2,0,L|184:324,1,56.6666666666667
320,156,139007,6,0,L|307:100,1,56.6666666666667
160,88,139370,1,0,0:0:0:0:
364,148,139552,1,0,0:0:0:0:
120,32,139734,2,0,L|136:148,1,113.333333333333
120,32,140279,6,0,L|128:92,1,56.6666666666667
48,180,140643,1,0,0:0:0:0:
296,148,140825,1,0,0:0:0:0:
392,352,141007,6,0,L|384:292,1,56.6666666666667
464,204,141371,1,0,0:0:0:0:
216,236,141553,1,0,0:0:0:0:
288,64,141734,1,0,0:0:0:0:
220,280,141916,2,0,L|136:184,1,113.333333333333
184,56,142461,2,0,L|148:56,1,28.3333333333333
356,144,142643,2,0,L|320:144,1,28.3333333333333
244,256,142825,6,0,L|208:256,1,28.3333333333333
272,52,143007,1,0,0:0:0:0:
284,120,143098,1,0,0:0:0:0:
296,188,143188,1,0,0:0:0:0:
308,256,143279,1,0,0:0:0:0:
320,324,143370,2,0,L|272:324,1,28.3333333333333
196,156,143552,2,0,L|148:156,1,28.3333333333333
392,220,143734,2,0,L|344:220,1,28.3333333333333
312,220,143916,1,0,0:0:0:0:
260,220,144007,1,0,0:0:0:0:
228,128,144098,6,0,L|216:248,1,113.333333333333
132,256,144643,1,0,0:0:0:0:
348,320,144825,1,0,0:0:0:0:
248,68,145007,1,0,0:0:0:0:
248,316,145188,1,0,0:0:0:0:
348,64,145370,1,0,0:0:0:0:
132,128,145552,1,0,0:0:0:0:
380,256,145734,1,0,0:0:0:0:
164,320,145916,1,0,0:0:0:0:
264,68,146098,1,0,0:0:0:0:
104,252,146279,6,0,L|136:364,1,113.333333333333
188,152,146825,2,0,L|200:192,1,28.3333333333333
288,232,147007,1,0,0:0:0:0:
312,248,147098,2,0,L|324:288,1,28.3333333333333
424,192,147370,1,0,0:0:0:0:
224,48,147552,2,0,L|196:68,1,28.3333333333333
148,216,147734,2,0,L|184:192,1,28.3333333333333
136,96,147916,2,0,B|168:128|168:128|204:136|204:136|236:164,1,113.333333333333
268,124,148461,6,0,L|248:244,1,113.333333333333
296,220,149007,2,0,L|280:300,1,56.6666666666667
364,352,149370,1,0,0:0:0:0:
136,352,149552,1,0,0:0:0:0:
412,272,149734,1,0,0:0:0:0:
236,88,149916,2,0,L|220:168,1,56.6666666666667
168,272,150279,1,0,0:0:0:0:
356,96,150461,1,0,0:0:0:0:
208,308,150643,6,0,L|164:204,1,113.333333333333
72,84,151188,2,0,L|108:84,1,28.3333333333333
264,164,151370,2,0,L|300:164,1,28.3333333333333
136,292,151552,2,0,L|172:292,1,28.3333333333333
232,60,151734,1,0,0:0:0:0:
232,60,151825,1,0,0:0:0:0:
232,60,151916,1,0,0:0:0:0:
304,80,152098,6,0,L|336:80,1,28.3333333333333
408,188,152370,1,0,0:0:0:0:
408,188,152461,1,0,0:0:0:0:
236,276,152643,2,0,L|268:276,1,28.3333333333333
312,300,152825,6,0,B|288:248|288:248|240:224|240:224|212:152,1,170
168,96,153552,1,0,0:0:0:0:
184,16,153734,1,0,0:0:0:0:
260,40,153916,2,0,B|300:68|300:68|332:76|368:72|396:148|368:176,1,170
304,144,154643,1,0,0:0:0:0:
256,192,154825,1,0,0:0:0:0:
256,192,155007,12,0,157188,0:0:0:0:
168,80,174643,5,0,0:0:0:0:
168,80,175188,1,0,0:0:0:0:
168,80,175734,1,0,0:0:0:0:
168,80,176279,1,0,0:0:0:0:
224,104,176461,1,0,0:0:0:0:
252,156,176643,1,0,0:0:0:0:
244,212,176825,1,0,0:0:0:0:
344,264,177370,1,0,0:0:0:0:
400,244,177552,5,0,0:0:0:0:
436,196,177734,1,0,0:0:0:0:
436,136,177916,1,0,0:0:0:0:
304,128,178461,1,0,0:0:0:0:
248,152,178643,2,0,L|244:212,1,56.6666666666667
188,184,179007,1,0,0:0:0:0:
56,220,179734,5,0,0:0:0:0:
76,280,179916,1,0,0:0:0:0:
96,340,180098,1,0,0:0:0:0:
288,312,180825,1,0,0:0:0:0:
228,308,181007,1,0,0:0:0:0:
168,304,181188,1,0,0:0:0:0:
252,184,183370,5,0,0:0:0:0:
252,184,183916,1,0,0:0:0:0:
252,184,184461,1,0,0:0:0:0:
252,184,185007,1,0,0:0:0:0:
252,184,185552,1,0,0:0:0:0:
344,304,186279,1,0,0:0:0:0:
356,240,186461,1,0,0:0:0:0:
368,176,186643,1,0,0:0:0:0:
172,76,187370,5,0,0:0:0:0:
200,140,187552,1,0,0:0:0:0:
232,204,187734,1,0,0:0:0:0:
88,312,188461,1,0,0:0:0:0:
168,320,188643,1,0,0:0:0:0:
248,328,188825,1,0,0:0:0:0:
408,296,189552,1,0,0:0:0:0:
396,208,189734,1,0,0:0:0:0:
384,120,189916,1,0,0:0:0:0:
276,96,190461,5,0,0:0:0:0:
252,88,190643,1,0,0:0:0:0:
228,88,190825,1,0,0:0:0:0:
192,100,191007,1,0,0:0:0:0:
148,200,191188,1,0,0:0:0:0:
280,192,191370,1,0,0:0:0:0:
56,104,191552,1,0,0:0:0:0:
104,264,192098,2,0,P|148:304|208:296,1,113.333333333333
172,232,192643,2,0,L|256:148,1,113.333333333333
256,84,193188,6,0,P|320:168|272:220,1,170
360,152,193916,2,0,L|432:144,1,56.6666666666667
456,112,194279,2,0,B|456:180|456:180|424:208|424:208|416:276,1,170
376,296,195007,1,0,0:0:0:0:
324,320,195188,1,0,0:0:0:0:
264,320,195370,2,0,L|208:292,1,56.6666666666667
120,192,196461,1,0,0:0:0:0:
124,192,198643,1,0,0:0:0:0:
124,192,200825,5,0,0:0:0:0:
128,192,201916,1,0,0:0:0:0:
128,192,203007,1,0,0:0:0:0:
128,192,204098,1,0,0:0:0:0:
128,192,205188,1,0,0:0:0:0:
128,192,205734,1,0,0:0:0:0:
128,192,206279,1,0,0:0:0:0:
128,192,206825,1,0,0:0:0:0:
128,192,207370,1,0,0:0:0:0:
128,192,207552,5,0,0:0:0:0:
128,192,207734,1,0,0:0:0:0:
128,192,207916,1,0,0:0:0:0:
128,192,208098,1,0,0:0:0:0:
128,192,208279,1,0,0:0:0:0:
128,192,208461,1,0,0:0:0:0:
140,280,208643,5,0,0:0:0:0:
188,288,208734,1,0,0:0:0:0:
236,296,208825,1,0,0:0:0:0:
288,304,208916,1,0,0:0:0:0:
336,312,209007,1,0,0:0:0:0:
228,112,209188,1,0,0:0:0:0:
400,244,209370,1,0,0:0:0:0:
212,360,209552,6,0,L|216:236,1,113.333333333333
300,72,210098,2,0,L|324:112,1,28.3333333333333
104,180,210279,1,0,0:0:0:0:
192,64,210461,1,0,0:0:0:0:
324,244,210643,1,0,0:0:0:0:
132,248,210825,1,0,0:0:0:0:
380,104,211007,1,0,0:0:0:0:
328,336,211188,1,0,0:0:0:0:
64,200,211370,6,0,L|64:108,1,56.6666666666667
88,76,211734,2,0,L|88:200,1,113.333333333333
188,276,212279,2,0,L|156:296,1,28.3333333333333
208,108,212461,1,0,0:0:0:0:
328,256,212643,1,0,0:0:0:0:
96,216,212825,2,0,L|64:236,1,28.3333333333333
368,128,213007,1,0,0:0:0:0:
196,332,213188,1,0,0:0:0:0:
164,60,213370,6,0,B|176:84|176:84|192:88|192:88|204:112,2,56.6666666666667
176,4,213916,2,0,L|236:124,1,113.333333333333
436,72,214461,2,0,L|412:108,1,28.3333333333333
228,216,214643,1,0,0:0:0:0:
416,256,214825,1,0,0:0:0:0:
308,32,215007,1,0,0:0:0:0:
292,324,215188,1,0,0:0:0:0:
452,188,215370,1,0,0:0:0:0:
152,164,215552,1,0,0:0:0:0:
292,324,215734,5,0,0:0:0:0:
64,320,215916,1,0,0:0:0:0:
164,96,216098,2,0,L|192:220,1,113.333333333333
368,200,216643,2,0,L|404:200,1,28.3333333333333
204,136,216825,2,0,L|232:136,1,28.3333333333333
384,300,217007,2,0,L|348:300,1,28.3333333333333
336,68,217188,2,0,L|304:68,1,28.3333333333333
256,276,217370,2,0,L|196:276,1,56.6666666666667
244,236,217734,6,0,B|244:196|244:196|232:168|232:168|232:120,1,113.333333333333
276,160,218279,2,0,L|256:44,1,113.333333333333
64,128,218825,2,0,L|56:76,1,28.3333333333333
240,200,219007,1,0,0:0:0:0:
72,232,219188,1,0,0:0:0:0:
276,204,219370,1,0,0:0:0:0:
40,312,219552,1,0,0:0:0:0:
320,208,219734,1,0,0:0:0:0:
84,376,219916,1,0,0:0:0:0:
172,88,220098,5,0,0:0:0:0:
216,336,220279,1,0,0:0:0:0:
200,28,220461,2,0,L|92:100,1,113.333333333333
304,208,221007,2,0,L|332:184,1,28.3333333333333
276,56,221188,1,0,0:0:0:0:
220,288,221370,1,0,0:0:0:0:
416,232,221552,1,0,0:0:0:0:
128,176,221734,1,0,0:0:0:0:
404,124,221916,1,0,0:0:0:0:
296,328,222098,2,0,L|232:340,2,56.6666666666667
284,364,222643,6,0,L|268:240,1,113.333333333333
312,320,223188,2,0,L|304:276,1,28.3333333333333
124,220,223370,1,0,0:0:0:0:
368,244,223552,1,0,0:0:0:0:
124,220,223734,1,0,0:0:0:0:
368,244,223916,1,0,0:0:0:0:
124,220,224098,1,0,0:0:0:0:
368,244,224279,1,0,0:0:0:0:
124,220,224461,1,0,0:0:0:0:
368,244,224643,1,0,0:0:0:0:
296,64,224825,6,0,B|288:120|288:120|260:152|260:152|248:224,1,170
296,192,225552,1,0,0:0:0:0:
228,96,225734,1,0,0:0:0:0:
328,232,225916,1,0,0:0:0:0:
204,64,226098,1,0,0:0:0:0:
356,268,226279,1,0,0:0:0:0:
180,28,226461,2,0,B|160:80|160:80|184:16,1,113.333333333333
196,72,227007,2,0,L|156:184,1,113.333333333333
144,284,227552,2,0,L|176:296,1,28.3333333333333
328,324,227734,5,0,0:0:0:0:
128,264,228098,1,0,0:0:0:0:
384,240,228279,1,0,0:0:0:0:
116,240,228643,1,0,0:0:0:0:
320,92,228825,1,0,0:0:0:0:
96,200,229188,2,0,L|72:324,1,113.333333333333
216,160,229734,6,0,L|208:200,1,28.3333333333333
376,264,229916,1,0,0:0:0:0:
304,64,230098,1,0,0:0:0:0:
104,104,230279,6,0,L|96:144,1,28.3333333333333
176,300,230461,1,0,0:0:0:0:
216,56,230643,1,0,0:0:0:0:
208,336,230825,2,0,L|216:256,2,56.6666666666667
244,192,231370,2,0,L|256:320,1,113.333333333333
392,240,231916,2,0,L|396:272,1,28.3333333333333
148,192,232098,1,0,0:0:0:0:
148,192,232461,1,0,0:0:0:0:
444,252,232643,1,0,0:0:0:0:
444,252,233007,5,0,0:0:0:0:
56,144,233188,1,0,0:0:0:0:
80,112,233552,2,0,L|32:232,1,113.333333333333
88,192,234098,1,0,0:0:0:0:
256,112,234279,1,0,0:0:0:0:
248,304,234461,1,0,0:0:0:0:
144,160,234644,1,0,0:0:0:0:
312,80,234825,1,0,0:0:0:0:
304,272,235007,1,0,0:0:0:0:
192,136,235188,6,0,L|192:260,1,113.333333333333
232,308,235734,2,0,L|232:180,1,113.333333333333
268,240,236279,1,0,0:0:0:0:
404,180,236461,1,0,0:0:0:0:
404,180,236552,1,0,0:0:0:0:
404,180,236643,1,0,0:0:0:0:
244,144,236825,1,0,0:0:0:0:
108,204,237007,1,0,0:0:0:0:
108,204,237098,1,0,0:0:0:0:
108,204,237189,1,0,0:0:0:0:
108,204,237279,5,0,0:0:0:0:
108,204,237370,1,0,0:0:0:0:
144,288,237552,2,0,L|184:288,1,28.3333333333333
368,248,237734,2,0,L|336:248,1,28.3333333333333
208,232,237916,2,0,L|208:352,1,113.333333333333
248,288,238461,2,0,L|280:288,1,28.3333333333333
452,236,238643,1,0,0:0:0:0:
100,244,239007,2,0,L|140:244,1,28.3333333333333
440,176,239189,1,0,0:0:0:0:
152,124,239552,5,0,0:0:0:0:
200,108,239734,1,0,0:0:0:0:
248,92,239916,1,0,0:0:0:0:
296,72,240098,2,0,P|352:116|336:220,1,170
288,152,240825,1,0,0:0:0:0:
240,212,241007,1,0,0:0:0:0:
312,264,241188,2,0,B|288:324|288:324|212:340|176:304,1,170
132,256,241916,1,0,0:0:0:0:
112,184,242098,1,0,0:0:0:0:
32,168,242279,6,0,P|56:108|184:96,1,170
208,172,243007,1,0,0:0:0:0:
280,52,243188,1,0,0:0:0:0:
272,248,243370,1,0,0:0:0:0:
368,36,243552,1,0,0:0:0:0:
360,296,243734,1,0,0:0:0:0:
480,164,243916,1,0,0:0:0:0:
248,84,244461,2,0,L|272:208,1,113.333333333333
188,148,245007,5,0,0:0:0:0:
324,236,245188,1,0,0:0:0:0:
168,100,245370,1,0,0:0:0:0:
344,284,245551,1,0,0:0:0:0:
152,56,245734,1,0,0:0:0:0:
360,328,245915,1,0,0:0:0:0:
136,8,246098,1,0,0:0:0:0:
376,376,246279,1,0,0:0:0:0:
40,92,246461,6,0,L|48:136,1,28.3333333333333
72,52,246643,2,0,L|88:176,1,113.333333333333
320,152,247188,2,0,P|316:124|340:136,2,56.6666666666667
192,260,247734,1,0,0:0:0:0:
192,260,247825,1,0,0:0:0:0:
192,260,247916,2,0,L|220:296,1,28.3333333333333
320,264,248098,2,0,L|352:296,1,28.3333333333333
436,236,248279,2,0,L|464:268,1,28.3333333333333
384,124,248461,2,0,L|416:164,2,28.3333333333333
272,48,248825,6,0,L|332:148,1,113.333333333333
236,104,249370,1,0,0:0:0:0:
72,184,249552,1,0,0:0:0:0:
264,220,249734,1,0,0:0:0:0:
132,48,249916,1,0,0:0:0:0:
156,284,250098,1,0,0:0:0:0:
352,112,250279,1,0,0:0:0:0:
56,132,250461,1,0,0:0:0:0:
348,296,250643,1,0,0:0:0:0:
368,8,250825,1,0,0:0:0:0:
72,276,251007,6,0,L|104:152,1,113.333333333333
372,236,251552,2,0,L|360:200,1,28.3333333333333
180,104,251734,1,0,0:0:0:0:
200,80,251825,2,0,L|204:116,1,28.3333333333333
368,120,252098,1,0,0:0:0:0:
164,284,252279,2,0,L|200:268,1,28.3333333333333
356,292,252461,2,0,L|312:312,1,28.3333333333333
268,344,252643,2,0,B|256:304|256:304|264:268|264:268|248:224,1,113.333333333333
296,304,253188,2,0,L|188:232,1,113.333333333333
328,104,253734,5,0,0:0:0:0:
168,132,253916,1,0,0:0:0:0:
328,104,254098,1,0,0:0:0:0:
320,244,254279,1,0,0:0:0:0:
228,44,254461,1,0,0:0:0:0:
320,244,254643,1,0,0:0:0:0:
136,252,254825,1,0,0:0:0:0:
424,140,255007,1,0,0:0:0:0:
136,252,255188,1,0,0:0:0:0:
336,64,255370,6,0,L|332:128,2,56.6666666666667
192,116,255916,2,0,L|180:176,1,56.6666666666667
376,248,256279,1,0,0:0:0:0:
188,316,256461,2,0,L|200:272,1,28.3333333333333
376,248,256643,1,0,0:0:0:0:
224,216,256825,1,0,0:0:0:0:
420,260,257007,1,0,0:0:0:0:
180,204,257188,1,0,0:0:0:0:
180,204,257279,1,0,0:0:0:0:
180,204,257370,1,0,0:0:0:0:
280,172,257552,6,0,P|292:240|208:284,1,170
128,324,258279,1,0,0:0:0:0:
96,240,258461,1,0,0:0:0:0:
32,280,258643,2,0,P|24:204|116:168,1,170
156,96,259370,1,0,0:0:0:0:
264,144,259552,1,0,0:0:0:0:
192,84,259734,2,0,P|244:48|344:84,1,170
432,128,260461,2,0,L|404:184,1,56.6666666666667
276,280,260825,2,0,L|308:224,5,56.6666666666667
276,68,261916,6,0,L|220:176,1,113.333333333333
84,216,262461,1,0,0:0:0:0:
176,64,262643,1,0,0:0:0:0:
264,216,262825,1,0,0:0:0:0:
128,284,263007,1,0,0:0:0:0:
220,132,263189,1,0,0:0:0:0:
308,284,263371,1,0,0:0:0:0:
36,280,263552,1,0,0:0:0:0:
128,128,263734,1,0,0:0:0:0:
216,280,263916,1,0,0:0:0:0:
76,80,264098,6,0,L|124:204,1,113.333333333333
216,144,264643,2,0,L|288:112,2,56.6666666666667
192,224,265188,2,0,L|236:204,1,28.3333333333333
316,212,265370,1,0,0:0:0:0:
116,264,265552,1,0,0:0:0:0:
376,240,265734,1,0,0:0:0:0:
152,112,265916,2,0,L|144:204,1,56.6666666666667
176,224,266279,2,0,L|184:96,1,113.333333333333
128,176,266825,5,0,0:0:0:0:
328,152,267007,1,0,0:0:0:0:
128,176,267188,1,0,0:0:0:0:
328,152,267370,1,0,0:0:0:0:
128,176,267552,1,0,0:0:0:0:
328,152,267734,1,0,0:0:0:0:
128,176,267916,1,0,0:0:0:0:
328,152,268098,1,0,0:0:0:0:
128,176,268279,1,0,0:0:0:0:
328,152,268461,2,0,L|204:168,1,113.333333333333
180,304,269007,5,0,0:0:0:0:
252,288,269098,1,0,0:0:0:0:
324,268,269188,2,0,L|300:232,1,28.3333333333333
120,192,269552,1,0,0:0:0:0:
380,112,269734,2,0,L|344:112,1,28.3333333333333
104,76,269916,2,0,L|140:76,1,28.3333333333333
288,112,270098,2,0,B|256:112|256:112|232:76|232:76|192:76,1,113.333333333333
256,268,270643,6,0,L|256:148,1,113.333333333333
104,208,271188,1,0,0:0:0:0:
372,256,271370,1,0,0:0:0:0:
192,44,271552,1,0,0:0:0:0:
196,328,271734,1,0,0:0:0:0:
404,112,271916,1,0,0:0:0:0:
80,116,272098,1,0,0:0:0:0:
288,340,272279,1,0,0:0:0:0:
272,32,272461,1,0,0:0:0:0:
88,300,272643,1,0,0:0:0:0:
416,288,272825,6,0,L|368:164,1,113.333333333333
208,72,273370,2,0,L|224:136,2,56.6666666666667
152,272,273916,2,0,L|140:236,1,28.3333333333333
304,316,274098,2,0,L|292:280,1,28.3333333333333
392,172,274279,2,0,L|380:136,1,28.3333333333333
88,124,274461,2,0,L|76:88,4,28.3333333333333
40,180,275007,6,0,P|108:192|160:104,1,170
216,64,275734,1,0,0:0:0:0:
296,48,275916,1,0,0:0:0:0:
368,16,276098,2,0,B|384:88|320:124|320:124|336:188,1,170
344,244,276825,1,0,0:0:0:0:
284,288,277007,1,0,0:0:0:0:
256,192,277188,12,0,279370,0:0:0:0:
152,128,296825,5,0,0:0:0:0:
188,64,297188,2,0,P|224:116|224:124,1,56.6666666666667
224,172,297552,2,0,L|288:152,1,56.6666666666667
344,172,297916,1,0,0:0:0:0:
316,252,298279,2,0,P|268:288|264:288,1,56.6666666666667
256,224,298643,1,0,0:0:0:0:
192,204,298825,2,0,P|244:156|272:156,1,56.6666666666667
172,120,299188,2,0,L|104:104,2,56.6666666666667
268,72,299916,6,0,L|328:48,1,56.6666666666667
384,84,300279,2,0,L|324:108,1,56.6666666666667
272,124,300643,1,0,0:0:0:0:
204,116,301007,2,0,P|216:172|296:188,2,113.333333333333
172,56,301916,1,0,0:0:0:0:
112,28,302098,1,0,0:0:0:0:
120,88,302279,2,0,L|52:192,1,113.333333333333
112,232,302825,2,0,P|184:256|192:248,2,56.6666666666667
200,216,303370,2,0,P|216:280|212:288,1,56.6666666666667
244,328,303734,2,0,L|304:304,1,56.6666666666667
296,240,304098,5,0,0:0:0:0:
360,264,304279,1,0,0:0:0:0:
360,196,304461,1,0,0:0:0:0:
428,208,304643,1,0,0:0:0:0:
428,140,304825,2,0,P|436:104|432:84,2,56.6666666666667
368,108,305370,1,0,0:0:0:0:
308,140,305552,2,0,L|244:168,1,56.6666666666667
264,228,305916,2,0,P|204:204|216:108,1,170
176,56,306643,6,0,P|132:104|120:168,1,113.333333333333
132,224,307188,2,0,P|148:264|172:272,2,56.6666666666667
216,240,307734,2,0,P|216:296|204:308,1,56.6666666666667
276,328,308098,1,0,0:0:0:0:
344,336,308279,1,0,0:0:0:0:
328,268,308461,1,0,0:0:0:0:
396,268,308643,1,0,0:0:0:0:
388,200,308825,2,0,P|440:176|440:164,1,56.6666666666667
384,136,309188,2,0,P|332:160|332:172,1,56.6666666666667
280,192,309552,1,0,0:0:0:0:
264,124,309734,5,0,0:0:0:0:
212,80,309916,2,0,B|156:168|156:168|156:96|156:96|224:168|208:236,1,283.333333333333
104,208,311007,2,0,B|140:236|140:236|164:232|164:232|192:260|252:264|288:224|280:168|248:124,1,283.333333333333
120,144,312098,2,0,B|64:124|20:192|32:248|32:248|192:120|192:120|72:52|-32:144|-4:240,1,623.333333333333
44,324,314279,2,0,L|104:276,1,56.6666666666667
140,248,314643,1,0,0:0:0:0:
168,312,314825,6,0,P|208:264|172:188,1,113.333333333333
248,168,315370,1,0,0:0:0:0:
308,140,315552,2,0,P|308:200|296:212,1,56.6666666666667
264,236,315916,2,0,P|328:256|368:220,1,113.333333333333
392,172,316461,2,0,P|428:232|404:280,1,113.333333333333
360,232,317007,2,0,P|348:292|408:332,1,113.333333333333
296,344,317552,2,0,L|232:324,1,56.6666666666667
172,348,317916,1,0,0:0:0:0:
188,280,318098,1,0,0:0:0:0:
256,260,318279,1,0,0:0:0:0:
204,212,318461,5,0,0:0:0:0:
324,276,318643,2,0,P|312:216|264:188,1,113.333333333333
204,212,319188,2,0,P|208:152|280:120,1,113.333333333333
316,136,319734,2,0,P|296:72|244:56,1,113.333333333333
188,68,320279,2,0,P|136:128|132:184,1,113.333333333333
64,140,320825,2,0,P|88:212|188:200,2,170
136,136,322461,6,0,L|196:128,1,56.6666666666667
260,124,322825,2,0,L|328:112,1,56.6666666666667
376,248,324643,6,0,L|316:256,1,56.6666666666667
252,260,325007,2,0,L|184:272,1,56.6666666666667
128,292,325370,1,0,0:0:0:0:
128,292,325552,1,0,0:0:0:0:
128,228,325734,1,0,0:0:0:0:
128,228,325916,1,0,0:0:0:0:
176,184,326098,1,0,0:0:0:0:
176,184,326279,1,0,0:0:0:0:
144,120,326825,2,0,P|208:120|248:192,1,113.333333333333
272,216,327370,6,0,P|312:156|296:108,1,113.333333333333
296,52,327916,2,0,P|356:80|372:140,1,113.333333333333
376,188,328461,2,0,P|360:248|376:304,1,113.333333333333
312,336,329007,2,0,P|288:320|256:316,2,56.6666666666667
204,360,329552,2,0,B|184:300|232:248|232:248|284:244|328:188|324:112|284:72|228:56|156:56|120:168,1,510
220,160,331734,1,0,0:0:0:0:
220,164,333916,5,0,0:0:0:0:
220,164,336098,5,0,0:0:0:0:
216,168,338279,5,0,0:0:0:0:
216,168,340461,5,0,0:0:0:0:
216,164,341552,1,0,0:0:0:0:
216,164,342643,1,0,0:0:0:0:
216,164,343734,1,0,0:0:0:0:
216,164,344825,1,0,0:0:0:0:
216,164,345370,1,0,0:0:0:0:
216,164,345916,1,0,0:0:0:0:
216,164,346461,1,0,0:0:0:0:
216,164,347007,1,0,0:0:0:0:
216,164,347188,5,0,0:0:0:0:
216,164,347370,1,0,0:0:0:0:
216,164,347552,1,0,0:0:0:0:
216,164,347734,1,0,0:0:0:0:
216,164,347916,1,0,0:0:0:0:
216,164,348098,1,0,0:0:0:0:
336,136,348279,5,0,0:0:0:0:
308,184,348370,1,0,0:0:0:0:
280,232,348461,1,0,0:0:0:0:
248,280,348552,1,0,0:0:0:0:
220,328,348643,1,0,0:0:0:0:
356,300,348825,1,0,0:0:0:0:
116,216,349007,1,0,0:0:0:0:
64,132,349188,2,0,P|108:80|176:56,1,113.333333333333
364,128,349734,2,0,P|320:180|252:204,1,113.333333333333
112,216,350279,6,0,P|156:292|264:304,1,170
444,328,351007,1,0,0:0:0:0:
280,200,351188,1,0,0:0:0:0:
460,156,351370,2,0,P|416:80|308:68,1,170
200,44,352098,1,0,0:0:0:0:
312,220,352279,1,0,0:0:0:0:
84,308,352461,2,0,L|136:252,1,56.6666666666667
240,124,353007,1,0,0:0:0:0:
368,316,353188,2,0,L|416:264,1,56.6666666666667
284,48,353552,6,0,P|328:116|292:196,1,170
128,196,354279,1,0,0:0:0:0:
324,296,354461,1,0,0:0:0:0:
56,140,354643,2,0,L|80:316,1,170
272,324,355370,1,0,0:0:0:0:
56,136,355552,1,0,0:0:0:0:
420,176,355734,2,0,L|272:76,1,170
164,304,356461,2,0,L|212:244,1,56.6666666666667
176,28,356825,2,0,L|152:120,1,56.6666666666667
340,168,357188,5,0,0:0:0:0:
64,208,357370,1,0,0:0:0:0:
296,328,357552,1,0,0:0:0:0:
161,82,357734,1,0,0:0:0:0:
376,336,357916,2,0,P|356:272|280:256,1,113.333333333333
144,184,358461,2,0,L|252:108,1,113.333333333333
400,228,359007,2,0,P|320:176|252:216,1,170
228,24,359734,1,0,0:0:0:0:
112,280,359916,1,0,0:0:0:0:
428,172,360098,6,0,L|252:208,1,170
412,312,360825,1,0,0:0:0:0:
256,88,361007,1,0,0:0:0:0:
272,272,361188,2,0,P|204:240|244:144,1,170
352,272,361916,1,0,0:0:0:0:
124,332,362098,1,0,0:0:0:0:
420,288,362279,2,0,B|424:208|340:200|340:200|328:136,1,170
440,104,363007,1,0,0:0:0:0:
132,88,363188,1,0,0:0:0:0:
332,164,363370,6,0,P|280:228|168:248,1,170
132,88,364098,1,0,0:0:0:0:
376,272,364279,1,0,0:0:0:0:
196,248,364461,2,0,P|232:324|340:320,1,170
456,272,365188,1,0,0:0:0:0:
456,272,365370,1,0,0:0:0:0:
456,272,365552,5,0,0:0:0:0:
368,120,365734,1,0,0:0:0:0:
368,120,365916,2,0,L|280:128,1,56.6666666666667
176,116,366279,1,0,0:0:0:0:
176,116,366461,2,0,L|184:156,1,28.3333333333333
104,188,366643,2,0,P|160:224|244:192,1,113.333333333333
292,184,367188,2,0,P|332:264|320:296,1,113.333333333333
212,156,367734,2,0,P|172:76|184:44,1,113.333333333333
252,36,368279,2,0,L|316:88,1,56.6666666666667
412,100,368643,6,0,L|404:136,1,28.3333333333333
448,200,368825,2,0,P|424:272|392:300,1,113.333333333333
144,292,369370,1,0,0:0:0:0:
356,256,369552,1,0,0:0:0:0:
176,104,369734,2,0,L|192:160,1,56.6666666666667
336,340,370098,2,0,L|276:192,1,113.333333333333
296,72,370643,5,0,0:0:0:0:
220,308,370825,1,0,0:0:0:0:
120,128,371007,2,0,P|172:80|272:20,1,170
392,124,372098,2,0,P|364:196|316:232,1,113.333333333333
200,216,372643,2,0,P|220:280|280:320,1,113.333333333333
412,284,373188,2,0,B|408:176|336:280|304:228|360:136,2,170
236,284,374461,1,0,0:0:0:0:
344,168,374643,1,0,0:0:0:0:
188,88,374825,2,0,L|192:152,1,56.6666666666667
88,240,375188,5,0,0:0:0:0:
380,112,375370,2,0,L|396:232,1,113.333333333333
444,80,375916,2,0,P|384:40|372:40,2,56.6666666666667
180,208,376461,2,0,L|312:144,1,113.333333333333
64,120,377007,1,0,0:0:0:0:
248,28,377188,2,0,L|312:88,1,56.6666666666667
180,208,377552,2,0,L|312:144,1,113.333333333333
348,296,378098,1,0,0:0:0:0:
464,120,378279,2,0,L|396:160,1,56.6666666666667
216,268,378643,6,0,P|144:268|112:224,1,113.333333333333
112,160,379188,1,0,0:0:0:0:
172,104,379370,1,0,0:0:0:0:
228,48,379552,1,0,0:0:0:0:
300,80,379734,2,0,P|376:92|400:132,1,113.333333333333
328,152,380279,2,0,P|400:196|436:188,1,113.333333333333
464,256,380825,2,0,L|356:320,1,113.333333333333
320,256,381370,2,0,L|252:292,2,56.6666666666667
144,272,381916,2,0,L|304:188,1,170
