osu file format v14

[General]
AudioFilename: phace - shape the random.mp3
AudioLeadIn: 0
PreviewTime: 89983
Countdown: 0
SampleSet: Drum
StackLeniency: 0.7
Mode: 3
LetterboxInBreaks: 0
SpecialStyle: 0
WidescreenStoryboard: 0

[Editor]
DistanceSpacing: 0.8
BeatDivisor: 4
GridSize: 32
TimelineZoom: 2.1

[Metadata]
Title:Shape the Random
TitleUnicode:Shape the Random
Artist:Phace
ArtistUnicode:Phace
Creator:XeoStyle
Version:01101000011010010010000100001010
Source:
Tags:Neurofunk dnb drum bass Shape The Random
BeatmapID:2252074
BeatmapSetID:1076312

[Difficulty]
HPDrainRate:8
CircleSize:4
OverallDifficulty:8.5
ApproachRate:5
SliderMultiplier:1.4
SliderTickRate:1

[Events]
//Background and Video events
0,0,"bg.jpg",0,0
//Break Periods
//Storyboard Layer 0 (Background)
//Storyboard Layer 1 (Fail)
//Storyboard Layer 2 (Pass)
//Storyboard Layer 3 (Foreground)
//Storyboard Layer 4 (Overlay)
//Storyboard Sound Samples

[TimingPoints]
71,348.837209,4,3,0,60,1,0
67745,-100,4,3,0,60,0,1
89896,-100,4,3,0,60,0,0
90070,-100,4,3,0,60,0,1
112396,-100,4,3,0,60,0,0
224024,-100,4,3,0,60,0,1
246175,-100,4,3,0,60,0,0
246350,-100,4,3,0,60,0,1
268675,-100,4,3,0,60,0,0

[HitObjects]
192,192,71,5,0,0:0:0:0:
320,192,158,5,0,0:0:0:0:
192,192,245,1,0,0:0:0:0:
192,192,419,1,0,0:0:0:0:
192,192,594,1,0,0:0:0:0:
320,192,681,1,0,0:0:0:0:
64,192,768,128,0,855:0:0:0:0:
192,192,768,1,0,0:0:0:0:
320,192,943,1,0,0:0:0:0:
192,192,1030,1,0,0:0:0:0:
448,192,1117,128,0,1204:0:0:0:0:
448,192,1291,128,0,1379:0:0:0:0:
448,192,1640,128,0,1727:0:0:0:0:
448,192,1815,128,0,1902:0:0:0:0:
448,192,1989,128,0,2076:0:0:0:0:
448,192,2338,128,0,2425:0:0:0:0:
448,192,2687,128,0,2774:0:0:0:0:
448,192,2861,128,0,2948:0:0:0:0:
448,192,3036,128,0,3123:0:0:0:0:
448,192,3384,128,0,3472:0:0:0:0:
64,192,3559,128,0,3646:0:0:0:0:
192,192,3559,1,0,0:0:0:0:
192,192,3733,1,0,0:0:0:0:
320,192,3820,1,0,0:0:0:0:
448,192,3908,128,0,3995:0:0:0:0:
448,192,4082,128,0,4169:0:0:0:0:
448,192,4431,128,0,4518:0:0:0:0:
448,192,4605,128,0,4693:0:0:0:0:
448,192,4780,128,0,4867:0:0:0:0:
448,192,5129,128,0,5216:0:0:0:0:
448,192,5477,128,0,5565:0:0:0:0:
448,192,5652,128,0,5739:0:0:0:0:
448,192,5826,128,0,5914:0:0:0:0:
192,192,6001,1,0,0:0:0:0:
320,192,6059,1,0,0:0:0:0:
448,192,6117,1,0,0:0:0:0:
64,192,6175,1,0,0:0:0:0:
192,192,6219,1,0,0:0:0:0:
320,192,6262,1,0,0:0:0:0:
448,192,6306,1,0,0:0:0:0:
64,192,6350,128,0,6437:0:0:0:0:
192,192,6350,1,0,0:0:0:0:
192,192,6524,1,0,0:0:0:0:
320,192,6611,1,0,0:0:0:0:
448,192,6698,128,0,6786:0:0:0:0:
448,192,6873,128,0,6960:0:0:0:0:
448,192,7222,128,0,7309:0:0:0:0:
64,192,7396,128,0,7483:0:0:0:0:
192,192,7483,128,0,7570:0:0:0:0:
64,192,7570,128,0,7658:0:0:0:0:
192,192,7658,128,0,7745:0:0:0:0:
448,192,7745,1,0,0:0:0:0:
320,192,7810,1,0,0:0:0:0:
192,192,7890,1,0,0:0:0:0:
320,192,7963,1,0,0:0:0:0:
448,192,7963,1,0,0:0:0:0:
64,192,8028,1,0,0:0:0:0:
192,192,8028,1,0,0:0:0:0:
448,192,8268,128,0,8355:0:0:0:0:
448,192,8443,128,0,8530:0:0:0:0:
64,192,8617,1,0,0:0:0:0:
192,192,8704,1,0,0:0:0:0:
320,192,8791,1,0,0:0:0:0:
64,192,8850,1,0,0:0:0:0:
192,192,8850,1,0,0:0:0:0:
320,192,8908,1,0,0:0:0:0:
448,192,8908,1,0,0:0:0:0:
320,192,9053,1,0,0:0:0:0:
64,192,9140,128,0,9227:0:0:0:0:
192,192,9140,1,0,0:0:0:0:
192,192,9315,1,0,0:0:0:0:
320,192,9402,1,0,0:0:0:0:
448,192,9489,128,0,9576:0:0:0:0:
448,192,9664,128,0,9751:0:0:0:0:
448,192,10012,128,0,10100:0:0:0:0:
448,192,10187,128,0,10274:0:0:0:0:
448,192,10361,128,0,10448:0:0:0:0:
320,192,10710,1,0,0:0:0:0:
448,192,10797,128,0,10884:0:0:0:0:
448,192,11059,128,0,11146:0:0:0:0:
320,192,11233,1,0,0:0:0:0:
448,192,11320,128,0,11408:0:0:0:0:
192,192,11582,1,0,0:0:0:0:
320,192,11640,1,0,0:0:0:0:
448,192,11698,1,0,0:0:0:0:
192,192,11757,1,0,0:0:0:0:
320,192,11844,1,0,0:0:0:0:
64,192,11931,128,0,12018:0:0:0:0:
192,192,11931,1,0,0:0:0:0:
192,192,12105,1,0,0:0:0:0:
320,192,12193,1,0,0:0:0:0:
448,192,12280,128,0,12367:0:0:0:0:
320,192,12454,1,0,0:0:0:0:
448,192,12541,128,0,12629:0:0:0:0:
448,192,12803,128,0,12890:0:0:0:0:
320,192,12977,1,0,0:0:0:0:
448,192,13065,128,0,13152:0:0:0:0:
448,192,13326,128,0,13414:0:0:0:0:
320,192,13501,1,0,0:0:0:0:
448,192,13588,128,0,13675:0:0:0:0:
448,192,13850,128,0,13937:0:0:0:0:
320,192,14024,1,0,0:0:0:0:
448,192,14111,128,0,14198:0:0:0:0:
320,192,14286,1,0,0:0:0:0:
448,192,14373,1,0,0:0:0:0:
192,192,14460,1,0,0:0:0:0:
320,192,14547,1,0,0:0:0:0:
448,192,14634,1,0,0:0:0:0:
64,192,14722,128,0,14809:0:0:0:0:
192,192,14722,1,0,0:0:0:0:
192,192,14896,1,0,0:0:0:0:
320,192,14983,1,0,0:0:0:0:
448,192,15070,128,0,15158:0:0:0:0:
320,192,15245,1,0,0:0:0:0:
448,192,15332,128,0,15419:0:0:0:0:
448,192,15594,128,0,15681:0:0:0:0:
320,192,15768,1,0,0:0:0:0:
448,192,15855,128,0,15943:0:0:0:0:
448,192,16117,128,0,16204:0:0:0:0:
320,192,16291,1,0,0:0:0:0:
448,192,16379,128,0,16466:0:0:0:0:
320,192,16553,1,0,0:0:0:0:
448,192,16640,128,0,16727:0:0:0:0:
320,192,16815,1,0,0:0:0:0:
448,192,16902,1,0,0:0:0:0:
192,192,16989,1,0,0:0:0:0:
64,192,17076,1,0,0:0:0:0:
192,192,17164,1,0,0:0:0:0:
320,192,17222,1,0,0:0:0:0:
448,192,17280,1,0,0:0:0:0:
64,192,17338,1,0,0:0:0:0:
192,192,17382,1,0,0:0:0:0:
320,192,17425,1,0,0:0:0:0:
448,192,17469,1,0,0:0:0:0:
64,192,17512,128,0,17600:0:0:0:0:
192,192,17512,1,0,0:0:0:0:
192,192,17687,1,0,0:0:0:0:
320,192,17774,1,0,0:0:0:0:
448,192,17861,128,0,17948:0:0:0:0:
320,192,18036,1,0,0:0:0:0:
448,192,18123,128,0,18210:0:0:0:0:
320,192,18297,1,0,0:0:0:0:
448,192,18384,128,0,18472:0:0:0:0:
64,192,18559,128,0,18646:0:0:0:0:
192,192,18646,128,0,18733:0:0:0:0:
64,192,18733,128,0,18820:0:0:0:0:
192,192,18820,128,0,18908:0:0:0:0:
448,192,18908,1,0,0:0:0:0:
320,192,18973,1,0,0:0:0:0:
192,192,19039,1,0,0:0:0:0:
320,192,19126,1,0,0:0:0:0:
448,192,19126,1,0,0:0:0:0:
64,192,19191,1,0,0:0:0:0:
192,192,19191,1,0,0:0:0:0:
320,192,19344,1,0,0:0:0:0:
448,192,19431,128,0,19518:0:0:0:0:
320,192,19605,1,0,0:0:0:0:
448,192,19693,128,0,19780:0:0:0:0:
64,192,19780,1,0,0:0:0:0:
192,192,19867,1,0,0:0:0:0:
320,192,19954,1,0,0:0:0:0:
64,192,20012,1,0,0:0:0:0:
192,192,20012,1,0,0:0:0:0:
320,192,20070,1,0,0:0:0:0:
448,192,20070,1,0,0:0:0:0:
320,192,20216,1,0,0:0:0:0:
64,192,20303,128,0,20390:0:0:0:0:
192,192,20303,1,0,0:0:0:0:
192,192,20477,1,0,0:0:0:0:
320,192,20565,1,0,0:0:0:0:
448,192,20652,128,0,20739:0:0:0:0:
320,192,20826,1,0,0:0:0:0:
448,192,20914,128,0,21001:0:0:0:0:
320,192,21088,1,0,0:0:0:0:
448,192,21175,128,0,21262:0:0:0:0:
320,192,21350,1,0,0:0:0:0:
448,192,21437,128,0,21524:0:0:0:0:
320,192,21611,1,0,0:0:0:0:
448,192,21698,128,0,21786:0:0:0:0:
192,192,21786,1,0,0:0:0:0:
320,192,21873,128,0,21960:0:0:0:0:
192,192,21960,1,0,0:0:0:0:
320,192,22047,128,0,22134:0:0:0:0:
192,192,22134,1,0,0:0:0:0:
320,192,22222,128,0,22309:0:0:0:0:
192,192,22309,1,0,0:0:0:0:
448,192,22396,128,0,22570:0:0:0:0:
320,192,22570,128,0,22919:0:0:0:0:
192,192,22919,128,0,23094:0:0:0:0:
64,192,23094,1,0,0:0:0:0:
448,192,23094,128,0,23268:0:0:0:0:
64,192,23181,1,0,0:0:0:0:
192,192,23443,1,0,0:0:0:0:
192,192,23530,1,0,0:0:0:0:
64,192,23791,1,0,0:0:0:0:
64,192,23879,1,0,0:0:0:0:
192,192,24140,1,0,0:0:0:0:
192,192,24227,1,0,0:0:0:0:
64,192,24489,1,0,0:0:0:0:
64,192,24576,1,0,0:0:0:0:
192,192,24838,1,0,0:0:0:0:
192,192,24925,1,0,0:0:0:0:
64,192,25187,1,0,0:0:0:0:
64,192,25274,1,0,0:0:0:0:
192,192,25536,1,0,0:0:0:0:
192,192,25623,1,0,0:0:0:0:
64,192,25884,1,0,0:0:0:0:
448,192,25884,128,0,26059:0:0:0:0:
64,192,25972,1,0,0:0:0:0:
192,192,26233,1,0,0:0:0:0:
192,192,26320,1,0,0:0:0:0:
64,192,26582,1,0,0:0:0:0:
64,192,26669,1,0,0:0:0:0:
192,192,26931,1,0,0:0:0:0:
192,192,27018,1,0,0:0:0:0:
64,192,27280,1,0,0:0:0:0:
64,192,27367,1,0,0:0:0:0:
192,192,27629,1,0,0:0:0:0:
192,192,27716,1,0,0:0:0:0:
64,192,27977,1,0,0:0:0:0:
64,192,28065,1,0,0:0:0:0:
192,192,28326,1,0,0:0:0:0:
192,192,28414,1,0,0:0:0:0:
64,192,28675,1,0,0:0:0:0:
448,192,28675,128,0,28850:0:0:0:0:
64,192,28762,1,0,0:0:0:0:
192,192,29024,1,0,0:0:0:0:
192,192,29111,1,0,0:0:0:0:
64,192,29373,1,0,0:0:0:0:
64,192,29460,1,0,0:0:0:0:
192,192,29722,1,0,0:0:0:0:
192,192,29809,1,0,0:0:0:0:
64,192,30070,1,0,0:0:0:0:
64,192,30158,1,0,0:0:0:0:
192,192,30419,1,0,0:0:0:0:
192,192,30507,1,0,0:0:0:0:
64,192,30768,1,0,0:0:0:0:
64,192,30855,1,0,0:0:0:0:
192,192,31117,1,0,0:0:0:0:
192,192,31204,1,0,0:0:0:0:
64,192,31466,1,0,0:0:0:0:
448,192,31466,128,0,31640:0:0:0:0:
64,192,31553,1,0,0:0:0:0:
192,192,31815,1,0,0:0:0:0:
192,192,31902,1,0,0:0:0:0:
64,192,32164,1,0,0:0:0:0:
64,192,32251,1,0,0:0:0:0:
192,192,32512,1,0,0:0:0:0:
192,192,32600,1,0,0:0:0:0:
64,192,32861,1,0,0:0:0:0:
64,192,32948,1,0,0:0:0:0:
192,192,33210,1,0,0:0:0:0:
192,192,33297,1,0,0:0:0:0:
64,192,33559,1,0,0:0:0:0:
64,192,33646,1,0,0:0:0:0:
192,192,33908,1,0,0:0:0:0:
192,192,33995,1,0,0:0:0:0:
320,192,34082,1,0,0:0:0:0:
192,192,34169,1,0,0:0:0:0:
64,192,34257,1,0,0:0:0:0:
448,192,34257,128,0,34431:0:0:0:0:
64,192,34344,1,0,0:0:0:0:
192,192,34605,1,0,0:0:0:0:
192,192,34693,1,0,0:0:0:0:
64,192,34954,1,0,0:0:0:0:
64,192,35041,1,0,0:0:0:0:
192,192,35303,1,0,0:0:0:0:
192,192,35390,1,0,0:0:0:0:
64,192,35652,1,0,0:0:0:0:
64,192,35739,1,0,0:0:0:0:
192,192,36001,1,0,0:0:0:0:
192,192,36088,1,0,0:0:0:0:
64,192,36350,1,0,0:0:0:0:
64,192,36437,1,0,0:0:0:0:
192,192,36698,1,0,0:0:0:0:
192,192,36786,1,0,0:0:0:0:
64,192,37047,1,0,0:0:0:0:
448,192,37047,128,0,37222:0:0:0:0:
64,192,37134,1,0,0:0:0:0:
192,192,37396,1,0,0:0:0:0:
192,192,37483,1,0,0:0:0:0:
64,192,37745,1,0,0:0:0:0:
64,192,37832,1,0,0:0:0:0:
192,192,38094,1,0,0:0:0:0:
192,192,38181,1,0,0:0:0:0:
64,192,38443,1,0,0:0:0:0:
64,192,38530,1,0,0:0:0:0:
192,192,38791,1,0,0:0:0:0:
192,192,38879,1,0,0:0:0:0:
64,192,39140,1,0,0:0:0:0:
64,192,39227,1,0,0:0:0:0:
192,192,39489,1,0,0:0:0:0:
192,192,39576,1,0,0:0:0:0:
64,192,39838,1,0,0:0:0:0:
448,192,39838,128,0,40012:0:0:0:0:
64,192,39925,1,0,0:0:0:0:
192,192,40187,1,0,0:0:0:0:
192,192,40274,1,0,0:0:0:0:
64,192,40536,1,0,0:0:0:0:
64,192,40623,1,0,0:0:0:0:
192,192,40884,1,0,0:0:0:0:
192,192,40972,1,0,0:0:0:0:
64,192,41233,1,0,0:0:0:0:
64,192,41320,1,0,0:0:0:0:
192,192,41582,1,0,0:0:0:0:
192,192,41669,1,0,0:0:0:0:
64,192,41931,1,0,0:0:0:0:
64,192,42018,1,0,0:0:0:0:
192,192,42280,1,0,0:0:0:0:
192,192,42367,1,0,0:0:0:0:
64,192,42629,1,0,0:0:0:0:
448,192,42629,128,0,42803:0:0:0:0:
64,192,42716,1,0,0:0:0:0:
192,192,42977,1,0,0:0:0:0:
192,192,43065,1,0,0:0:0:0:
64,192,43326,1,0,0:0:0:0:
64,192,43414,1,0,0:0:0:0:
192,192,43675,1,0,0:0:0:0:
192,192,43762,1,0,0:0:0:0:
448,192,44024,1,0,0:0:0:0:
192,192,44111,1,0,0:0:0:0:
448,192,44198,1,0,0:0:0:0:
192,192,44286,1,0,0:0:0:0:
64,192,44373,1,0,0:0:0:0:
448,192,44460,1,0,0:0:0:0:
192,192,44547,1,0,0:0:0:0:
320,192,44634,1,0,0:0:0:0:
192,192,44722,1,0,0:0:0:0:
320,192,44809,1,0,0:0:0:0:
448,192,44896,1,0,0:0:0:0:
64,192,44983,1,0,0:0:0:0:
448,192,45070,1,0,0:0:0:0:
64,192,45158,1,0,0:0:0:0:
320,192,45245,1,0,0:0:0:0:
192,192,45332,1,0,0:0:0:0:
64,192,45419,1,0,0:0:0:0:
320,192,45419,1,0,0:0:0:0:
448,192,45419,128,0,66262:0:0:0:0:
64,192,45768,1,0,0:0:0:0:
64,192,46117,1,0,0:0:0:0:
64,192,46466,1,0,0:0:0:0:
192,192,46815,128,0,48210:0:0:0:0:
64,192,48210,1,0,0:0:0:0:
320,192,48210,1,0,0:0:0:0:
64,192,48559,1,0,0:0:0:0:
64,192,48908,1,0,0:0:0:0:
64,192,49257,1,0,0:0:0:0:
192,192,49605,128,0,51001:0:0:0:0:
64,192,51001,1,0,0:0:0:0:
320,192,51001,1,0,0:0:0:0:
64,192,51350,1,0,0:0:0:0:
64,192,51698,1,0,0:0:0:0:
64,192,52047,1,0,0:0:0:0:
192,192,52396,128,0,53791:0:0:0:0:
64,192,53791,1,0,0:0:0:0:
320,192,53791,1,0,0:0:0:0:
64,192,54140,1,0,0:0:0:0:
64,192,54489,1,0,0:0:0:0:
64,192,54838,1,0,0:0:0:0:
192,192,55187,128,0,56582:0:0:0:0:
64,192,56582,1,0,0:0:0:0:
320,192,56582,1,0,0:0:0:0:
192,192,56757,1,0,0:0:0:0:
64,192,56844,1,0,0:0:0:0:
320,192,56931,1,0,0:0:0:0:
192,192,57018,1,0,0:0:0:0:
64,192,57105,1,0,0:0:0:0:
320,192,57105,1,0,0:0:0:0:
192,192,57280,1,0,0:0:0:0:
320,192,57367,1,0,0:0:0:0:
64,192,57454,1,0,0:0:0:0:
192,192,57454,1,0,0:0:0:0:
192,192,57629,1,0,0:0:0:0:
64,192,57716,1,0,0:0:0:0:
320,192,57803,1,0,0:0:0:0:
192,192,57890,1,0,0:0:0:0:
64,192,57977,1,0,0:0:0:0:
320,192,57977,1,0,0:0:0:0:
320,192,58152,1,0,0:0:0:0:
64,192,58239,1,0,0:0:0:0:
192,192,58326,1,0,0:0:0:0:
64,192,58414,1,0,0:0:0:0:
192,192,58501,1,0,0:0:0:0:
320,192,58501,1,0,0:0:0:0:
64,192,58675,1,0,0:0:0:0:
192,192,58762,1,0,0:0:0:0:
64,192,58850,1,0,0:0:0:0:
320,192,58850,1,0,0:0:0:0:
64,192,59024,1,0,0:0:0:0:
192,192,59111,1,0,0:0:0:0:
320,192,59198,1,0,0:0:0:0:
192,192,59286,1,0,0:0:0:0:
64,192,59373,1,0,0:0:0:0:
320,192,59373,1,0,0:0:0:0:
192,192,59547,1,0,0:0:0:0:
64,192,59634,1,0,0:0:0:0:
320,192,59722,1,0,0:0:0:0:
192,192,59809,1,0,0:0:0:0:
64,192,59896,1,0,0:0:0:0:
320,192,59896,1,0,0:0:0:0:
192,192,60070,1,0,0:0:0:0:
320,192,60158,1,0,0:0:0:0:
64,192,60245,1,0,0:0:0:0:
192,192,60245,1,0,0:0:0:0:
192,192,60419,1,0,0:0:0:0:
320,192,60507,1,0,0:0:0:0:
64,192,60594,1,0,0:0:0:0:
192,192,60681,1,0,0:0:0:0:
64,192,60768,1,0,0:0:0:0:
320,192,60768,1,0,0:0:0:0:
64,192,60943,1,0,0:0:0:0:
320,192,61030,1,0,0:0:0:0:
192,192,61117,1,0,0:0:0:0:
64,192,61204,1,0,0:0:0:0:
192,192,61291,1,0,0:0:0:0:
320,192,61291,1,0,0:0:0:0:
64,192,61466,1,0,0:0:0:0:
192,192,61553,1,0,0:0:0:0:
64,192,61640,1,0,0:0:0:0:
320,192,61640,1,0,0:0:0:0:
192,192,61815,1,0,0:0:0:0:
64,192,61902,1,0,0:0:0:0:
320,192,61989,1,0,0:0:0:0:
192,192,62076,1,0,0:0:0:0:
64,192,62164,1,0,0:0:0:0:
320,192,62164,1,0,0:0:0:0:
320,192,62338,1,0,0:0:0:0:
64,192,62425,1,0,0:0:0:0:
192,192,62512,1,0,0:0:0:0:
320,192,62600,1,0,0:0:0:0:
64,192,62687,1,0,0:0:0:0:
192,192,62687,1,0,0:0:0:0:
192,192,62861,1,0,0:0:0:0:
64,192,62948,1,0,0:0:0:0:
192,192,63036,1,0,0:0:0:0:
320,192,63036,1,0,0:0:0:0:
64,192,63210,1,0,0:0:0:0:
192,192,63297,1,0,0:0:0:0:
320,192,63384,1,0,0:0:0:0:
64,192,63472,1,0,0:0:0:0:
192,192,63559,1,0,0:0:0:0:
320,192,63559,1,0,0:0:0:0:
320,192,63733,1,0,0:0:0:0:
64,192,63820,1,0,0:0:0:0:
192,192,63908,1,0,0:0:0:0:
64,192,63995,1,0,0:0:0:0:
192,192,64082,1,0,0:0:0:0:
320,192,64082,1,0,0:0:0:0:
64,192,64257,1,0,0:0:0:0:
320,192,64344,1,0,0:0:0:0:
64,192,64431,1,0,0:0:0:0:
192,192,64431,1,0,0:0:0:0:
320,192,64605,1,0,0:0:0:0:
192,192,64693,1,0,0:0:0:0:
64,192,64780,1,0,0:0:0:0:
320,192,64867,1,0,0:0:0:0:
64,192,64954,1,0,0:0:0:0:
192,192,64954,1,0,0:0:0:0:
192,192,65129,1,0,0:0:0:0:
64,192,65216,1,0,0:0:0:0:
320,192,65303,1,0,0:0:0:0:
192,192,65390,1,0,0:0:0:0:
64,192,65477,1,0,0:0:0:0:
320,192,65477,1,0,0:0:0:0:
192,192,65652,1,0,0:0:0:0:
320,192,65739,1,0,0:0:0:0:
64,192,65826,1,0,0:0:0:0:
192,192,65826,1,0,0:0:0:0:
64,192,66001,1,0,0:0:0:0:
192,192,66088,1,0,0:0:0:0:
320,192,66175,1,0,0:0:0:0:
192,192,66262,1,0,0:0:0:0:
64,192,66350,128,0,67658:0:0:0:0:
448,192,66350,128,0,66611:0:0:0:0:
448,192,66698,128,0,66786:0:0:0:0:
448,192,66873,128,0,67076:0:0:0:0:
448,192,67164,128,0,67251:0:0:0:0:
448,192,67352,128,0,67440:0:0:0:0:
448,192,67549,128,0,67658:0:0:0:0:
64,192,67745,1,0,0:0:0:0:
192,192,67789,1,0,0:0:0:0:
320,192,67832,1,0,0:0:0:0:
448,192,67876,1,0,0:0:0:0:
320,192,68050,1,0,0:0:0:0:
192,192,68094,1,0,0:0:0:0:
448,192,68137,1,0,0:0:0:0:
64,192,68181,1,0,0:0:0:0:
64,192,68443,1,0,0:0:0:0:
192,192,68486,1,0,0:0:0:0:
320,192,68530,1,0,0:0:0:0:
448,192,68573,1,0,0:0:0:0:
192,192,68617,1,0,0:0:0:0:
64,192,68661,1,0,0:0:0:0:
320,192,68704,1,0,0:0:0:0:
448,192,68748,1,0,0:0:0:0:
192,192,68966,1,0,0:0:0:0:
320,192,68995,1,0,0:0:0:0:
448,192,69024,1,0,0:0:0:0:
64,192,69140,1,0,0:0:0:0:
192,192,69227,1,0,0:0:0:0:
320,192,69315,1,0,0:0:0:0:
448,192,69315,1,0,0:0:0:0:
64,192,69373,1,0,0:0:0:0:
448,192,69431,1,0,0:0:0:0:
64,192,69489,1,0,0:0:0:0:
192,192,69576,1,0,0:0:0:0:
320,192,69576,1,0,0:0:0:0:
448,192,69634,1,0,0:0:0:0:
192,192,69693,1,0,0:0:0:0:
448,192,69751,1,0,0:0:0:0:
192,192,69838,1,0,0:0:0:0:
320,192,69838,1,0,0:0:0:0:
64,192,69896,1,0,0:0:0:0:
320,192,69954,1,0,0:0:0:0:
192,192,70012,1,0,0:0:0:0:
448,192,70070,1,0,0:0:0:0:
320,192,70129,1,0,0:0:0:0:
64,192,70187,1,0,0:0:0:0:
192,192,70187,1,0,0:0:0:0:
320,192,70274,1,0,0:0:0:0:
448,192,70361,1,0,0:0:0:0:
448,192,70448,1,0,0:0:0:0:
64,192,70536,1,0,0:0:0:0:
192,192,70536,1,0,0:0:0:0:
64,192,70623,1,0,0:0:0:0:
192,192,70623,1,0,0:0:0:0:
320,192,70710,1,0,0:0:0:0:
448,192,70710,1,0,0:0:0:0:
320,192,70797,1,0,0:0:0:0:
448,192,70797,1,0,0:0:0:0:
64,192,70884,1,0,0:0:0:0:
192,192,70884,1,0,0:0:0:0:
64,192,70972,1,0,0:0:0:0:
192,192,70972,1,0,0:0:0:0:
320,192,71059,1,0,0:0:0:0:
448,192,71059,1,0,0:0:0:0:
320,192,71146,1,0,0:0:0:0:
448,192,71146,1,0,0:0:0:0:
64,192,71233,1,0,0:0:0:0:
192,192,71233,1,0,0:0:0:0:
448,192,71291,1,0,0:0:0:0:
320,192,71350,1,0,0:0:0:0:
192,192,71408,1,0,0:0:0:0:
448,192,71466,1,0,0:0:0:0:
64,192,71524,1,0,0:0:0:0:
192,192,71582,1,0,0:0:0:0:
448,192,71640,1,0,0:0:0:0:
320,192,71698,1,0,0:0:0:0:
64,192,71757,1,0,0:0:0:0:
192,192,71757,1,0,0:0:0:0:
448,192,71815,1,0,0:0:0:0:
64,192,71873,1,0,0:0:0:0:
320,192,71931,1,0,0:0:0:0:
192,192,71989,1,0,0:0:0:0:
448,192,72047,1,0,0:0:0:0:
64,192,72105,1,0,0:0:0:0:
192,192,72105,1,0,0:0:0:0:
320,192,72164,1,0,0:0:0:0:
448,192,72222,1,0,0:0:0:0:
192,192,72280,1,0,0:0:0:0:
64,192,72338,1,0,0:0:0:0:
448,192,72396,1,0,0:0:0:0:
320,192,72454,1,0,0:0:0:0:
192,192,72512,1,0,0:0:0:0:
448,192,72570,1,0,0:0:0:0:
64,192,72629,1,0,0:0:0:0:
320,192,72629,1,0,0:0:0:0:
192,192,72687,1,0,0:0:0:0:
320,192,72745,1,0,0:0:0:0:
64,192,72803,1,0,0:0:0:0:
448,192,72861,1,0,0:0:0:0:
320,192,72919,1,0,0:0:0:0:
64,192,72977,1,0,0:0:0:0:
192,192,72977,1,0,0:0:0:0:
192,192,73152,1,0,0:0:0:0:
192,192,73239,1,0,0:0:0:0:
64,192,73326,1,0,0:0:0:0:
448,192,73326,1,0,0:0:0:0:
320,192,73370,1,0,0:0:0:0:
192,192,73414,1,0,0:0:0:0:
448,192,73457,1,0,0:0:0:0:
64,192,73501,1,0,0:0:0:0:
192,192,73559,1,0,0:0:0:0:
320,192,73617,1,0,0:0:0:0:
64,192,73675,1,0,0:0:0:0:
448,192,73675,1,0,0:0:0:0:
192,192,73719,1,0,0:0:0:0:
320,192,73762,1,0,0:0:0:0:
448,192,73806,1,0,0:0:0:0:
192,192,73850,1,0,0:0:0:0:
64,192,73908,1,0,0:0:0:0:
320,192,73966,1,0,0:0:0:0:
64,192,74024,1,0,0:0:0:0:
448,192,74024,1,0,0:0:0:0:
320,192,74068,1,0,0:0:0:0:
192,192,74111,1,0,0:0:0:0:
64,192,74155,1,0,0:0:0:0:
448,192,74198,1,0,0:0:0:0:
320,192,74257,1,0,0:0:0:0:
192,192,74315,1,0,0:0:0:0:
64,192,74373,1,0,0:0:0:0:
448,192,74373,1,0,0:0:0:0:
320,192,74416,1,0,0:0:0:0:
192,192,74460,1,0,0:0:0:0:
448,192,74504,1,0,0:0:0:0:
64,192,74547,1,0,0:0:0:0:
320,192,74547,1,0,0:0:0:0:
192,192,74605,1,0,0:0:0:0:
320,192,74664,1,0,0:0:0:0:
64,192,74722,1,0,0:0:0:0:
448,192,74722,1,0,0:0:0:0:
320,192,74896,1,0,0:0:0:0:
448,192,74896,1,0,0:0:0:0:
192,192,74954,1,0,0:0:0:0:
320,192,75012,1,0,0:0:0:0:
192,192,75070,1,0,0:0:0:0:
64,192,75158,1,0,0:0:0:0:
320,192,75158,1,0,0:0:0:0:
448,192,75216,1,0,0:0:0:0:
64,192,75274,1,0,0:0:0:0:
448,192,75332,1,0,0:0:0:0:
192,192,75419,1,0,0:0:0:0:
320,192,75419,1,0,0:0:0:0:
64,192,75477,1,0,0:0:0:0:
320,192,75536,1,0,0:0:0:0:
192,192,75594,1,0,0:0:0:0:
448,192,75652,1,0,0:0:0:0:
320,192,75710,1,0,0:0:0:0:
64,192,75768,1,0,0:0:0:0:
192,192,75768,1,0,0:0:0:0:
320,192,75855,1,0,0:0:0:0:
64,192,75943,1,0,0:0:0:0:
64,192,76030,1,0,0:0:0:0:
320,192,76117,1,0,0:0:0:0:
448,192,76117,1,0,0:0:0:0:
320,192,76204,1,0,0:0:0:0:
448,192,76204,1,0,0:0:0:0:
64,192,76291,1,0,0:0:0:0:
192,192,76291,1,0,0:0:0:0:
64,192,76379,1,0,0:0:0:0:
192,192,76379,1,0,0:0:0:0:
320,192,76466,1,0,0:0:0:0:
448,192,76466,1,0,0:0:0:0:
320,192,76553,1,0,0:0:0:0:
448,192,76553,1,0,0:0:0:0:
64,192,76640,1,0,0:0:0:0:
192,192,76640,1,0,0:0:0:0:
64,192,76727,1,0,0:0:0:0:
192,192,76727,1,0,0:0:0:0:
64,192,76815,128,0,77251:0:0:0:0:
192,192,76815,128,0,77948:0:0:0:0:
320,192,76815,128,0,76989:0:0:0:0:
448,192,76815,128,0,77600:0:0:0:0:
320,192,77076,128,0,78123:0:0:0:0:
64,192,77338,128,0,78384:0:0:0:0:
448,192,77687,128,0,78472:0:0:0:0:
192,192,78036,128,0,78472:0:0:0:0:
320,192,78210,128,0,78472:0:0:0:0:
64,192,78472,1,0,0:0:0:0:
64,192,78559,1,0,0:0:0:0:
192,192,78559,1,0,0:0:0:0:
320,192,78559,1,0,0:0:0:0:
448,192,78559,1,0,0:0:0:0:
64,192,78908,128,0,78995:0:0:0:0:
192,192,78908,128,0,78995:0:0:0:0:
320,192,78908,128,0,78995:0:0:0:0:
448,192,78908,128,0,78995:0:0:0:0:
64,192,79082,128,0,79169:0:0:0:0:
192,192,79082,128,0,79169:0:0:0:0:
320,192,79082,128,0,79169:0:0:0:0:
448,192,79082,128,0,79169:0:0:0:0:
64,192,79257,128,0,79344:0:0:0:0:
192,192,79257,128,0,79344:0:0:0:0:
320,192,79257,128,0,79344:0:0:0:0:
448,192,79257,128,0,79344:0:0:0:0:
64,192,79431,128,0,79518:0:0:0:0:
192,192,79431,128,0,79518:0:0:0:0:
320,192,79431,128,0,79518:0:0:0:0:
448,192,79431,128,0,79518:0:0:0:0:
64,192,79605,1,0,0:0:0:0:
320,192,79605,1,0,0:0:0:0:
192,192,79649,1,0,0:0:0:0:
448,192,79693,1,0,0:0:0:0:
320,192,79736,1,0,0:0:0:0:
64,192,79780,1,0,0:0:0:0:
192,192,79823,1,0,0:0:0:0:
448,192,79867,1,0,0:0:0:0:
320,192,79911,1,0,0:0:0:0:
64,192,79954,1,0,0:0:0:0:
192,192,79998,1,0,0:0:0:0:
320,192,80041,1,0,0:0:0:0:
448,192,80085,1,0,0:0:0:0:
64,192,80129,1,0,0:0:0:0:
192,192,80129,1,0,0:0:0:0:
64,192,80477,1,0,0:0:0:0:
448,192,80477,1,0,0:0:0:0:
320,192,80536,1,0,0:0:0:0:
64,192,80594,1,0,0:0:0:0:
320,192,80652,1,0,0:0:0:0:
192,192,80739,1,0,0:0:0:0:
448,192,80739,1,0,0:0:0:0:
64,192,80797,1,0,0:0:0:0:
448,192,80855,1,0,0:0:0:0:
64,192,80914,1,0,0:0:0:0:
192,192,81001,1,0,0:0:0:0:
448,192,81001,1,0,0:0:0:0:
320,192,81059,1,0,0:0:0:0:
64,192,81117,1,0,0:0:0:0:
448,192,81175,1,0,0:0:0:0:
64,192,81233,1,0,0:0:0:0:
192,192,81291,1,0,0:0:0:0:
320,192,81350,1,0,0:0:0:0:
448,192,81350,1,0,0:0:0:0:
192,192,81437,1,0,0:0:0:0:
448,192,81524,1,0,0:0:0:0:
448,192,81611,1,0,0:0:0:0:
64,192,81698,1,0,0:0:0:0:
192,192,81698,1,0,0:0:0:0:
64,192,81786,1,0,0:0:0:0:
192,192,81786,1,0,0:0:0:0:
320,192,81873,1,0,0:0:0:0:
448,192,81873,1,0,0:0:0:0:
320,192,81960,1,0,0:0:0:0:
448,192,81960,1,0,0:0:0:0:
64,192,82047,1,0,0:0:0:0:
192,192,82047,1,0,0:0:0:0:
64,192,82134,1,0,0:0:0:0:
192,192,82134,1,0,0:0:0:0:
320,192,82222,1,0,0:0:0:0:
448,192,82222,1,0,0:0:0:0:
320,192,82309,1,0,0:0:0:0:
448,192,82309,1,0,0:0:0:0:
64,192,82396,1,0,0:0:0:0:
192,192,82396,1,0,0:0:0:0:
320,192,82483,1,0,0:0:0:0:
192,192,82570,1,0,0:0:0:0:
320,192,82658,1,0,0:0:0:0:
192,192,82745,1,0,0:0:0:0:
448,192,82745,1,0,0:0:0:0:
320,192,82832,1,0,0:0:0:0:
64,192,82919,1,0,0:0:0:0:
192,192,82919,1,0,0:0:0:0:
320,192,83007,1,0,0:0:0:0:
192,192,83094,1,0,0:0:0:0:
320,192,83181,1,0,0:0:0:0:
64,192,83268,1,0,0:0:0:0:
192,192,83268,1,0,0:0:0:0:
320,192,83355,1,0,0:0:0:0:
192,192,83443,1,0,0:0:0:0:
320,192,83530,1,0,0:0:0:0:
192,192,83617,1,0,0:0:0:0:
448,192,83617,1,0,0:0:0:0:
320,192,83704,1,0,0:0:0:0:
192,192,83791,1,0,0:0:0:0:
448,192,83791,1,0,0:0:0:0:
320,192,83879,1,0,0:0:0:0:
192,192,83966,1,0,0:0:0:0:
320,192,84053,1,0,0:0:0:0:
64,192,84140,1,0,0:0:0:0:
448,192,84140,1,0,0:0:0:0:
320,192,84198,1,0,0:0:0:0:
192,192,84257,1,0,0:0:0:0:
64,192,84315,1,0,0:0:0:0:
448,192,84373,1,0,0:0:0:0:
320,192,84431,1,0,0:0:0:0:
64,192,84489,128,0,84664:0:0:0:0:
192,192,84533,128,0,84707:0:0:0:0:
448,192,84576,128,0,84751:0:0:0:0:
320,192,84620,128,0,84794:0:0:0:0:
192,192,84838,128,0,85012:0:0:0:0:
64,192,84882,128,0,85056:0:0:0:0:
320,192,84925,128,0,85100:0:0:0:0:
448,192,84969,128,0,85143:0:0:0:0:
64,192,85187,128,0,85361:0:0:0:0:
448,192,85230,128,0,85405:0:0:0:0:
192,192,85274,128,0,85448:0:0:0:0:
320,192,85318,128,0,85492:0:0:0:0:
448,192,85536,128,0,85710:0:0:0:0:
192,192,85579,128,0,85754:0:0:0:0:
320,192,85623,128,0,85797:0:0:0:0:
64,192,85666,128,0,85841:0:0:0:0:
448,192,85884,1,0,0:0:0:0:
448,192,85972,1,0,0:0:0:0:
192,192,86059,1,0,0:0:0:0:
320,192,86059,1,0,0:0:0:0:
448,192,86117,1,0,0:0:0:0:
192,192,86175,1,0,0:0:0:0:
448,192,86233,1,0,0:0:0:0:
64,192,86320,1,0,0:0:0:0:
320,192,86320,1,0,0:0:0:0:
192,192,86379,1,0,0:0:0:0:
320,192,86437,1,0,0:0:0:0:
192,192,86495,1,0,0:0:0:0:
320,192,86582,1,0,0:0:0:0:
448,192,86582,1,0,0:0:0:0:
192,192,86640,1,0,0:0:0:0:
320,192,86698,1,0,0:0:0:0:
64,192,86757,1,0,0:0:0:0:
448,192,86815,1,0,0:0:0:0:
192,192,86873,1,0,0:0:0:0:
64,192,86931,1,0,0:0:0:0:
320,192,86931,1,0,0:0:0:0:
192,192,87018,1,0,0:0:0:0:
320,192,87105,1,0,0:0:0:0:
320,192,87193,1,0,0:0:0:0:
64,192,87280,1,0,0:0:0:0:
192,192,87280,1,0,0:0:0:0:
64,192,87367,1,0,0:0:0:0:
192,192,87367,1,0,0:0:0:0:
320,192,87454,1,0,0:0:0:0:
448,192,87454,1,0,0:0:0:0:
320,192,87541,1,0,0:0:0:0:
448,192,87541,1,0,0:0:0:0:
64,192,87629,1,0,0:0:0:0:
192,192,87629,1,0,0:0:0:0:
64,192,87716,1,0,0:0:0:0:
192,192,87716,1,0,0:0:0:0:
320,192,87803,1,0,0:0:0:0:
448,192,87803,1,0,0:0:0:0:
320,192,87890,1,0,0:0:0:0:
448,192,87890,1,0,0:0:0:0:
64,192,87977,128,0,88414:0:0:0:0:
192,192,87977,128,0,88239:0:0:0:0:
320,192,87977,128,0,88762:0:0:0:0:
448,192,87977,128,0,89286:0:0:0:0:
192,192,88326,128,0,89111:0:0:0:0:
64,192,88501,128,0,89634:0:0:0:0:
320,192,88850,128,0,89634:0:0:0:0:
192,192,89198,128,0,89634:0:0:0:0:
448,192,89373,128,0,89634:0:0:0:0:
64,192,89722,1,0,0:0:0:0:
192,192,89722,128,0,89896:0:0:0:0:
320,192,89722,128,0,89896:0:0:0:0:
448,192,89722,1,0,0:0:0:0:
448,192,90070,128,0,90245:0:0:0:0:
192,192,90100,128,0,90274:0:0:0:0:
320,192,90129,128,0,90303:0:0:0:0:
64,192,90158,128,0,90332:0:0:0:0:
192,192,90419,128,0,90594:0:0:0:0:
320,192,90448,128,0,90623:0:0:0:0:
64,192,90477,128,0,90652:0:0:0:0:
448,192,90507,128,0,90681:0:0:0:0:
64,192,90768,128,0,90943:0:0:0:0:
192,192,90797,128,0,90972:0:0:0:0:
320,192,90826,128,0,91001:0:0:0:0:
448,192,90855,128,0,91030:0:0:0:0:
320,192,91117,128,0,91291:0:0:0:0:
192,192,91146,128,0,91320:0:0:0:0:
64,192,91175,128,0,91350:0:0:0:0:
448,192,91204,128,0,91379:0:0:0:0:
320,192,91466,128,0,91553:0:0:0:0:
448,192,91495,128,0,91553:0:0:0:0:
192,192,91524,128,0,91698:0:0:0:0:
64,192,91553,128,0,91727:0:0:0:0:
320,192,91640,128,0,91757:0:0:0:0:
448,192,91640,128,0,91757:0:0:0:0:
192,192,91815,128,0,91989:0:0:0:0:
448,192,91844,128,0,92018:0:0:0:0:
64,192,91873,128,0,92047:0:0:0:0:
320,192,91902,128,0,92076:0:0:0:0:
448,192,92164,128,0,92338:0:0:0:0:
192,192,92193,128,0,92367:0:0:0:0:
64,192,92222,128,0,92396:0:0:0:0:
320,192,92251,128,0,92425:0:0:0:0:
448,192,92512,128,0,92687:0:0:0:0:
320,192,92541,128,0,92716:0:0:0:0:
192,192,92570,128,0,92745:0:0:0:0:
64,192,92600,128,0,92774:0:0:0:0:
320,192,92861,1,0,0:0:0:0:
448,192,92861,1,0,0:0:0:0:
320,192,92948,1,0,0:0:0:0:
448,192,92948,1,0,0:0:0:0:
64,192,93036,1,0,0:0:0:0:
192,192,93036,1,0,0:0:0:0:
64,192,93123,1,0,0:0:0:0:
192,192,93123,1,0,0:0:0:0:
320,192,93210,1,0,0:0:0:0:
448,192,93210,1,0,0:0:0:0:
320,192,93297,1,0,0:0:0:0:
448,192,93297,1,0,0:0:0:0:
64,192,93384,1,0,0:0:0:0:
192,192,93384,1,0,0:0:0:0:
64,192,93472,1,0,0:0:0:0:
192,192,93472,1,0,0:0:0:0:
320,192,93559,1,0,0:0:0:0:
448,192,93559,1,0,0:0:0:0:
64,192,93617,1,0,0:0:0:0:
192,192,93675,1,0,0:0:0:0:
320,192,93733,1,0,0:0:0:0:
64,192,93791,1,0,0:0:0:0:
448,192,93850,1,0,0:0:0:0:
320,192,93908,1,0,0:0:0:0:
64,192,93966,1,0,0:0:0:0:
192,192,94024,1,0,0:0:0:0:
320,192,94082,1,0,0:0:0:0:
448,192,94082,1,0,0:0:0:0:
64,192,94140,1,0,0:0:0:0:
448,192,94198,1,0,0:0:0:0:
192,192,94257,1,0,0:0:0:0:
320,192,94315,1,0,0:0:0:0:
64,192,94373,1,0,0:0:0:0:
320,192,94431,1,0,0:0:0:0:
448,192,94431,1,0,0:0:0:0:
192,192,94489,1,0,0:0:0:0:
64,192,94547,1,0,0:0:0:0:
320,192,94605,1,0,0:0:0:0:
448,192,94664,1,0,0:0:0:0:
64,192,94722,1,0,0:0:0:0:
192,192,94780,1,0,0:0:0:0:
320,192,94838,1,0,0:0:0:0:
64,192,94896,1,0,0:0:0:0:
192,192,94954,1,0,0:0:0:0:
448,192,94954,1,0,0:0:0:0:
320,192,95012,1,0,0:0:0:0:
192,192,95070,1,0,0:0:0:0:
448,192,95129,1,0,0:0:0:0:
64,192,95187,1,0,0:0:0:0:
192,192,95245,1,0,0:0:0:0:
320,192,95303,1,0,0:0:0:0:
448,192,95303,1,0,0:0:0:0:
320,192,95565,1,0,0:0:0:0:
192,192,95652,1,0,0:0:0:0:
448,192,95652,1,0,0:0:0:0:
64,192,95710,1,0,0:0:0:0:
448,192,95768,1,0,0:0:0:0:
192,192,95826,1,0,0:0:0:0:
448,192,95884,1,0,0:0:0:0:
320,192,95943,1,0,0:0:0:0:
64,192,96001,1,0,0:0:0:0:
448,192,96059,1,0,0:0:0:0:
64,192,96117,1,0,0:0:0:0:
320,192,96175,1,0,0:0:0:0:
64,192,96233,1,0,0:0:0:0:
192,192,96291,1,0,0:0:0:0:
64,192,96350,128,0,96524:0:0:0:0:
320,192,96350,1,0,0:0:0:0:
448,192,96350,128,0,96524:0:0:0:0:
192,192,96524,1,0,0:0:0:0:
64,192,96611,128,0,96786:0:0:0:0:
448,192,96611,128,0,96786:0:0:0:0:
64,192,96873,128,0,97047:0:0:0:0:
192,192,96873,1,0,0:0:0:0:
320,192,96873,1,0,0:0:0:0:
448,192,96873,128,0,97047:0:0:0:0:
192,192,97047,1,0,0:0:0:0:
192,192,97134,1,0,0:0:0:0:
64,192,97222,1,0,0:0:0:0:
320,192,97222,1,0,0:0:0:0:
448,192,97280,1,0,0:0:0:0:
64,192,97338,1,0,0:0:0:0:
448,192,97396,1,0,0:0:0:0:
64,192,97483,1,0,0:0:0:0:
192,192,97483,1,0,0:0:0:0:
320,192,97541,1,0,0:0:0:0:
192,192,97600,1,0,0:0:0:0:
320,192,97658,1,0,0:0:0:0:
64,192,97745,1,0,0:0:0:0:
448,192,97745,1,0,0:0:0:0:
192,192,97803,1,0,0:0:0:0:
320,192,97861,1,0,0:0:0:0:
192,192,97919,1,0,0:0:0:0:
448,192,97977,1,0,0:0:0:0:
64,192,98036,1,0,0:0:0:0:
320,192,98094,1,0,0:0:0:0:
448,192,98094,1,0,0:0:0:0:
192,192,98181,1,0,0:0:0:0:
448,192,98268,1,0,0:0:0:0:
448,192,98355,1,0,0:0:0:0:
64,192,98443,1,0,0:0:0:0:
192,192,98443,1,0,0:0:0:0:
64,192,98530,1,0,0:0:0:0:
192,192,98530,1,0,0:0:0:0:
320,192,98617,1,0,0:0:0:0:
448,192,98617,1,0,0:0:0:0:
320,192,98704,1,0,0:0:0:0:
448,192,98704,1,0,0:0:0:0:
64,192,98791,1,0,0:0:0:0:
192,192,98791,1,0,0:0:0:0:
64,192,98879,1,0,0:0:0:0:
192,192,98879,1,0,0:0:0:0:
320,192,98966,1,0,0:0:0:0:
448,192,98966,1,0,0:0:0:0:
320,192,99053,1,0,0:0:0:0:
448,192,99053,1,0,0:0:0:0:
64,192,99140,128,0,99925:0:0:0:0:
192,192,99140,128,0,99315:0:0:0:0:
320,192,99140,128,0,100274:0:0:0:0:
448,192,99140,128,0,99576:0:0:0:0:
192,192,99402,128,0,100448:0:0:0:0:
448,192,99664,128,0,100710:0:0:0:0:
64,192,100012,128,0,100797:0:0:0:0:
320,192,100361,128,0,100797:0:0:0:0:
192,192,100536,128,0,100797:0:0:0:0:
448,192,100797,1,0,0:0:0:0:
64,192,100884,1,0,0:0:0:0:
192,192,100884,1,0,0:0:0:0:
320,192,100884,1,0,0:0:0:0:
448,192,100884,1,0,0:0:0:0:
64,192,101233,128,0,101320:0:0:0:0:
192,192,101233,128,0,101320:0:0:0:0:
320,192,101233,128,0,101320:0:0:0:0:
448,192,101233,128,0,101320:0:0:0:0:
64,192,101408,128,0,101495:0:0:0:0:
192,192,101408,128,0,101495:0:0:0:0:
320,192,101408,128,0,101495:0:0:0:0:
448,192,101408,128,0,101495:0:0:0:0:
64,192,101582,128,0,101669:0:0:0:0:
192,192,101582,128,0,101669:0:0:0:0:
320,192,101582,128,0,101669:0:0:0:0:
448,192,101582,128,0,101669:0:0:0:0:
64,192,101757,128,0,101844:0:0:0:0:
192,192,101757,128,0,101844:0:0:0:0:
320,192,101757,128,0,101844:0:0:0:0:
448,192,101757,128,0,101844:0:0:0:0:
64,192,101931,128,0,102018:0:0:0:0:
192,192,101931,128,0,102018:0:0:0:0:
320,192,101931,128,0,102018:0:0:0:0:
448,192,101931,128,0,102018:0:0:0:0:
64,192,102105,128,0,102193:0:0:0:0:
192,192,102105,128,0,102193:0:0:0:0:
320,192,102105,128,0,102193:0:0:0:0:
448,192,102105,128,0,102193:0:0:0:0:
64,192,102280,128,0,102367:0:0:0:0:
192,192,102280,128,0,102367:0:0:0:0:
320,192,102280,128,0,102367:0:0:0:0:
448,192,102280,128,0,102367:0:0:0:0:
64,192,102454,128,0,102541:0:0:0:0:
192,192,102454,128,0,102541:0:0:0:0:
320,192,102454,128,0,102541:0:0:0:0:
448,192,102454,128,0,102541:0:0:0:0:
64,192,102629,128,0,102716:0:0:0:0:
192,192,102629,128,0,102716:0:0:0:0:
320,192,102629,128,0,102716:0:0:0:0:
448,192,102629,128,0,102716:0:0:0:0:
64,192,102803,128,0,102890:0:0:0:0:
192,192,102803,128,0,102890:0:0:0:0:
320,192,102803,128,0,102890:0:0:0:0:
448,192,102803,128,0,102890:0:0:0:0:
64,192,102977,128,0,103065:0:0:0:0:
192,192,102977,128,0,103065:0:0:0:0:
320,192,102977,128,0,103065:0:0:0:0:
448,192,102977,128,0,103065:0:0:0:0:
64,192,103152,128,0,103239:0:0:0:0:
192,192,103152,128,0,103239:0:0:0:0:
320,192,103152,128,0,103239:0:0:0:0:
448,192,103152,128,0,103239:0:0:0:0:
64,192,103326,128,0,103414:0:0:0:0:
192,192,103326,128,0,103414:0:0:0:0:
320,192,103326,128,0,103414:0:0:0:0:
448,192,103326,128,0,103414:0:0:0:0:
64,192,103501,128,0,103588:0:0:0:0:
192,192,103501,128,0,103588:0:0:0:0:
320,192,103501,128,0,103588:0:0:0:0:
448,192,103501,128,0,103588:0:0:0:0:
64,192,103675,128,0,103762:0:0:0:0:
192,192,103675,128,0,103762:0:0:0:0:
320,192,103675,128,0,103762:0:0:0:0:
448,192,103675,128,0,103762:0:0:0:0:
64,192,103850,128,0,103937:0:0:0:0:
192,192,103850,128,0,103937:0:0:0:0:
320,192,103850,128,0,103937:0:0:0:0:
448,192,103850,128,0,103937:0:0:0:0:
64,192,104024,1,0,0:0:0:0:
192,192,104024,1,0,0:0:0:0:
64,192,104111,1,0,0:0:0:0:
192,192,104111,1,0,0:0:0:0:
320,192,104198,1,0,0:0:0:0:
448,192,104198,1,0,0:0:0:0:
320,192,104286,1,0,0:0:0:0:
448,192,104286,1,0,0:0:0:0:
64,192,104373,1,0,0:0:0:0:
192,192,104373,1,0,0:0:0:0:
64,192,104460,1,0,0:0:0:0:
192,192,104460,1,0,0:0:0:0:
320,192,104547,1,0,0:0:0:0:
448,192,104547,1,0,0:0:0:0:
320,192,104634,1,0,0:0:0:0:
448,192,104634,1,0,0:0:0:0:
64,192,104722,1,0,0:0:0:0:
192,192,104722,1,0,0:0:0:0:
320,192,104780,1,0,0:0:0:0:
448,192,104838,1,0,0:0:0:0:
64,192,104896,1,0,0:0:0:0:
192,192,104954,1,0,0:0:0:0:
320,192,105012,1,0,0:0:0:0:
64,192,105070,1,0,0:0:0:0:
448,192,105129,1,0,0:0:0:0:
320,192,105187,1,0,0:0:0:0:
64,192,105245,1,0,0:0:0:0:
192,192,105245,1,0,0:0:0:0:
448,192,105303,1,0,0:0:0:0:
320,192,105361,1,0,0:0:0:0:
64,192,105419,1,0,0:0:0:0:
192,192,105477,1,0,0:0:0:0:
320,192,105536,1,0,0:0:0:0:
448,192,105594,1,0,0:0:0:0:
192,192,105652,1,0,0:0:0:0:
64,192,105710,1,0,0:0:0:0:
320,192,105768,1,0,0:0:0:0:
448,192,105826,1,0,0:0:0:0:
64,192,105884,1,0,0:0:0:0:
320,192,105943,1,0,0:0:0:0:
192,192,106001,1,0,0:0:0:0:
448,192,106059,1,0,0:0:0:0:
64,192,106117,1,0,0:0:0:0:
320,192,106117,1,0,0:0:0:0:
192,192,106175,1,0,0:0:0:0:
448,192,106233,1,0,0:0:0:0:
320,192,106291,1,0,0:0:0:0:
64,192,106350,1,0,0:0:0:0:
192,192,106408,1,0,0:0:0:0:
320,192,106466,1,0,0:0:0:0:
448,192,106466,1,0,0:0:0:0:
192,192,106640,1,0,0:0:0:0:
192,192,106727,1,0,0:0:0:0:
64,192,106815,1,0,0:0:0:0:
320,192,106815,1,0,0:0:0:0:
448,192,106873,1,0,0:0:0:0:
64,192,106931,1,0,0:0:0:0:
320,192,106989,1,0,0:0:0:0:
64,192,107047,1,0,0:0:0:0:
192,192,107105,1,0,0:0:0:0:
448,192,107164,1,0,0:0:0:0:
64,192,107222,1,0,0:0:0:0:
448,192,107280,1,0,0:0:0:0:
192,192,107338,1,0,0:0:0:0:
448,192,107396,1,0,0:0:0:0:
320,192,107454,1,0,0:0:0:0:
64,192,107512,128,0,107687:0:0:0:0:
192,192,107512,1,0,0:0:0:0:
448,192,107512,128,0,107687:0:0:0:0:
64,192,107774,128,0,107948:0:0:0:0:
192,192,107774,1,0,0:0:0:0:
448,192,107774,128,0,107948:0:0:0:0:
64,192,108036,128,0,108210:0:0:0:0:
192,192,108036,1,0,0:0:0:0:
320,192,108036,1,0,0:0:0:0:
448,192,108036,128,0,108210:0:0:0:0:
320,192,108210,1,0,0:0:0:0:
320,192,108297,1,0,0:0:0:0:
192,192,108384,1,0,0:0:0:0:
448,192,108384,1,0,0:0:0:0:
64,192,108443,1,0,0:0:0:0:
448,192,108501,1,0,0:0:0:0:
64,192,108559,1,0,0:0:0:0:
320,192,108646,1,0,0:0:0:0:
448,192,108646,1,0,0:0:0:0:
192,192,108704,1,0,0:0:0:0:
320,192,108762,1,0,0:0:0:0:
192,192,108820,1,0,0:0:0:0:
64,192,108908,1,0,0:0:0:0:
448,192,108908,1,0,0:0:0:0:
320,192,108966,1,0,0:0:0:0:
192,192,109024,1,0,0:0:0:0:
320,192,109082,1,0,0:0:0:0:
64,192,109140,1,0,0:0:0:0:
448,192,109198,1,0,0:0:0:0:
64,192,109257,1,0,0:0:0:0:
192,192,109257,1,0,0:0:0:0:
320,192,109344,1,0,0:0:0:0:
64,192,109431,1,0,0:0:0:0:
64,192,109518,1,0,0:0:0:0:
320,192,109605,1,0,0:0:0:0:
448,192,109605,1,0,0:0:0:0:
320,192,109693,1,0,0:0:0:0:
448,192,109693,1,0,0:0:0:0:
64,192,109780,1,0,0:0:0:0:
192,192,109780,1,0,0:0:0:0:
64,192,109867,1,0,0:0:0:0:
192,192,109867,1,0,0:0:0:0:
320,192,109954,1,0,0:0:0:0:
448,192,109954,1,0,0:0:0:0:
320,192,110041,1,0,0:0:0:0:
448,192,110041,1,0,0:0:0:0:
64,192,110129,1,0,0:0:0:0:
192,192,110129,1,0,0:0:0:0:
64,192,110216,1,0,0:0:0:0:
192,192,110216,1,0,0:0:0:0:
64,192,110303,128,0,111611:0:0:0:0:
192,192,110303,128,0,111088:0:0:0:0:
320,192,110303,128,0,110565:0:0:0:0:
448,192,110303,128,0,110739:0:0:0:0:
320,192,110652,128,0,111437:0:0:0:0:
448,192,110826,128,0,111960:0:0:0:0:
192,192,111175,128,0,111960:0:0:0:0:
320,192,111524,128,0,111960:0:0:0:0:
64,192,111698,128,0,111960:0:0:0:0:
64,192,112047,1,0,0:0:0:0:
192,192,112047,128,0,112222:0:0:0:0:
320,192,112047,128,0,112222:0:0:0:0:
448,192,112047,1,0,0:0:0:0:
64,192,112396,1,0,0:0:0:0:
448,192,112396,1,0,0:0:0:0:
64,192,112570,128,0,112614:0:0:0:0:
64,192,112658,128,0,112701:0:0:0:0:
320,192,112745,1,0,0:0:0:0:
448,192,112745,1,0,0:0:0:0:
448,192,112919,1,0,0:0:0:0:
64,192,113007,1,0,0:0:0:0:
192,192,113007,1,0,0:0:0:0:
320,192,113094,1,0,0:0:0:0:
64,192,113181,1,0,0:0:0:0:
192,192,113181,1,0,0:0:0:0:
448,192,113268,1,0,0:0:0:0:
192,192,113355,1,0,0:0:0:0:
320,192,113443,1,0,0:0:0:0:
448,192,113443,1,0,0:0:0:0:
192,192,113617,1,0,0:0:0:0:
320,192,113704,1,0,0:0:0:0:
192,192,113791,1,0,0:0:0:0:
320,192,113879,1,0,0:0:0:0:
64,192,113966,1,0,0:0:0:0:
192,192,113966,1,0,0:0:0:0:
64,192,114140,1,0,0:0:0:0:
448,192,114140,1,0,0:0:0:0:
320,192,114315,1,0,0:0:0:0:
64,192,114402,1,0,0:0:0:0:
320,192,114489,1,0,0:0:0:0:
192,192,114576,1,0,0:0:0:0:
448,192,114576,1,0,0:0:0:0:
64,192,114664,1,0,0:0:0:0:
192,192,114751,1,0,0:0:0:0:
448,192,114751,1,0,0:0:0:0:
320,192,114838,1,0,0:0:0:0:
448,192,114838,1,0,0:0:0:0:
192,192,115012,1,0,0:0:0:0:
448,192,115012,1,0,0:0:0:0:
192,192,115100,1,0,0:0:0:0:
448,192,115100,1,0,0:0:0:0:
64,192,115187,1,0,0:0:0:0:
448,192,115187,1,0,0:0:0:0:
320,192,115361,128,0,115405:0:0:0:0:
320,192,115448,128,0,115492:0:0:0:0:
64,192,115536,1,0,0:0:0:0:
192,192,115536,1,0,0:0:0:0:
192,192,115710,1,0,0:0:0:0:
320,192,115797,1,0,0:0:0:0:
448,192,115797,1,0,0:0:0:0:
64,192,115884,1,0,0:0:0:0:
320,192,115972,1,0,0:0:0:0:
448,192,115972,1,0,0:0:0:0:
192,192,116059,1,0,0:0:0:0:
448,192,116146,1,0,0:0:0:0:
192,192,116233,1,0,0:0:0:0:
320,192,116233,1,0,0:0:0:0:
64,192,116408,1,0,0:0:0:0:
192,192,116495,1,0,0:0:0:0:
64,192,116582,1,0,0:0:0:0:
448,192,116582,1,0,0:0:0:0:
192,192,116626,1,0,0:0:0:0:
320,192,116669,1,0,0:0:0:0:
448,192,116713,1,0,0:0:0:0:
64,192,116757,1,0,0:0:0:0:
192,192,116800,1,0,0:0:0:0:
320,192,116844,1,0,0:0:0:0:
448,192,116844,1,0,0:0:0:0:
64,192,116909,1,0,0:0:0:0:
192,192,116975,1,0,0:0:0:0:
320,192,117040,1,0,0:0:0:0:
64,192,117105,1,0,0:0:0:0:
448,192,117105,1,0,0:0:0:0:
192,192,117193,1,0,0:0:0:0:
320,192,117280,1,0,0:0:0:0:
448,192,117280,1,0,0:0:0:0:
320,192,117367,1,0,0:0:0:0:
448,192,117367,1,0,0:0:0:0:
64,192,117454,1,0,0:0:0:0:
192,192,117454,1,0,0:0:0:0:
64,192,117541,1,0,0:0:0:0:
192,192,117541,1,0,0:0:0:0:
320,192,117629,1,0,0:0:0:0:
448,192,117629,1,0,0:0:0:0:
320,192,117716,1,0,0:0:0:0:
448,192,117716,1,0,0:0:0:0:
64,192,117803,1,0,0:0:0:0:
192,192,117803,1,0,0:0:0:0:
64,192,117890,1,0,0:0:0:0:
192,192,117890,1,0,0:0:0:0:
320,192,117977,1,0,0:0:0:0:
448,192,117977,1,0,0:0:0:0:
192,192,118152,128,0,118195:0:0:0:0:
192,192,118239,128,0,118283:0:0:0:0:
64,192,118326,1,0,0:0:0:0:
448,192,118326,1,0,0:0:0:0:
192,192,118501,1,0,0:0:0:0:
320,192,118588,1,0,0:0:0:0:
448,192,118588,1,0,0:0:0:0:
64,192,118675,1,0,0:0:0:0:
320,192,118762,1,0,0:0:0:0:
448,192,118762,1,0,0:0:0:0:
192,192,118850,1,0,0:0:0:0:
448,192,118937,1,0,0:0:0:0:
64,192,119024,1,0,0:0:0:0:
192,192,119024,1,0,0:0:0:0:
448,192,119198,1,0,0:0:0:0:
64,192,119286,1,0,0:0:0:0:
448,192,119373,1,0,0:0:0:0:
64,192,119460,1,0,0:0:0:0:
320,192,119547,1,0,0:0:0:0:
448,192,119547,1,0,0:0:0:0:
64,192,119722,1,0,0:0:0:0:
448,192,119722,1,0,0:0:0:0:
192,192,119896,1,0,0:0:0:0:
320,192,119983,1,0,0:0:0:0:
192,192,120070,1,0,0:0:0:0:
64,192,120158,1,0,0:0:0:0:
448,192,120158,1,0,0:0:0:0:
320,192,120245,1,0,0:0:0:0:
64,192,120332,1,0,0:0:0:0:
448,192,120332,1,0,0:0:0:0:
192,192,120419,1,0,0:0:0:0:
448,192,120419,1,0,0:0:0:0:
64,192,120594,1,0,0:0:0:0:
448,192,120594,1,0,0:0:0:0:
64,192,120681,1,0,0:0:0:0:
448,192,120681,1,0,0:0:0:0:
64,192,120768,1,0,0:0:0:0:
192,192,120768,1,0,0:0:0:0:
320,192,120943,128,0,120986:0:0:0:0:
320,192,121030,128,0,121073:0:0:0:0:
64,192,121117,1,0,0:0:0:0:
448,192,121117,1,0,0:0:0:0:
320,192,121291,1,0,0:0:0:0:
64,192,121379,1,0,0:0:0:0:
192,192,121379,1,0,0:0:0:0:
320,192,121466,1,0,0:0:0:0:
64,192,121553,1,0,0:0:0:0:
192,192,121553,1,0,0:0:0:0:
448,192,121640,1,0,0:0:0:0:
64,192,121727,1,0,0:0:0:0:
192,192,121815,1,0,0:0:0:0:
448,192,121815,1,0,0:0:0:0:
320,192,121989,1,0,0:0:0:0:
192,192,122076,1,0,0:0:0:0:
64,192,122164,1,0,0:0:0:0:
448,192,122164,1,0,0:0:0:0:
320,192,122207,1,0,0:0:0:0:
192,192,122251,1,0,0:0:0:0:
64,192,122294,1,0,0:0:0:0:
448,192,122338,1,0,0:0:0:0:
320,192,122382,1,0,0:0:0:0:
64,192,122425,1,0,0:0:0:0:
192,192,122425,1,0,0:0:0:0:
448,192,122469,1,0,0:0:0:0:
320,192,122512,1,0,0:0:0:0:
64,192,122556,1,0,0:0:0:0:
192,192,122600,1,0,0:0:0:0:
320,192,122643,1,0,0:0:0:0:
64,192,122687,1,0,0:0:0:0:
448,192,122687,1,0,0:0:0:0:
192,192,122730,1,0,0:0:0:0:
320,192,122774,1,0,0:0:0:0:
448,192,122818,1,0,0:0:0:0:
64,192,122861,1,0,0:0:0:0:
192,192,122861,1,0,0:0:0:0:
64,192,122948,1,0,0:0:0:0:
192,192,122948,1,0,0:0:0:0:
320,192,123036,1,0,0:0:0:0:
448,192,123036,1,0,0:0:0:0:
320,192,123123,1,0,0:0:0:0:
448,192,123123,1,0,0:0:0:0:
64,192,123210,128,0,123559:0:0:0:0:
192,192,123239,128,0,123559:0:0:0:0:
320,192,123268,128,0,123472:0:0:0:0:
448,192,123297,128,0,123472:0:0:0:0:
320,192,123559,1,0,0:0:0:0:
448,192,123559,1,0,0:0:0:0:
448,192,123733,128,0,123777:0:0:0:0:
448,192,123820,128,0,123864:0:0:0:0:
64,192,123908,1,0,0:0:0:0:
192,192,123908,1,0,0:0:0:0:
64,192,124082,1,0,0:0:0:0:
320,192,124169,1,0,0:0:0:0:
448,192,124169,1,0,0:0:0:0:
64,192,124257,1,0,0:0:0:0:
320,192,124344,1,0,0:0:0:0:
448,192,124344,1,0,0:0:0:0:
192,192,124431,1,0,0:0:0:0:
448,192,124518,1,0,0:0:0:0:
192,192,124605,1,0,0:0:0:0:
320,192,124605,1,0,0:0:0:0:
320,192,124780,1,0,0:0:0:0:
64,192,124867,1,0,0:0:0:0:
320,192,124954,1,0,0:0:0:0:
64,192,125041,1,0,0:0:0:0:
320,192,125129,1,0,0:0:0:0:
448,192,125129,1,0,0:0:0:0:
64,192,125303,1,0,0:0:0:0:
448,192,125303,1,0,0:0:0:0:
192,192,125477,1,0,0:0:0:0:
448,192,125565,1,0,0:0:0:0:
64,192,125652,1,0,0:0:0:0:
192,192,125652,1,0,0:0:0:0:
64,192,125739,1,0,0:0:0:0:
192,192,125739,1,0,0:0:0:0:
320,192,125826,1,0,0:0:0:0:
448,192,125826,1,0,0:0:0:0:
320,192,125914,1,0,0:0:0:0:
448,192,125914,1,0,0:0:0:0:
64,192,126001,1,0,0:0:0:0:
192,192,126001,1,0,0:0:0:0:
64,192,126088,1,0,0:0:0:0:
192,192,126088,1,0,0:0:0:0:
320,192,126175,1,0,0:0:0:0:
448,192,126175,1,0,0:0:0:0:
320,192,126262,1,0,0:0:0:0:
448,192,126262,1,0,0:0:0:0:
64,192,126350,1,0,0:0:0:0:
192,192,126350,1,0,0:0:0:0:
192,192,126524,128,0,126568:0:0:0:0:
192,192,126611,128,0,126655:0:0:0:0:
320,192,126698,1,0,0:0:0:0:
448,192,126698,1,0,0:0:0:0:
448,192,126873,1,0,0:0:0:0:
64,192,126960,1,0,0:0:0:0:
192,192,126960,1,0,0:0:0:0:
320,192,127047,1,0,0:0:0:0:
64,192,127134,1,0,0:0:0:0:
192,192,127134,1,0,0:0:0:0:
320,192,127222,1,0,0:0:0:0:
64,192,127309,1,0,0:0:0:0:
320,192,127396,1,0,0:0:0:0:
448,192,127396,1,0,0:0:0:0:
64,192,127570,1,0,0:0:0:0:
192,192,127658,1,0,0:0:0:0:
64,192,127745,1,0,0:0:0:0:
448,192,127745,1,0,0:0:0:0:
320,192,127789,1,0,0:0:0:0:
192,192,127832,1,0,0:0:0:0:
64,192,127876,1,0,0:0:0:0:
448,192,127919,1,0,0:0:0:0:
320,192,127963,1,0,0:0:0:0:
64,192,128007,1,0,0:0:0:0:
192,192,128007,1,0,0:0:0:0:
448,192,128072,1,0,0:0:0:0:
320,192,128137,1,0,0:0:0:0:
192,192,128203,1,0,0:0:0:0:
64,192,128268,1,0,0:0:0:0:
448,192,128268,1,0,0:0:0:0:
320,192,128355,1,0,0:0:0:0:
64,192,128443,1,0,0:0:0:0:
192,192,128443,1,0,0:0:0:0:
64,192,128530,1,0,0:0:0:0:
192,192,128530,1,0,0:0:0:0:
320,192,128617,1,0,0:0:0:0:
448,192,128617,1,0,0:0:0:0:
320,192,128704,1,0,0:0:0:0:
448,192,128704,1,0,0:0:0:0:
64,192,128791,1,0,0:0:0:0:
192,192,128791,1,0,0:0:0:0:
64,192,128879,1,0,0:0:0:0:
192,192,128879,1,0,0:0:0:0:
320,192,128966,1,0,0:0:0:0:
448,192,128966,1,0,0:0:0:0:
320,192,129053,1,0,0:0:0:0:
448,192,129053,1,0,0:0:0:0:
64,192,129140,1,0,0:0:0:0:
192,192,129140,1,0,0:0:0:0:
320,192,129315,128,0,129358:0:0:0:0:
320,192,129402,128,0,129445:0:0:0:0:
64,192,129489,1,0,0:0:0:0:
448,192,129489,1,0,0:0:0:0:
320,192,129664,1,0,0:0:0:0:
64,192,129751,1,0,0:0:0:0:
192,192,129751,1,0,0:0:0:0:
448,192,129838,1,0,0:0:0:0:
64,192,129925,1,0,0:0:0:0:
192,192,129925,1,0,0:0:0:0:
320,192,130012,1,0,0:0:0:0:
64,192,130100,1,0,0:0:0:0:
320,192,130187,1,0,0:0:0:0:
448,192,130187,1,0,0:0:0:0:
192,192,130361,1,0,0:0:0:0:
320,192,130448,1,0,0:0:0:0:
192,192,130536,1,0,0:0:0:0:
320,192,130623,1,0,0:0:0:0:
64,192,130710,1,0,0:0:0:0:
192,192,130710,1,0,0:0:0:0:
64,192,130884,1,0,0:0:0:0:
448,192,130884,1,0,0:0:0:0:
320,192,131059,1,0,0:0:0:0:
192,192,131146,1,0,0:0:0:0:
320,192,131233,1,0,0:0:0:0:
448,192,131233,1,0,0:0:0:0:
320,192,131320,1,0,0:0:0:0:
448,192,131320,1,0,0:0:0:0:
64,192,131408,1,0,0:0:0:0:
192,192,131408,1,0,0:0:0:0:
64,192,131495,1,0,0:0:0:0:
192,192,131495,1,0,0:0:0:0:
320,192,131582,1,0,0:0:0:0:
448,192,131582,1,0,0:0:0:0:
320,192,131669,1,0,0:0:0:0:
448,192,131669,1,0,0:0:0:0:
64,192,131757,1,0,0:0:0:0:
192,192,131757,1,0,0:0:0:0:
64,192,131844,1,0,0:0:0:0:
192,192,131844,1,0,0:0:0:0:
320,192,131931,1,0,0:0:0:0:
448,192,131931,1,0,0:0:0:0:
192,192,132105,128,0,132149:0:0:0:0:
192,192,132193,128,0,132236:0:0:0:0:
64,192,132280,1,0,0:0:0:0:
448,192,132280,1,0,0:0:0:0:
192,192,132454,1,0,0:0:0:0:
320,192,132541,1,0,0:0:0:0:
448,192,132541,1,0,0:0:0:0:
192,192,132629,1,0,0:0:0:0:
320,192,132716,1,0,0:0:0:0:
448,192,132716,1,0,0:0:0:0:
64,192,132803,1,0,0:0:0:0:
448,192,132890,1,0,0:0:0:0:
64,192,132977,1,0,0:0:0:0:
320,192,132977,1,0,0:0:0:0:
192,192,133152,1,0,0:0:0:0:
320,192,133239,1,0,0:0:0:0:
64,192,133326,1,0,0:0:0:0:
448,192,133326,1,0,0:0:0:0:
192,192,133370,1,0,0:0:0:0:
320,192,133414,1,0,0:0:0:0:
448,192,133457,1,0,0:0:0:0:
64,192,133501,1,0,0:0:0:0:
192,192,133544,1,0,0:0:0:0:
320,192,133588,1,0,0:0:0:0:
448,192,133588,1,0,0:0:0:0:
64,192,133632,1,0,0:0:0:0:
192,192,133675,1,0,0:0:0:0:
448,192,133719,1,0,0:0:0:0:
320,192,133762,1,0,0:0:0:0:
192,192,133806,1,0,0:0:0:0:
64,192,133850,1,0,0:0:0:0:
448,192,133850,1,0,0:0:0:0:
320,192,133893,1,0,0:0:0:0:
192,192,133937,1,0,0:0:0:0:
64,192,133980,1,0,0:0:0:0:
320,192,134024,128,0,134198:0:0:0:0:
448,192,134053,128,0,134227:0:0:0:0:
64,192,134082,128,0,134257:0:0:0:0:
192,192,134111,128,0,134286:0:0:0:0:
64,192,134373,128,0,134547:0:0:0:0:
320,192,134402,128,0,134576:0:0:0:0:
448,192,134431,128,0,134605:0:0:0:0:
192,192,134460,128,0,134634:0:0:0:0:
64,192,134722,1,0,0:0:0:0:
448,192,134722,1,0,0:0:0:0:
192,192,134896,128,0,134940:0:0:0:0:
192,192,134983,128,0,135027:0:0:0:0:
320,192,135070,1,0,0:0:0:0:
448,192,135070,1,0,0:0:0:0:
448,192,135245,1,0,0:0:0:0:
64,192,135332,1,0,0:0:0:0:
192,192,135332,1,0,0:0:0:0:
320,192,135419,1,0,0:0:0:0:
192,192,135507,1,0,0:0:0:0:
448,192,135594,1,0,0:0:0:0:
64,192,135681,1,0,0:0:0:0:
192,192,135681,1,0,0:0:0:0:
320,192,135768,1,0,0:0:0:0:
448,192,135768,1,0,0:0:0:0:
192,192,135943,1,0,0:0:0:0:
320,192,136030,1,0,0:0:0:0:
192,192,136117,1,0,0:0:0:0:
320,192,136204,1,0,0:0:0:0:
64,192,136291,1,0,0:0:0:0:
192,192,136291,1,0,0:0:0:0:
64,192,136466,1,0,0:0:0:0:
448,192,136466,1,0,0:0:0:0:
320,192,136640,1,0,0:0:0:0:
64,192,136727,1,0,0:0:0:0:
320,192,136815,1,0,0:0:0:0:
448,192,136815,1,0,0:0:0:0:
320,192,136902,1,0,0:0:0:0:
448,192,136902,1,0,0:0:0:0:
64,192,136989,1,0,0:0:0:0:
192,192,136989,1,0,0:0:0:0:
64,192,137076,1,0,0:0:0:0:
192,192,137076,1,0,0:0:0:0:
448,192,137164,128,0,137338:0:0:0:0:
320,192,137207,128,0,137382:0:0:0:0:
64,192,137251,128,0,137425:0:0:0:0:
192,192,137294,128,0,137469:0:0:0:0:
320,192,137512,1,0,0:0:0:0:
448,192,137512,1,0,0:0:0:0:
64,192,137687,1,0,0:0:0:0:
320,192,137687,128,0,137730:0:0:0:0:
320,192,137774,128,0,137818:0:0:0:0:
64,192,137861,1,0,0:0:0:0:
192,192,137861,1,0,0:0:0:0:
64,192,138036,1,0,0:0:0:0:
192,192,138036,1,0,0:0:0:0:
320,192,138123,1,0,0:0:0:0:
448,192,138123,1,0,0:0:0:0:
64,192,138210,1,0,0:0:0:0:
192,192,138210,1,0,0:0:0:0:
320,192,138297,1,0,0:0:0:0:
192,192,138384,1,0,0:0:0:0:
448,192,138384,1,0,0:0:0:0:
64,192,138472,1,0,0:0:0:0:
320,192,138472,1,0,0:0:0:0:
192,192,138559,1,0,0:0:0:0:
448,192,138559,1,0,0:0:0:0:
192,192,138733,1,0,0:0:0:0:
448,192,138733,1,0,0:0:0:0:
320,192,138820,1,0,0:0:0:0:
64,192,138908,1,0,0:0:0:0:
448,192,138908,1,0,0:0:0:0:
192,192,138951,1,0,0:0:0:0:
320,192,138995,1,0,0:0:0:0:
448,192,139039,1,0,0:0:0:0:
64,192,139082,1,0,0:0:0:0:
192,192,139126,1,0,0:0:0:0:
320,192,139169,1,0,0:0:0:0:
448,192,139169,1,0,0:0:0:0:
64,192,139235,1,0,0:0:0:0:
192,192,139300,1,0,0:0:0:0:
320,192,139366,1,0,0:0:0:0:
64,192,139431,1,0,0:0:0:0:
448,192,139431,1,0,0:0:0:0:
192,192,139518,1,0,0:0:0:0:
448,192,139605,128,0,139780:0:0:0:0:
64,192,139634,128,0,139809:0:0:0:0:
192,192,139664,128,0,139838:0:0:0:0:
320,192,139693,128,0,139867:0:0:0:0:
448,192,139954,128,0,140129:0:0:0:0:
192,192,139983,128,0,140158:0:0:0:0:
64,192,140012,128,0,140187:0:0:0:0:
320,192,140041,128,0,140216:0:0:0:0:
64,192,140303,1,0,0:0:0:0:
448,192,140303,1,0,0:0:0:0:
192,192,140477,128,0,140521:0:0:0:0:
192,192,140565,128,0,140608:0:0:0:0:
64,192,140652,1,0,0:0:0:0:
448,192,140652,1,0,0:0:0:0:
320,192,140826,1,0,0:0:0:0:
64,192,140914,1,0,0:0:0:0:
448,192,140914,1,0,0:0:0:0:
192,192,141001,1,0,0:0:0:0:
320,192,141088,1,0,0:0:0:0:
192,192,141175,1,0,0:0:0:0:
320,192,141262,1,0,0:0:0:0:
448,192,141262,1,0,0:0:0:0:
64,192,141350,1,0,0:0:0:0:
192,192,141350,1,0,0:0:0:0:
448,192,141524,1,0,0:0:0:0:
64,192,141611,1,0,0:0:0:0:
448,192,141698,1,0,0:0:0:0:
64,192,141786,1,0,0:0:0:0:
320,192,141873,1,0,0:0:0:0:
448,192,141873,1,0,0:0:0:0:
192,192,142047,1,0,0:0:0:0:
448,192,142047,1,0,0:0:0:0:
192,192,142222,1,0,0:0:0:0:
448,192,142309,1,0,0:0:0:0:
64,192,142396,1,0,0:0:0:0:
192,192,142396,1,0,0:0:0:0:
64,192,142483,1,0,0:0:0:0:
192,192,142483,1,0,0:0:0:0:
320,192,142570,1,0,0:0:0:0:
448,192,142570,1,0,0:0:0:0:
320,192,142658,1,0,0:0:0:0:
448,192,142658,1,0,0:0:0:0:
64,192,142745,128,0,142919:0:0:0:0:
448,192,142789,128,0,142963:0:0:0:0:
192,192,142832,128,0,143007:0:0:0:0:
320,192,142876,128,0,143050:0:0:0:0:
64,192,143094,1,0,0:0:0:0:
192,192,143094,1,0,0:0:0:0:
320,192,143268,128,0,143312:0:0:0:0:
448,192,143268,1,0,0:0:0:0:
320,192,143355,128,0,143399:0:0:0:0:
64,192,143443,1,0,0:0:0:0:
448,192,143443,1,0,0:0:0:0:
320,192,143617,1,0,0:0:0:0:
448,192,143617,1,0,0:0:0:0:
64,192,143704,1,0,0:0:0:0:
192,192,143704,1,0,0:0:0:0:
320,192,143791,1,0,0:0:0:0:
448,192,143791,1,0,0:0:0:0:
192,192,143879,1,0,0:0:0:0:
64,192,143966,1,0,0:0:0:0:
448,192,143966,1,0,0:0:0:0:
192,192,144053,1,0,0:0:0:0:
320,192,144053,1,0,0:0:0:0:
64,192,144140,1,0,0:0:0:0:
448,192,144140,1,0,0:0:0:0:
64,192,144315,1,0,0:0:0:0:
320,192,144315,1,0,0:0:0:0:
192,192,144402,1,0,0:0:0:0:
64,192,144489,1,0,0:0:0:0:
448,192,144489,1,0,0:0:0:0:
320,192,144533,1,0,0:0:0:0:
192,192,144576,1,0,0:0:0:0:
64,192,144620,1,0,0:0:0:0:
448,192,144664,1,0,0:0:0:0:
320,192,144707,1,0,0:0:0:0:
64,192,144751,1,0,0:0:0:0:
192,192,144751,1,0,0:0:0:0:
448,192,144794,1,0,0:0:0:0:
320,192,144838,1,0,0:0:0:0:
64,192,144882,1,0,0:0:0:0:
192,192,144925,1,0,0:0:0:0:
320,192,144969,1,0,0:0:0:0:
64,192,145012,1,0,0:0:0:0:
448,192,145012,1,0,0:0:0:0:
192,192,145056,1,0,0:0:0:0:
320,192,145100,1,0,0:0:0:0:
448,192,145143,1,0,0:0:0:0:
64,192,145187,128,0,145361:0:0:0:0:
320,192,145216,128,0,145390:0:0:0:0:
448,192,145245,128,0,145419:0:0:0:0:
192,192,145274,128,0,145448:0:0:0:0:
64,192,145536,128,0,145710:0:0:0:0:
192,192,145565,128,0,145739:0:0:0:0:
320,192,145594,128,0,145768:0:0:0:0:
448,192,145623,128,0,145797:0:0:0:0:
320,192,145884,1,0,0:0:0:0:
448,192,145884,1,0,0:0:0:0:
448,192,146059,128,0,146102:0:0:0:0:
448,192,146146,128,0,146190:0:0:0:0:
64,192,146233,1,0,0:0:0:0:
192,192,146233,1,0,0:0:0:0:
64,192,146408,1,0,0:0:0:0:
320,192,146495,1,0,0:0:0:0:
448,192,146495,1,0,0:0:0:0:
64,192,146582,1,0,0:0:0:0:
448,192,146669,1,0,0:0:0:0:
192,192,146757,1,0,0:0:0:0:
64,192,146844,1,0,0:0:0:0:
320,192,146844,1,0,0:0:0:0:
192,192,146931,1,0,0:0:0:0:
448,192,146931,1,0,0:0:0:0:
320,192,147105,1,0,0:0:0:0:
64,192,147193,1,0,0:0:0:0:
320,192,147280,1,0,0:0:0:0:
64,192,147367,1,0,0:0:0:0:
320,192,147454,1,0,0:0:0:0:
448,192,147454,1,0,0:0:0:0:
64,192,147629,1,0,0:0:0:0:
448,192,147629,1,0,0:0:0:0:
192,192,147803,1,0,0:0:0:0:
448,192,147890,1,0,0:0:0:0:
64,192,147977,1,0,0:0:0:0:
192,192,147977,1,0,0:0:0:0:
64,192,148065,1,0,0:0:0:0:
192,192,148065,1,0,0:0:0:0:
320,192,148152,1,0,0:0:0:0:
448,192,148152,1,0,0:0:0:0:
320,192,148239,1,0,0:0:0:0:
448,192,148239,1,0,0:0:0:0:
64,192,148326,128,0,148501:0:0:0:0:
448,192,148370,128,0,148544:0:0:0:0:
320,192,148414,128,0,148588:0:0:0:0:
192,192,148457,128,0,148632:0:0:0:0:
320,192,148675,1,0,0:0:0:0:
448,192,148675,1,0,0:0:0:0:
64,192,148850,1,0,0:0:0:0:
192,192,148850,128,0,148893:0:0:0:0:
192,192,148937,128,0,148980:0:0:0:0:
64,192,149024,1,0,0:0:0:0:
320,192,149024,1,0,0:0:0:0:
320,192,149198,1,0,0:0:0:0:
448,192,149198,1,0,0:0:0:0:
64,192,149286,1,0,0:0:0:0:
192,192,149286,1,0,0:0:0:0:
320,192,149373,1,0,0:0:0:0:
448,192,149373,1,0,0:0:0:0:
64,192,149460,1,0,0:0:0:0:
320,192,149547,1,0,0:0:0:0:
448,192,149547,1,0,0:0:0:0:
64,192,149634,1,0,0:0:0:0:
192,192,149634,1,0,0:0:0:0:
320,192,149722,1,0,0:0:0:0:
448,192,149722,1,0,0:0:0:0:
64,192,149896,1,0,0:0:0:0:
320,192,149896,1,0,0:0:0:0:
192,192,149983,1,0,0:0:0:0:
64,192,150070,1,0,0:0:0:0:
448,192,150070,1,0,0:0:0:0:
320,192,150114,1,0,0:0:0:0:
192,192,150158,1,0,0:0:0:0:
64,192,150201,1,0,0:0:0:0:
448,192,150245,1,0,0:0:0:0:
320,192,150289,1,0,0:0:0:0:
64,192,150332,1,0,0:0:0:0:
192,192,150332,1,0,0:0:0:0:
448,192,150398,1,0,0:0:0:0:
320,192,150463,1,0,0:0:0:0:
192,192,150528,1,0,0:0:0:0:
64,192,150594,1,0,0:0:0:0:
448,192,150594,1,0,0:0:0:0:
320,192,150681,1,0,0:0:0:0:
192,192,150768,128,0,150943:0:0:0:0:
320,192,150797,128,0,150972:0:0:0:0:
64,192,150826,128,0,151001:0:0:0:0:
448,192,150855,128,0,151030:0:0:0:0:
64,192,151117,128,0,151291:0:0:0:0:
192,192,151146,128,0,151320:0:0:0:0:
320,192,151175,128,0,151350:0:0:0:0:
448,192,151204,128,0,151379:0:0:0:0:
64,192,151466,1,0,0:0:0:0:
192,192,151466,1,0,0:0:0:0:
320,192,151640,128,0,151684:0:0:0:0:
320,192,151727,128,0,151771:0:0:0:0:
64,192,151815,1,0,0:0:0:0:
448,192,151815,1,0,0:0:0:0:
320,192,151989,1,0,0:0:0:0:
64,192,152076,1,0,0:0:0:0:
192,192,152076,1,0,0:0:0:0:
448,192,152164,1,0,0:0:0:0:
64,192,152251,1,0,0:0:0:0:
320,192,152338,1,0,0:0:0:0:
64,192,152425,1,0,0:0:0:0:
448,192,152425,1,0,0:0:0:0:
192,192,152512,1,0,0:0:0:0:
320,192,152512,1,0,0:0:0:0:
64,192,152687,1,0,0:0:0:0:
320,192,152774,1,0,0:0:0:0:
64,192,152861,1,0,0:0:0:0:
320,192,152948,1,0,0:0:0:0:
64,192,153036,1,0,0:0:0:0:
192,192,153036,1,0,0:0:0:0:
64,192,153210,1,0,0:0:0:0:
448,192,153210,1,0,0:0:0:0:
320,192,153384,1,0,0:0:0:0:
192,192,153472,1,0,0:0:0:0:
320,192,153559,1,0,0:0:0:0:
448,192,153559,1,0,0:0:0:0:
320,192,153646,1,0,0:0:0:0:
448,192,153646,1,0,0:0:0:0:
64,192,153733,1,0,0:0:0:0:
192,192,153733,1,0,0:0:0:0:
64,192,153820,1,0,0:0:0:0:
192,192,153820,1,0,0:0:0:0:
448,192,153908,128,0,154082:0:0:0:0:
320,192,153951,128,0,154126:0:0:0:0:
64,192,153995,128,0,154169:0:0:0:0:
192,192,154039,128,0,154213:0:0:0:0:
320,192,154257,1,0,0:0:0:0:
448,192,154257,1,0,0:0:0:0:
64,192,154431,1,0,0:0:0:0:
192,192,154431,128,0,154475:0:0:0:0:
192,192,154518,128,0,154562:0:0:0:0:
64,192,154605,1,0,0:0:0:0:
448,192,154605,1,0,0:0:0:0:
64,192,154780,1,0,0:0:0:0:
192,192,154780,1,0,0:0:0:0:
320,192,154867,1,0,0:0:0:0:
448,192,154867,1,0,0:0:0:0:
64,192,154954,1,0,0:0:0:0:
192,192,154954,1,0,0:0:0:0:
320,192,155041,1,0,0:0:0:0:
64,192,155129,1,0,0:0:0:0:
192,192,155129,1,0,0:0:0:0:
320,192,155216,1,0,0:0:0:0:
448,192,155216,1,0,0:0:0:0:
64,192,155303,1,0,0:0:0:0:
192,192,155303,1,0,0:0:0:0:
192,192,155477,1,0,0:0:0:0:
320,192,155565,1,0,0:0:0:0:
64,192,155652,1,0,0:0:0:0:
448,192,155652,1,0,0:0:0:0:
192,192,155695,1,0,0:0:0:0:
320,192,155739,1,0,0:0:0:0:
448,192,155783,1,0,0:0:0:0:
64,192,155826,1,0,0:0:0:0:
192,192,155870,1,0,0:0:0:0:
320,192,155914,1,0,0:0:0:0:
448,192,155914,1,0,0:0:0:0:
64,192,155957,1,0,0:0:0:0:
192,192,156001,1,0,0:0:0:0:
448,192,156044,1,0,0:0:0:0:
320,192,156088,1,0,0:0:0:0:
192,192,156132,1,0,0:0:0:0:
64,192,156175,1,0,0:0:0:0:
448,192,156175,1,0,0:0:0:0:
64,192,156350,128,0,156611:0:0:0:0:
192,192,156350,128,0,156611:0:0:0:0:
320,192,156350,128,0,156611:0:0:0:0:
448,192,156350,128,0,156611:0:0:0:0:
64,192,156698,128,0,156960:0:0:0:0:
192,192,156698,128,0,156960:0:0:0:0:
320,192,156698,128,0,156960:0:0:0:0:
448,192,156698,128,0,156960:0:0:0:0:
448,192,157047,128,0,157243:0:0:0:0:
448,192,157309,128,0,157483:0:0:0:0:
320,192,157549,128,0,157767:0:0:0:0:
320,192,157832,128,0,158028:0:0:0:0:
192,192,158094,128,0,158326:0:0:0:0:
192,192,158399,128,0,158661:0:0:0:0:
64,192,158704,128,0,158995:0:0:0:0:
64,192,159075,128,0,159424:0:0:0:0:
448,192,159445,128,0,159794:0:0:0:0:
320,192,159838,128,0,160187:0:0:0:0:
192,192,160536,128,0,161233:0:0:0:0:
448,192,161233,1,0,0:0:0:0:
64,192,161320,1,0,0:0:0:0:
320,192,161408,1,0,0:0:0:0:
64,192,161495,1,0,0:0:0:0:
448,192,161582,1,0,0:0:0:0:
64,192,161669,1,0,0:0:0:0:
192,192,161757,1,0,0:0:0:0:
64,192,161844,1,0,0:0:0:0:
320,192,161931,1,0,0:0:0:0:
64,192,162018,1,0,0:0:0:0:
192,192,162105,1,0,0:0:0:0:
64,192,162193,1,0,0:0:0:0:
448,192,162280,1,0,0:0:0:0:
64,192,162367,1,0,0:0:0:0:
320,192,162454,1,0,0:0:0:0:
64,192,162541,1,0,0:0:0:0:
448,192,162629,128,0,162825:0:0:0:0:
448,192,162890,128,0,163065:0:0:0:0:
320,192,163130,128,0,163348:0:0:0:0:
320,192,163414,128,0,163610:0:0:0:0:
192,192,163675,128,0,163908:0:0:0:0:
192,192,163980,128,0,164242:0:0:0:0:
64,192,164286,128,0,164576:0:0:0:0:
64,192,164656,128,0,165005:0:0:0:0:
448,192,165027,128,0,165376:0:0:0:0:
320,192,165419,128,0,165768:0:0:0:0:
192,192,166117,128,0,166815:0:0:0:0:
64,192,166815,1,0,0:0:0:0:
448,192,166902,1,0,0:0:0:0:
320,192,166989,1,0,0:0:0:0:
448,192,167076,1,0,0:0:0:0:
64,192,167164,1,0,0:0:0:0:
448,192,167251,1,0,0:0:0:0:
192,192,167338,1,0,0:0:0:0:
448,192,167425,1,0,0:0:0:0:
64,192,167512,1,0,0:0:0:0:
448,192,167600,1,0,0:0:0:0:
192,192,167687,1,0,0:0:0:0:
448,192,167774,1,0,0:0:0:0:
64,192,167861,1,0,0:0:0:0:
448,192,167948,1,0,0:0:0:0:
320,192,168036,1,0,0:0:0:0:
448,192,168123,1,0,0:0:0:0:
64,192,168210,128,0,168363:0:0:0:0:
192,192,168232,128,0,168384:0:0:0:0:
320,192,168428,128,0,168602:0:0:0:0:
192,192,168450,128,0,168624:0:0:0:0:
448,192,168668,128,0,168842:0:0:0:0:
320,192,168690,128,0,168864:0:0:0:0:
192,192,168908,128,0,169169:0:0:0:0:
320,192,168930,128,0,169191:0:0:0:0:
64,192,169235,128,0,169453:0:0:0:0:
448,192,169257,128,0,169475:0:0:0:0:
320,192,169518,128,0,169780:0:0:0:0:
448,192,169540,128,0,169802:0:0:0:0:
192,192,169845,128,0,170129:0:0:0:0:
64,192,169867,128,0,170150:0:0:0:0:
320,192,170194,128,0,170499:0:0:0:0:
64,192,170216,128,0,170521:0:0:0:0:
448,192,170565,128,0,170914:0:0:0:0:
192,192,170586,128,0,170935:0:0:0:0:
64,192,170979,128,0,171611:0:0:0:0:
320,192,171001,128,0,171633:0:0:0:0:
192,192,171677,128,0,172374:0:0:0:0:
448,192,171698,128,0,172396:0:0:0:0:
64,192,172396,1,0,0:0:0:0:
448,192,172483,1,0,0:0:0:0:
320,192,172570,1,0,0:0:0:0:
448,192,172658,1,0,0:0:0:0:
64,192,172745,1,0,0:0:0:0:
448,192,172832,1,0,0:0:0:0:
192,192,172919,1,0,0:0:0:0:
448,192,173007,1,0,0:0:0:0:
64,192,173094,1,0,0:0:0:0:
448,192,173181,1,0,0:0:0:0:
192,192,173268,1,0,0:0:0:0:
448,192,173355,1,0,0:0:0:0:
64,192,173443,1,0,0:0:0:0:
448,192,173530,1,0,0:0:0:0:
320,192,173617,1,0,0:0:0:0:
448,192,173704,1,0,0:0:0:0:
64,192,173791,128,0,173944:0:0:0:0:
192,192,173813,128,0,173966:0:0:0:0:
320,192,174009,128,0,174184:0:0:0:0:
192,192,174031,128,0,174206:0:0:0:0:
448,192,174249,128,0,174424:0:0:0:0:
320,192,174271,128,0,174445:0:0:0:0:
192,192,174489,128,0,174751:0:0:0:0:
320,192,174511,128,0,174773:0:0:0:0:
64,192,174816,128,0,175034:0:0:0:0:
448,192,174838,128,0,175056:0:0:0:0:
320,192,175100,128,0,175361:0:0:0:0:
448,192,175121,128,0,175383:0:0:0:0:
192,192,175143,128,0,175209:0:0:0:0:
192,192,175427,128,0,175710:0:0:0:0:
320,192,175427,128,0,175492:0:0:0:0:
64,192,175448,128,0,175732:0:0:0:0:
448,192,175688,128,0,175754:0:0:0:0:
320,192,175775,128,0,176081:0:0:0:0:
64,192,175797,128,0,176102:0:0:0:0:
192,192,175950,128,0,176015:0:0:0:0:
448,192,176146,128,0,176495:0:0:0:0:
192,192,176168,128,0,176517:0:0:0:0:
64,192,176211,128,0,176277:0:0:0:0:
320,192,176495,128,0,176560:0:0:0:0:
64,192,176560,128,0,177193:0:0:0:0:
448,192,176582,128,0,177214:0:0:0:0:
192,192,176844,128,0,176909:0:0:0:0:
320,192,177193,128,0,177258:0:0:0:0:
192,192,177258,128,0,177956:0:0:0:0:
448,192,177280,128,0,177977:0:0:0:0:
64,192,177563,128,0,177629:0:0:0:0:
64,192,179373,128,0,179416:0:0:0:0:
192,192,179373,1,0,0:0:0:0:
320,192,179373,1,0,0:0:0:0:
448,192,179373,128,0,179416:0:0:0:0:
448,192,179722,128,0,179809:0:0:0:0:
448,192,179896,128,0,179983:0:0:0:0:
448,192,180245,128,0,180332:0:0:0:0:
448,192,180419,128,0,180507:0:0:0:0:
448,192,180594,128,0,180681:0:0:0:0:
448,192,180768,128,0,180855:0:0:0:0:
448,192,180943,128,0,181030:0:0:0:0:
448,192,181291,128,0,181379:0:0:0:0:
448,192,181466,128,0,181553:0:0:0:0:
448,192,181640,128,0,181727:0:0:0:0:
448,192,181989,128,0,182076:0:0:0:0:
448,192,182512,128,0,182600:0:0:0:0:
448,192,182687,128,0,182774:0:0:0:0:
448,192,183036,128,0,183123:0:0:0:0:
448,192,183210,128,0,183297:0:0:0:0:
448,192,183384,128,0,183472:0:0:0:0:
448,192,183559,128,0,183646:0:0:0:0:
448,192,183733,128,0,183820:0:0:0:0:
448,192,184082,128,0,184169:0:0:0:0:
448,192,184257,128,0,184344:0:0:0:0:
448,192,184431,128,0,184518:0:0:0:0:
448,192,184780,128,0,184867:0:0:0:0:
448,192,185303,128,0,185390:0:0:0:0:
448,192,185477,128,0,185565:0:0:0:0:
448,192,185826,128,0,185914:0:0:0:0:
448,192,186001,128,0,186088:0:0:0:0:
448,192,186175,128,0,186262:0:0:0:0:
448,192,186350,128,0,186437:0:0:0:0:
448,192,186524,128,0,186611:0:0:0:0:
448,192,186873,128,0,186960:0:0:0:0:
448,192,187047,128,0,187134:0:0:0:0:
448,192,187222,128,0,187309:0:0:0:0:
448,192,187570,128,0,187658:0:0:0:0:
448,192,188094,128,0,188181:0:0:0:0:
448,192,188268,128,0,188355:0:0:0:0:
448,192,188617,128,0,188704:0:0:0:0:
448,192,188791,128,0,188879:0:0:0:0:
448,192,188966,128,0,189053:0:0:0:0:
448,192,189140,128,0,189227:0:0:0:0:
448,192,189315,128,0,189402:0:0:0:0:
448,192,189664,128,0,189751:0:0:0:0:
448,192,189838,128,0,189925:0:0:0:0:
448,192,190012,128,0,190100:0:0:0:0:
448,192,190361,128,0,190448:0:0:0:0:
448,192,190884,128,0,190972:0:0:0:0:
448,192,191059,128,0,191146:0:0:0:0:
448,192,191408,128,0,191495:0:0:0:0:
448,192,191582,128,0,191669:0:0:0:0:
448,192,191757,128,0,191844:0:0:0:0:
448,192,191931,128,0,192018:0:0:0:0:
448,192,192105,128,0,192193:0:0:0:0:
448,192,192454,128,0,192541:0:0:0:0:
448,192,192629,128,0,192716:0:0:0:0:
448,192,192803,128,0,192890:0:0:0:0:
448,192,193152,128,0,193239:0:0:0:0:
448,192,193675,128,0,193762:0:0:0:0:
448,192,193850,128,0,193937:0:0:0:0:
320,192,193937,1,0,0:0:0:0:
448,192,194198,128,0,194286:0:0:0:0:
448,192,194373,128,0,194460:0:0:0:0:
448,192,194547,128,0,194634:0:0:0:0:
448,192,194722,128,0,194809:0:0:0:0:
448,192,194896,128,0,194983:0:0:0:0:
320,192,194983,1,0,0:0:0:0:
448,192,195245,128,0,195332:0:0:0:0:
448,192,195419,128,0,195507:0:0:0:0:
448,192,195594,128,0,195681:0:0:0:0:
448,192,195943,128,0,196030:0:0:0:0:
448,192,196466,128,0,196553:0:0:0:0:
448,192,196640,128,0,196727:0:0:0:0:
320,192,196727,1,0,0:0:0:0:
448,192,196989,128,0,197076:0:0:0:0:
448,192,197164,128,0,197251:0:0:0:0:
320,192,197251,1,0,0:0:0:0:
448,192,197338,128,0,197425:0:0:0:0:
448,192,197512,128,0,197600:0:0:0:0:
448,192,197687,128,0,197774:0:0:0:0:
320,192,197774,1,0,0:0:0:0:
448,192,198036,128,0,198123:0:0:0:0:
448,192,198210,128,0,198297:0:0:0:0:
448,192,198384,128,0,198472:0:0:0:0:
320,192,198472,1,0,0:0:0:0:
448,192,198733,128,0,198820:0:0:0:0:
448,192,199257,128,0,199344:0:0:0:0:
448,192,199431,128,0,199518:0:0:0:0:
320,192,199518,1,0,0:0:0:0:
448,192,199780,128,0,199867:0:0:0:0:
448,192,199954,128,0,200041:0:0:0:0:
320,192,200041,1,0,0:0:0:0:
448,192,200129,128,0,200216:0:0:0:0:
448,192,200303,128,0,200390:0:0:0:0:
448,192,200477,128,0,200565:0:0:0:0:
320,192,200565,1,0,0:0:0:0:
448,192,200826,128,0,200914:0:0:0:0:
64,192,201001,128,0,201175:0:0:0:0:
192,192,201175,128,0,201524:0:0:0:0:
320,192,201524,128,0,201698:0:0:0:0:
64,192,201698,1,0,0:0:0:0:
192,192,201698,1,0,0:0:0:0:
448,192,201698,128,0,223675:0:0:0:0:
192,192,203094,128,0,204489:0:0:0:0:
64,192,204489,1,0,0:0:0:0:
320,192,204489,1,0,0:0:0:0:
192,192,205884,128,0,207280:0:0:0:0:
64,192,207280,1,0,0:0:0:0:
320,192,207280,1,0,0:0:0:0:
192,192,208675,128,0,210070:0:0:0:0:
64,192,210070,1,0,0:0:0:0:
320,192,210070,1,0,0:0:0:0:
192,192,211466,128,0,212861:0:0:0:0:
64,192,212861,1,0,0:0:0:0:
320,192,212861,128,0,223675:0:0:0:0:
192,192,214257,128,0,215652:0:0:0:0:
64,192,215652,1,0,0:0:0:0:
192,192,217047,128,0,218443:0:0:0:0:
64,192,218443,1,0,0:0:0:0:
192,192,219838,128,0,221233:0:0:0:0:
64,192,221233,1,0,0:0:0:0:
192,192,222629,128,0,223675:0:0:0:0:
64,192,224024,128,0,224198:0:0:0:0:
320,192,224053,128,0,224227:0:0:0:0:
192,192,224082,128,0,224257:0:0:0:0:
448,192,224111,128,0,224286:0:0:0:0:
320,192,224373,128,0,224547:0:0:0:0:
192,192,224402,128,0,224576:0:0:0:0:
448,192,224431,128,0,224605:0:0:0:0:
64,192,224460,128,0,224634:0:0:0:0:
448,192,224722,128,0,224896:0:0:0:0:
320,192,224751,128,0,224925:0:0:0:0:
192,192,224780,128,0,224954:0:0:0:0:
64,192,224809,128,0,224983:0:0:0:0:
192,192,225070,128,0,225245:0:0:0:0:
320,192,225100,128,0,225274:0:0:0:0:
448,192,225129,128,0,225303:0:0:0:0:
64,192,225158,128,0,225332:0:0:0:0:
192,192,225419,128,0,225507:0:0:0:0:
64,192,225448,128,0,225507:0:0:0:0:
320,192,225477,128,0,225652:0:0:0:0:
448,192,225507,128,0,225681:0:0:0:0:
64,192,225594,128,0,225710:0:0:0:0:
192,192,225594,128,0,225710:0:0:0:0:
320,192,225768,128,0,225943:0:0:0:0:
64,192,225797,128,0,225972:0:0:0:0:
448,192,225826,128,0,226001:0:0:0:0:
192,192,225855,128,0,226030:0:0:0:0:
64,192,226117,128,0,226291:0:0:0:0:
320,192,226146,128,0,226320:0:0:0:0:
448,192,226175,128,0,226350:0:0:0:0:
192,192,226204,128,0,226379:0:0:0:0:
64,192,226466,128,0,226640:0:0:0:0:
192,192,226495,128,0,226669:0:0:0:0:
320,192,226524,128,0,226698:0:0:0:0:
448,192,226553,128,0,226727:0:0:0:0:
64,192,226815,1,0,0:0:0:0:
192,192,226815,1,0,0:0:0:0:
64,192,226902,1,0,0:0:0:0:
192,192,226902,1,0,0:0:0:0:
320,192,226989,1,0,0:0:0:0:
448,192,226989,1,0,0:0:0:0:
320,192,227076,1,0,0:0:0:0:
448,192,227076,1,0,0:0:0:0:
64,192,227164,1,0,0:0:0:0:
192,192,227164,1,0,0:0:0:0:
64,192,227251,1,0,0:0:0:0:
192,192,227251,1,0,0:0:0:0:
320,192,227338,1,0,0:0:0:0:
448,192,227338,1,0,0:0:0:0:
320,192,227425,1,0,0:0:0:0:
448,192,227425,1,0,0:0:0:0:
64,192,227512,1,0,0:0:0:0:
192,192,227512,1,0,0:0:0:0:
448,192,227570,1,0,0:0:0:0:
320,192,227629,1,0,0:0:0:0:
192,192,227687,1,0,0:0:0:0:
448,192,227745,1,0,0:0:0:0:
64,192,227803,1,0,0:0:0:0:
192,192,227861,1,0,0:0:0:0:
448,192,227919,1,0,0:0:0:0:
320,192,227977,1,0,0:0:0:0:
64,192,228036,1,0,0:0:0:0:
192,192,228036,1,0,0:0:0:0:
448,192,228094,1,0,0:0:0:0:
64,192,228152,1,0,0:0:0:0:
320,192,228210,1,0,0:0:0:0:
192,192,228268,1,0,0:0:0:0:
448,192,228326,1,0,0:0:0:0:
64,192,228384,1,0,0:0:0:0:
192,192,228384,1,0,0:0:0:0:
320,192,228443,1,0,0:0:0:0:
448,192,228501,1,0,0:0:0:0:
192,192,228559,1,0,0:0:0:0:
64,192,228617,1,0,0:0:0:0:
448,192,228675,1,0,0:0:0:0:
320,192,228733,1,0,0:0:0:0:
192,192,228791,1,0,0:0:0:0:
448,192,228850,1,0,0:0:0:0:
64,192,228908,1,0,0:0:0:0:
320,192,228908,1,0,0:0:0:0:
192,192,228966,1,0,0:0:0:0:
320,192,229024,1,0,0:0:0:0:
64,192,229082,1,0,0:0:0:0:
448,192,229140,1,0,0:0:0:0:
320,192,229198,1,0,0:0:0:0:
64,192,229257,1,0,0:0:0:0:
192,192,229257,1,0,0:0:0:0:
192,192,229518,1,0,0:0:0:0:
64,192,229605,1,0,0:0:0:0:
320,192,229605,1,0,0:0:0:0:
448,192,229664,1,0,0:0:0:0:
64,192,229722,1,0,0:0:0:0:
320,192,229780,1,0,0:0:0:0:
64,192,229838,1,0,0:0:0:0:
192,192,229896,1,0,0:0:0:0:
448,192,229954,1,0,0:0:0:0:
64,192,230012,1,0,0:0:0:0:
448,192,230070,1,0,0:0:0:0:
192,192,230129,1,0,0:0:0:0:
448,192,230187,1,0,0:0:0:0:
320,192,230245,1,0,0:0:0:0:
64,192,230303,128,0,230477:0:0:0:0:
192,192,230303,1,0,0:0:0:0:
448,192,230303,128,0,230477:0:0:0:0:
320,192,230477,1,0,0:0:0:0:
64,192,230565,128,0,230739:0:0:0:0:
448,192,230565,128,0,230739:0:0:0:0:
64,192,230826,128,0,231001:0:0:0:0:
192,192,230826,1,0,0:0:0:0:
320,192,230826,1,0,0:0:0:0:
448,192,230826,128,0,231001:0:0:0:0:
320,192,231001,1,0,0:0:0:0:
320,192,231088,1,0,0:0:0:0:
192,192,231175,1,0,0:0:0:0:
448,192,231175,1,0,0:0:0:0:
64,192,231233,1,0,0:0:0:0:
448,192,231291,1,0,0:0:0:0:
64,192,231350,1,0,0:0:0:0:
320,192,231437,1,0,0:0:0:0:
448,192,231437,1,0,0:0:0:0:
192,192,231495,1,0,0:0:0:0:
320,192,231553,1,0,0:0:0:0:
192,192,231611,1,0,0:0:0:0:
64,192,231698,1,0,0:0:0:0:
448,192,231698,1,0,0:0:0:0:
320,192,231757,1,0,0:0:0:0:
192,192,231815,1,0,0:0:0:0:
320,192,231873,1,0,0:0:0:0:
64,192,231931,1,0,0:0:0:0:
448,192,231989,1,0,0:0:0:0:
64,192,232047,1,0,0:0:0:0:
192,192,232047,1,0,0:0:0:0:
320,192,232134,1,0,0:0:0:0:
64,192,232222,1,0,0:0:0:0:
64,192,232309,1,0,0:0:0:0:
320,192,232396,1,0,0:0:0:0:
448,192,232396,1,0,0:0:0:0:
320,192,232483,1,0,0:0:0:0:
448,192,232483,1,0,0:0:0:0:
64,192,232570,1,0,0:0:0:0:
192,192,232570,1,0,0:0:0:0:
64,192,232658,1,0,0:0:0:0:
192,192,232658,1,0,0:0:0:0:
320,192,232745,1,0,0:0:0:0:
448,192,232745,1,0,0:0:0:0:
320,192,232832,1,0,0:0:0:0:
448,192,232832,1,0,0:0:0:0:
64,192,232919,1,0,0:0:0:0:
192,192,232919,1,0,0:0:0:0:
64,192,233007,1,0,0:0:0:0:
192,192,233007,1,0,0:0:0:0:
64,192,233094,128,0,233530:0:0:0:0:
192,192,233094,128,0,234227:0:0:0:0:
320,192,233094,128,0,233268:0:0:0:0:
448,192,233094,128,0,233879:0:0:0:0:
320,192,233355,128,0,234402:0:0:0:0:
64,192,233617,128,0,234664:0:0:0:0:
448,192,233966,128,0,234751:0:0:0:0:
192,192,234315,128,0,234751:0:0:0:0:
320,192,234489,128,0,234751:0:0:0:0:
64,192,234751,1,0,0:0:0:0:
64,192,234838,1,0,0:0:0:0:
192,192,234838,1,0,0:0:0:0:
320,192,234838,1,0,0:0:0:0:
448,192,234838,1,0,0:0:0:0:
64,192,235187,128,0,235274:0:0:0:0:
192,192,235187,128,0,235274:0:0:0:0:
320,192,235187,128,0,235274:0:0:0:0:
448,192,235187,128,0,235274:0:0:0:0:
64,192,235361,128,0,235448:0:0:0:0:
192,192,235361,128,0,235448:0:0:0:0:
320,192,235361,128,0,235448:0:0:0:0:
448,192,235361,128,0,235448:0:0:0:0:
64,192,235536,128,0,235623:0:0:0:0:
192,192,235536,128,0,235623:0:0:0:0:
320,192,235536,128,0,235623:0:0:0:0:
448,192,235536,128,0,235623:0:0:0:0:
64,192,235710,128,0,235797:0:0:0:0:
192,192,235710,128,0,235797:0:0:0:0:
320,192,235710,128,0,235797:0:0:0:0:
448,192,235710,128,0,235797:0:0:0:0:
64,192,235884,128,0,235972:0:0:0:0:
192,192,235884,128,0,235972:0:0:0:0:
320,192,235884,128,0,235972:0:0:0:0:
448,192,235884,128,0,235972:0:0:0:0:
64,192,236059,128,0,236146:0:0:0:0:
192,192,236059,128,0,236146:0:0:0:0:
320,192,236059,128,0,236146:0:0:0:0:
448,192,236059,128,0,236146:0:0:0:0:
64,192,236233,128,0,236320:0:0:0:0:
192,192,236233,128,0,236320:0:0:0:0:
320,192,236233,128,0,236320:0:0:0:0:
448,192,236233,128,0,236320:0:0:0:0:
64,192,236408,128,0,236495:0:0:0:0:
192,192,236408,128,0,236495:0:0:0:0:
320,192,236408,128,0,236495:0:0:0:0:
448,192,236408,128,0,236495:0:0:0:0:
64,192,236582,128,0,236669:0:0:0:0:
192,192,236582,128,0,236669:0:0:0:0:
320,192,236582,128,0,236669:0:0:0:0:
448,192,236582,128,0,236669:0:0:0:0:
64,192,236757,128,0,236844:0:0:0:0:
192,192,236757,128,0,236844:0:0:0:0:
320,192,236757,128,0,236844:0:0:0:0:
448,192,236757,128,0,236844:0:0:0:0:
64,192,236931,128,0,237018:0:0:0:0:
192,192,236931,128,0,237018:0:0:0:0:
320,192,236931,128,0,237018:0:0:0:0:
448,192,236931,128,0,237018:0:0:0:0:
64,192,237105,128,0,237193:0:0:0:0:
192,192,237105,128,0,237193:0:0:0:0:
320,192,237105,128,0,237193:0:0:0:0:
448,192,237105,128,0,237193:0:0:0:0:
64,192,237280,128,0,237367:0:0:0:0:
192,192,237280,128,0,237367:0:0:0:0:
320,192,237280,128,0,237367:0:0:0:0:
448,192,237280,128,0,237367:0:0:0:0:
64,192,237454,128,0,237541:0:0:0:0:
192,192,237454,128,0,237541:0:0:0:0:
320,192,237454,128,0,237541:0:0:0:0:
448,192,237454,128,0,237541:0:0:0:0:
64,192,237629,128,0,237716:0:0:0:0:
192,192,237629,128,0,237716:0:0:0:0:
320,192,237629,128,0,237716:0:0:0:0:
448,192,237629,128,0,237716:0:0:0:0:
64,192,237803,128,0,237890:0:0:0:0:
192,192,237803,128,0,237890:0:0:0:0:
320,192,237803,128,0,237890:0:0:0:0:
448,192,237803,128,0,237890:0:0:0:0:
320,192,237977,1,0,0:0:0:0:
448,192,237977,1,0,0:0:0:0:
320,192,238065,1,0,0:0:0:0:
448,192,238065,1,0,0:0:0:0:
64,192,238152,1,0,0:0:0:0:
192,192,238152,1,0,0:0:0:0:
64,192,238239,1,0,0:0:0:0:
192,192,238239,1,0,0:0:0:0:
320,192,238326,1,0,0:0:0:0:
448,192,238326,1,0,0:0:0:0:
320,192,238414,1,0,0:0:0:0:
448,192,238414,1,0,0:0:0:0:
64,192,238501,1,0,0:0:0:0:
192,192,238501,1,0,0:0:0:0:
64,192,238588,1,0,0:0:0:0:
192,192,238588,1,0,0:0:0:0:
320,192,238675,1,0,0:0:0:0:
448,192,238675,1,0,0:0:0:0:
192,192,238733,1,0,0:0:0:0:
64,192,238791,1,0,0:0:0:0:
448,192,238850,1,0,0:0:0:0:
320,192,238908,1,0,0:0:0:0:
192,192,238966,1,0,0:0:0:0:
448,192,239024,1,0,0:0:0:0:
64,192,239082,1,0,0:0:0:0:
192,192,239140,1,0,0:0:0:0:
320,192,239198,1,0,0:0:0:0:
448,192,239198,1,0,0:0:0:0:
64,192,239257,1,0,0:0:0:0:
192,192,239315,1,0,0:0:0:0:
448,192,239373,1,0,0:0:0:0:
320,192,239431,1,0,0:0:0:0:
192,192,239489,1,0,0:0:0:0:
64,192,239547,1,0,0:0:0:0:
320,192,239605,1,0,0:0:0:0:
448,192,239664,1,0,0:0:0:0:
192,192,239722,1,0,0:0:0:0:
64,192,239780,1,0,0:0:0:0:
448,192,239838,1,0,0:0:0:0:
192,192,239896,1,0,0:0:0:0:
320,192,239954,1,0,0:0:0:0:
64,192,240012,1,0,0:0:0:0:
192,192,240070,1,0,0:0:0:0:
448,192,240070,1,0,0:0:0:0:
320,192,240129,1,0,0:0:0:0:
64,192,240187,1,0,0:0:0:0:
192,192,240245,1,0,0:0:0:0:
448,192,240303,1,0,0:0:0:0:
320,192,240361,1,0,0:0:0:0:
64,192,240419,1,0,0:0:0:0:
192,192,240419,1,0,0:0:0:0:
320,192,240594,1,0,0:0:0:0:
320,192,240681,1,0,0:0:0:0:
192,192,240768,1,0,0:0:0:0:
448,192,240768,1,0,0:0:0:0:
64,192,240826,1,0,0:0:0:0:
448,192,240884,1,0,0:0:0:0:
192,192,240943,1,0,0:0:0:0:
448,192,241001,1,0,0:0:0:0:
320,192,241059,1,0,0:0:0:0:
64,192,241117,1,0,0:0:0:0:
448,192,241175,1,0,0:0:0:0:
64,192,241233,1,0,0:0:0:0:
320,192,241291,1,0,0:0:0:0:
64,192,241350,1,0,0:0:0:0:
192,192,241408,1,0,0:0:0:0:
64,192,241466,128,0,241640:0:0:0:0:
320,192,241466,1,0,0:0:0:0:
448,192,241466,128,0,241640:0:0:0:0:
64,192,241727,128,0,241902:0:0:0:0:
320,192,241727,1,0,0:0:0:0:
448,192,241727,128,0,241902:0:0:0:0:
64,192,241989,128,0,242164:0:0:0:0:
192,192,241989,1,0,0:0:0:0:
320,192,241989,1,0,0:0:0:0:
448,192,241989,128,0,242164:0:0:0:0:
192,192,242164,1,0,0:0:0:0:
192,192,242251,1,0,0:0:0:0:
64,192,242338,1,0,0:0:0:0:
320,192,242338,1,0,0:0:0:0:
448,192,242396,1,0,0:0:0:0:
64,192,242454,1,0,0:0:0:0:
448,192,242512,1,0,0:0:0:0:
64,192,242600,1,0,0:0:0:0:
192,192,242600,1,0,0:0:0:0:
320,192,242658,1,0,0:0:0:0:
192,192,242716,1,0,0:0:0:0:
320,192,242774,1,0,0:0:0:0:
64,192,242861,1,0,0:0:0:0:
448,192,242861,1,0,0:0:0:0:
192,192,242919,1,0,0:0:0:0:
320,192,242977,1,0,0:0:0:0:
192,192,243036,1,0,0:0:0:0:
448,192,243094,1,0,0:0:0:0:
64,192,243152,1,0,0:0:0:0:
320,192,243210,1,0,0:0:0:0:
448,192,243210,1,0,0:0:0:0:
192,192,243297,1,0,0:0:0:0:
448,192,243384,1,0,0:0:0:0:
448,192,243472,1,0,0:0:0:0:
64,192,243559,1,0,0:0:0:0:
192,192,243559,1,0,0:0:0:0:
64,192,243646,1,0,0:0:0:0:
192,192,243646,1,0,0:0:0:0:
320,192,243733,1,0,0:0:0:0:
448,192,243733,1,0,0:0:0:0:
320,192,243820,1,0,0:0:0:0:
448,192,243820,1,0,0:0:0:0:
64,192,243908,1,0,0:0:0:0:
192,192,243908,1,0,0:0:0:0:
64,192,243995,1,0,0:0:0:0:
192,192,243995,1,0,0:0:0:0:
320,192,244082,1,0,0:0:0:0:
448,192,244082,1,0,0:0:0:0:
320,192,244169,1,0,0:0:0:0:
448,192,244169,1,0,0:0:0:0:
64,192,244257,128,0,244693:0:0:0:0:
192,192,244257,128,0,244518:0:0:0:0:
320,192,244257,128,0,245041:0:0:0:0:
448,192,244257,128,0,245565:0:0:0:0:
192,192,244605,128,0,245390:0:0:0:0:
64,192,244780,128,0,245914:0:0:0:0:
320,192,245129,128,0,245914:0:0:0:0:
192,192,245477,128,0,245914:0:0:0:0:
448,192,245652,128,0,245914:0:0:0:0:
64,192,246001,1,0,0:0:0:0:
192,192,246001,128,0,246175:0:0:0:0:
320,192,246001,128,0,246175:0:0:0:0:
448,192,246001,1,0,0:0:0:0:
64,192,246350,1,0,0:0:0:0:
192,192,246393,1,0,0:0:0:0:
320,192,246437,1,0,0:0:0:0:
448,192,246480,1,0,0:0:0:0:
320,192,246655,1,0,0:0:0:0:
192,192,246698,1,0,0:0:0:0:
448,192,246742,1,0,0:0:0:0:
64,192,246786,1,0,0:0:0:0:
64,192,247047,1,0,0:0:0:0:
192,192,247091,1,0,0:0:0:0:
320,192,247134,1,0,0:0:0:0:
448,192,247178,1,0,0:0:0:0:
192,192,247222,1,0,0:0:0:0:
64,192,247265,1,0,0:0:0:0:
320,192,247309,1,0,0:0:0:0:
448,192,247352,1,0,0:0:0:0:
192,192,247570,1,0,0:0:0:0:
320,192,247600,1,0,0:0:0:0:
448,192,247629,1,0,0:0:0:0:
64,192,247745,1,0,0:0:0:0:
192,192,247832,1,0,0:0:0:0:
320,192,247919,1,0,0:0:0:0:
448,192,247919,1,0,0:0:0:0:
64,192,247977,1,0,0:0:0:0:
448,192,248036,1,0,0:0:0:0:
64,192,248094,1,0,0:0:0:0:
192,192,248181,1,0,0:0:0:0:
320,192,248181,1,0,0:0:0:0:
448,192,248239,1,0,0:0:0:0:
192,192,248297,1,0,0:0:0:0:
448,192,248355,1,0,0:0:0:0:
192,192,248443,1,0,0:0:0:0:
320,192,248443,1,0,0:0:0:0:
64,192,248501,1,0,0:0:0:0:
320,192,248559,1,0,0:0:0:0:
192,192,248617,1,0,0:0:0:0:
448,192,248675,1,0,0:0:0:0:
320,192,248733,1,0,0:0:0:0:
64,192,248791,1,0,0:0:0:0:
192,192,248791,1,0,0:0:0:0:
320,192,248879,1,0,0:0:0:0:
448,192,248966,1,0,0:0:0:0:
448,192,249053,1,0,0:0:0:0:
64,192,249140,1,0,0:0:0:0:
192,192,249140,1,0,0:0:0:0:
64,192,249227,1,0,0:0:0:0:
192,192,249227,1,0,0:0:0:0:
320,192,249315,1,0,0:0:0:0:
448,192,249315,1,0,0:0:0:0:
320,192,249402,1,0,0:0:0:0:
448,192,249402,1,0,0:0:0:0:
64,192,249489,1,0,0:0:0:0:
192,192,249489,1,0,0:0:0:0:
64,192,249576,1,0,0:0:0:0:
192,192,249576,1,0,0:0:0:0:
320,192,249664,1,0,0:0:0:0:
448,192,249664,1,0,0:0:0:0:
320,192,249751,1,0,0:0:0:0:
448,192,249751,1,0,0:0:0:0:
64,192,249838,1,0,0:0:0:0:
192,192,249838,1,0,0:0:0:0:
448,192,249896,1,0,0:0:0:0:
320,192,249954,1,0,0:0:0:0:
192,192,250012,1,0,0:0:0:0:
448,192,250070,1,0,0:0:0:0:
64,192,250129,1,0,0:0:0:0:
192,192,250187,1,0,0:0:0:0:
448,192,250245,1,0,0:0:0:0:
320,192,250303,1,0,0:0:0:0:
64,192,250361,1,0,0:0:0:0:
192,192,250361,1,0,0:0:0:0:
448,192,250419,1,0,0:0:0:0:
64,192,250477,1,0,0:0:0:0:
320,192,250536,1,0,0:0:0:0:
192,192,250594,1,0,0:0:0:0:
448,192,250652,1,0,0:0:0:0:
64,192,250710,1,0,0:0:0:0:
192,192,250710,1,0,0:0:0:0:
320,192,250768,1,0,0:0:0:0:
448,192,250826,1,0,0:0:0:0:
192,192,250884,1,0,0:0:0:0:
64,192,250943,1,0,0:0:0:0:
448,192,251001,1,0,0:0:0:0:
320,192,251059,1,0,0:0:0:0:
192,192,251117,1,0,0:0:0:0:
448,192,251175,1,0,0:0:0:0:
64,192,251233,1,0,0:0:0:0:
320,192,251233,1,0,0:0:0:0:
192,192,251291,1,0,0:0:0:0:
320,192,251350,1,0,0:0:0:0:
64,192,251408,1,0,0:0:0:0:
448,192,251466,1,0,0:0:0:0:
320,192,251524,1,0,0:0:0:0:
64,192,251582,1,0,0:0:0:0:
192,192,251582,1,0,0:0:0:0:
192,192,251757,1,0,0:0:0:0:
192,192,251844,1,0,0:0:0:0:
64,192,251931,1,0,0:0:0:0:
448,192,251931,1,0,0:0:0:0:
320,192,251975,1,0,0:0:0:0:
192,192,252018,1,0,0:0:0:0:
448,192,252062,1,0,0:0:0:0:
64,192,252105,1,0,0:0:0:0:
192,192,252164,1,0,0:0:0:0:
320,192,252222,1,0,0:0:0:0:
64,192,252280,1,0,0:0:0:0:
448,192,252280,1,0,0:0:0:0:
192,192,252323,1,0,0:0:0:0:
320,192,252367,1,0,0:0:0:0:
448,192,252411,1,0,0:0:0:0:
192,192,252454,1,0,0:0:0:0:
64,192,252512,1,0,0:0:0:0:
320,192,252570,1,0,0:0:0:0:
64,192,252629,1,0,0:0:0:0:
448,192,252629,1,0,0:0:0:0:
320,192,252672,1,0,0:0:0:0:
192,192,252716,1,0,0:0:0:0:
64,192,252759,1,0,0:0:0:0:
448,192,252803,1,0,0:0:0:0:
320,192,252861,1,0,0:0:0:0:
192,192,252919,1,0,0:0:0:0:
64,192,252977,1,0,0:0:0:0:
448,192,252977,1,0,0:0:0:0:
320,192,253021,1,0,0:0:0:0:
192,192,253065,1,0,0:0:0:0:
448,192,253108,1,0,0:0:0:0:
64,192,253152,1,0,0:0:0:0:
320,192,253152,1,0,0:0:0:0:
192,192,253210,1,0,0:0:0:0:
320,192,253268,1,0,0:0:0:0:
64,192,253326,1,0,0:0:0:0:
448,192,253326,1,0,0:0:0:0:
320,192,253501,1,0,0:0:0:0:
448,192,253501,1,0,0:0:0:0:
192,192,253559,1,0,0:0:0:0:
320,192,253617,1,0,0:0:0:0:
192,192,253675,1,0,0:0:0:0:
64,192,253762,1,0,0:0:0:0:
320,192,253762,1,0,0:0:0:0:
448,192,253820,1,0,0:0:0:0:
64,192,253879,1,0,0:0:0:0:
448,192,253937,1,0,0:0:0:0:
192,192,254024,1,0,0:0:0:0:
320,192,254024,1,0,0:0:0:0:
64,192,254082,1,0,0:0:0:0:
320,192,254140,1,0,0:0:0:0:
192,192,254198,1,0,0:0:0:0:
448,192,254257,1,0,0:0:0:0:
320,192,254315,1,0,0:0:0:0:
64,192,254373,1,0,0:0:0:0:
192,192,254373,1,0,0:0:0:0:
320,192,254460,1,0,0:0:0:0:
64,192,254547,1,0,0:0:0:0:
64,192,254634,1,0,0:0:0:0:
320,192,254722,1,0,0:0:0:0:
448,192,254722,1,0,0:0:0:0:
320,192,254809,1,0,0:0:0:0:
448,192,254809,1,0,0:0:0:0:
64,192,254896,1,0,0:0:0:0:
192,192,254896,1,0,0:0:0:0:
64,192,254983,1,0,0:0:0:0:
192,192,254983,1,0,0:0:0:0:
320,192,255070,1,0,0:0:0:0:
448,192,255070,1,0,0:0:0:0:
320,192,255158,1,0,0:0:0:0:
448,192,255158,1,0,0:0:0:0:
64,192,255245,1,0,0:0:0:0:
192,192,255245,1,0,0:0:0:0:
64,192,255332,1,0,0:0:0:0:
192,192,255332,1,0,0:0:0:0:
64,192,255419,128,0,255855:0:0:0:0:
192,192,255419,128,0,256553:0:0:0:0:
320,192,255419,128,0,255594:0:0:0:0:
448,192,255419,128,0,256204:0:0:0:0:
320,192,255681,128,0,256727:0:0:0:0:
64,192,255943,128,0,256989:0:0:0:0:
448,192,256291,128,0,257076:0:0:0:0:
192,192,256640,128,0,257076:0:0:0:0:
320,192,256815,128,0,257076:0:0:0:0:
64,192,257076,1,0,0:0:0:0:
64,192,257164,1,0,0:0:0:0:
192,192,257164,1,0,0:0:0:0:
320,192,257164,1,0,0:0:0:0:
448,192,257164,1,0,0:0:0:0:
64,192,257512,128,0,257600:0:0:0:0:
192,192,257512,128,0,257600:0:0:0:0:
320,192,257512,128,0,257600:0:0:0:0:
448,192,257512,128,0,257600:0:0:0:0:
64,192,257687,128,0,257774:0:0:0:0:
192,192,257687,128,0,257774:0:0:0:0:
320,192,257687,128,0,257774:0:0:0:0:
448,192,257687,128,0,257774:0:0:0:0:
64,192,257861,128,0,257948:0:0:0:0:
192,192,257861,128,0,257948:0:0:0:0:
320,192,257861,128,0,257948:0:0:0:0:
448,192,257861,128,0,257948:0:0:0:0:
64,192,258036,128,0,258123:0:0:0:0:
192,192,258036,128,0,258123:0:0:0:0:
320,192,258036,128,0,258123:0:0:0:0:
448,192,258036,128,0,258123:0:0:0:0:
64,192,258210,128,0,258297:0:0:0:0:
192,192,258210,128,0,258297:0:0:0:0:
320,192,258210,128,0,258297:0:0:0:0:
448,192,258210,128,0,258297:0:0:0:0:
64,192,258384,128,0,258472:0:0:0:0:
192,192,258384,128,0,258472:0:0:0:0:
320,192,258384,128,0,258472:0:0:0:0:
448,192,258384,128,0,258472:0:0:0:0:
64,192,258559,128,0,258646:0:0:0:0:
192,192,258559,128,0,258646:0:0:0:0:
320,192,258559,128,0,258646:0:0:0:0:
448,192,258559,128,0,258646:0:0:0:0:
64,192,258733,128,0,258820:0:0:0:0:
192,192,258733,128,0,258820:0:0:0:0:
320,192,258733,128,0,258820:0:0:0:0:
448,192,258733,128,0,258820:0:0:0:0:
64,192,258908,128,0,258995:0:0:0:0:
192,192,258908,128,0,258995:0:0:0:0:
320,192,258908,128,0,258995:0:0:0:0:
448,192,258908,128,0,258995:0:0:0:0:
64,192,259082,128,0,259169:0:0:0:0:
192,192,259082,128,0,259169:0:0:0:0:
320,192,259082,128,0,259169:0:0:0:0:
448,192,259082,128,0,259169:0:0:0:0:
64,192,259257,128,0,259344:0:0:0:0:
192,192,259257,128,0,259344:0:0:0:0:
320,192,259257,128,0,259344:0:0:0:0:
448,192,259257,128,0,259344:0:0:0:0:
64,192,259431,128,0,259518:0:0:0:0:
192,192,259431,128,0,259518:0:0:0:0:
320,192,259431,128,0,259518:0:0:0:0:
448,192,259431,128,0,259518:0:0:0:0:
64,192,259605,128,0,259693:0:0:0:0:
192,192,259605,128,0,259693:0:0:0:0:
320,192,259605,128,0,259693:0:0:0:0:
448,192,259605,128,0,259693:0:0:0:0:
64,192,259780,128,0,259867:0:0:0:0:
192,192,259780,128,0,259867:0:0:0:0:
320,192,259780,128,0,259867:0:0:0:0:
448,192,259780,128,0,259867:0:0:0:0:
64,192,259954,128,0,260041:0:0:0:0:
192,192,259954,128,0,260041:0:0:0:0:
320,192,259954,128,0,260041:0:0:0:0:
448,192,259954,128,0,260041:0:0:0:0:
64,192,260129,128,0,260216:0:0:0:0:
192,192,260129,128,0,260216:0:0:0:0:
320,192,260129,128,0,260216:0:0:0:0:
448,192,260129,128,0,260216:0:0:0:0:
64,192,260303,1,0,0:0:0:0:
192,192,260303,1,0,0:0:0:0:
64,192,260390,1,0,0:0:0:0:
192,192,260390,1,0,0:0:0:0:
320,192,260477,1,0,0:0:0:0:
448,192,260477,1,0,0:0:0:0:
320,192,260565,1,0,0:0:0:0:
448,192,260565,1,0,0:0:0:0:
64,192,260652,1,0,0:0:0:0:
192,192,260652,1,0,0:0:0:0:
64,192,260739,1,0,0:0:0:0:
192,192,260739,1,0,0:0:0:0:
320,192,260826,1,0,0:0:0:0:
448,192,260826,1,0,0:0:0:0:
320,192,260914,1,0,0:0:0:0:
448,192,260914,1,0,0:0:0:0:
64,192,261001,1,0,0:0:0:0:
192,192,261001,1,0,0:0:0:0:
320,192,261088,1,0,0:0:0:0:
192,192,261175,1,0,0:0:0:0:
320,192,261262,1,0,0:0:0:0:
192,192,261350,1,0,0:0:0:0:
448,192,261350,1,0,0:0:0:0:
320,192,261437,1,0,0:0:0:0:
64,192,261524,1,0,0:0:0:0:
192,192,261524,1,0,0:0:0:0:
320,192,261611,1,0,0:0:0:0:
192,192,261698,1,0,0:0:0:0:
320,192,261786,1,0,0:0:0:0:
64,192,261873,1,0,0:0:0:0:
192,192,261873,1,0,0:0:0:0:
320,192,261960,1,0,0:0:0:0:
192,192,262047,1,0,0:0:0:0:
320,192,262134,1,0,0:0:0:0:
192,192,262222,1,0,0:0:0:0:
448,192,262222,1,0,0:0:0:0:
320,192,262309,1,0,0:0:0:0:
192,192,262396,1,0,0:0:0:0:
448,192,262396,1,0,0:0:0:0:
320,192,262483,1,0,0:0:0:0:
192,192,262570,1,0,0:0:0:0:
320,192,262658,1,0,0:0:0:0:
64,192,262745,1,0,0:0:0:0:
448,192,262745,1,0,0:0:0:0:
320,192,262803,1,0,0:0:0:0:
192,192,262861,1,0,0:0:0:0:
64,192,262919,1,0,0:0:0:0:
448,192,262977,1,0,0:0:0:0:
320,192,263036,1,0,0:0:0:0:
64,192,263094,128,0,263268:0:0:0:0:
192,192,263137,128,0,263312:0:0:0:0:
448,192,263181,128,0,263355:0:0:0:0:
320,192,263225,128,0,263399:0:0:0:0:
192,192,263443,128,0,263617:0:0:0:0:
64,192,263486,128,0,263661:0:0:0:0:
320,192,263530,128,0,263704:0:0:0:0:
448,192,263573,128,0,263748:0:0:0:0:
64,192,263791,128,0,263966:0:0:0:0:
448,192,263835,128,0,264009:0:0:0:0:
192,192,263879,128,0,264053:0:0:0:0:
320,192,263922,128,0,264097:0:0:0:0:
448,192,264140,128,0,264315:0:0:0:0:
192,192,264184,128,0,264358:0:0:0:0:
320,192,264227,128,0,264402:0:0:0:0:
64,192,264271,128,0,264445:0:0:0:0:
448,192,264489,1,0,0:0:0:0:
448,192,264576,1,0,0:0:0:0:
192,192,264664,1,0,0:0:0:0:
320,192,264664,1,0,0:0:0:0:
448,192,264722,1,0,0:0:0:0:
192,192,264780,1,0,0:0:0:0:
448,192,264838,1,0,0:0:0:0:
64,192,264925,1,0,0:0:0:0:
320,192,264925,1,0,0:0:0:0:
192,192,264983,1,0,0:0:0:0:
320,192,265041,1,0,0:0:0:0:
192,192,265100,1,0,0:0:0:0:
320,192,265187,1,0,0:0:0:0:
448,192,265187,1,0,0:0:0:0:
192,192,265245,1,0,0:0:0:0:
320,192,265303,1,0,0:0:0:0:
64,192,265361,1,0,0:0:0:0:
448,192,265419,1,0,0:0:0:0:
192,192,265477,1,0,0:0:0:0:
64,192,265536,1,0,0:0:0:0:
320,192,265536,1,0,0:0:0:0:
192,192,265623,1,0,0:0:0:0:
320,192,265710,1,0,0:0:0:0:
320,192,265797,1,0,0:0:0:0:
64,192,265884,1,0,0:0:0:0:
192,192,265884,1,0,0:0:0:0:
64,192,265972,1,0,0:0:0:0:
192,192,265972,1,0,0:0:0:0:
320,192,266059,1,0,0:0:0:0:
448,192,266059,1,0,0:0:0:0:
320,192,266146,1,0,0:0:0:0:
448,192,266146,1,0,0:0:0:0:
64,192,266233,1,0,0:0:0:0:
192,192,266233,1,0,0:0:0:0:
64,192,266320,1,0,0:0:0:0:
192,192,266320,1,0,0:0:0:0:
320,192,266408,1,0,0:0:0:0:
448,192,266408,1,0,0:0:0:0:
320,192,266495,1,0,0:0:0:0:
448,192,266495,1,0,0:0:0:0:
64,192,266582,128,0,267018:0:0:0:0:
192,192,266582,128,0,266844:0:0:0:0:
320,192,266582,128,0,267367:0:0:0:0:
448,192,266582,128,0,267890:0:0:0:0:
192,192,266931,128,0,267716:0:0:0:0:
64,192,267105,128,0,268239:0:0:0:0:
320,192,267454,128,0,268239:0:0:0:0:
192,192,267803,128,0,268239:0:0:0:0:
448,192,267977,128,0,268239:0:0:0:0:
64,192,268326,1,0,0:0:0:0:
192,192,268326,128,0,268501:0:0:0:0:
320,192,268326,128,0,268501:0:0:0:0:
448,192,268326,1,0,0:0:0:0:
64,192,268675,1,0,0:0:0:0:
192,192,268675,1,0,0:0:0:0:
320,192,268675,1,0,0:0:0:0:
448,192,268675,128,0,268850:0:0:0:0:
64,192,268850,128,0,269024:0:0:0:0:
192,192,269024,1,0,0:0:0:0:
448,192,269024,128,0,269198:0:0:0:0:
64,192,269198,128,0,269373:0:0:0:0:
320,192,269373,1,0,0:0:0:0:
448,192,269373,128,0,269547:0:0:0:0:
64,192,269547,128,0,269722:0:0:0:0:
192,192,269722,1,0,0:0:0:0:
448,192,269722,128,0,269896:0:0:0:0:
64,192,269896,128,0,270070:0:0:0:0:
320,192,270070,1,0,0:0:0:0:
448,192,270070,128,0,270245:0:0:0:0:
64,192,270245,128,0,270419:0:0:0:0:
192,192,270419,1,0,0:0:0:0:
448,192,270419,128,0,270594:0:0:0:0:
64,192,270594,128,0,270768:0:0:0:0:
320,192,270768,1,0,0:0:0:0:
448,192,270768,128,0,270943:0:0:0:0:
64,192,270943,128,0,271117:0:0:0:0:
192,192,271117,1,0,0:0:0:0:
448,192,271117,128,0,271291:0:0:0:0:
64,192,271291,128,0,271466:0:0:0:0:
192,192,271466,1,0,0:0:0:0:
448,192,271466,128,0,271640:0:0:0:0:
64,192,271640,128,0,271815:0:0:0:0:
320,192,271815,1,0,0:0:0:0:
448,192,271815,128,0,271989:0:0:0:0:
64,192,271989,128,0,272164:0:0:0:0:
192,192,272164,1,0,0:0:0:0:
448,192,272164,128,0,272338:0:0:0:0:
64,192,272338,128,0,272512:0:0:0:0:
320,192,272512,1,0,0:0:0:0:
448,192,272512,128,0,272687:0:0:0:0:
64,192,272687,128,0,272861:0:0:0:0:
192,192,272861,1,0,0:0:0:0:
448,192,272861,128,0,273036:0:0:0:0:
64,192,273036,128,0,273210:0:0:0:0:
320,192,273210,1,0,0:0:0:0:
448,192,273210,128,0,273384:0:0:0:0:
64,192,273384,128,0,273559:0:0:0:0:
192,192,273559,1,0,0:0:0:0:
448,192,273559,128,0,273733:0:0:0:0:
64,192,273733,128,0,273908:0:0:0:0:
320,192,273908,1,0,0:0:0:0:
448,192,273908,128,0,274082:0:0:0:0:
64,192,274082,128,0,274257:0:0:0:0:
192,192,274257,1,0,0:0:0:0:
320,192,274257,1,0,0:0:0:0:
448,192,274257,128,0,274431:0:0:0:0:
64,192,274431,128,0,274605:0:0:0:0:
192,192,274605,1,0,0:0:0:0:
448,192,274605,128,0,274780:0:0:0:0:
64,192,274780,128,0,274954:0:0:0:0:
320,192,274954,1,0,0:0:0:0:
448,192,274954,128,0,275129:0:0:0:0:
64,192,275129,128,0,275303:0:0:0:0:
192,192,275303,1,0,0:0:0:0:
448,192,275303,128,0,275477:0:0:0:0:
64,192,275477,128,0,275652:0:0:0:0:
320,192,275652,1,0,0:0:0:0:
448,192,275652,128,0,275826:0:0:0:0:
64,192,275826,128,0,276001:0:0:0:0:
192,192,276001,1,0,0:0:0:0:
448,192,276001,128,0,276175:0:0:0:0:
64,192,276175,128,0,276350:0:0:0:0:
320,192,276350,1,0,0:0:0:0:
448,192,276350,128,0,276524:0:0:0:0:
64,192,276524,128,0,276698:0:0:0:0:
192,192,276698,1,0,0:0:0:0:
448,192,276698,128,0,276873:0:0:0:0:
64,192,276873,128,0,277047:0:0:0:0:
192,192,277047,1,0,0:0:0:0:
448,192,277047,128,0,277222:0:0:0:0:
64,192,277222,128,0,277396:0:0:0:0:
320,192,277396,1,0,0:0:0:0:
448,192,277396,128,0,277570:0:0:0:0:
64,192,277570,128,0,277745:0:0:0:0:
192,192,277745,1,0,0:0:0:0:
448,192,277745,128,0,277919:0:0:0:0:
64,192,277919,128,0,278094:0:0:0:0:
320,192,278094,1,0,0:0:0:0:
448,192,278094,128,0,278268:0:0:0:0:
64,192,278268,128,0,278443:0:0:0:0:
192,192,278443,1,0,0:0:0:0:
448,192,278443,128,0,278617:0:0:0:0:
64,192,278617,128,0,278791:0:0:0:0:
320,192,278791,1,0,0:0:0:0:
448,192,278791,128,0,278966:0:0:0:0:
64,192,278966,128,0,279140:0:0:0:0:
192,192,279140,1,0,0:0:0:0:
448,192,279140,128,0,279315:0:0:0:0:
64,192,279315,128,0,279489:0:0:0:0:
320,192,279489,1,0,0:0:0:0:
448,192,279489,128,0,279664:0:0:0:0:
64,192,279664,128,0,279838:0:0:0:0:
192,192,279838,1,0,0:0:0:0:
320,192,279838,1,0,0:0:0:0:
448,192,279838,128,0,280012:0:0:0:0:
64,192,280012,128,0,280187:0:0:0:0:
192,192,280187,1,0,0:0:0:0:
448,192,280187,128,0,280361:0:0:0:0:
64,192,280361,128,0,280536:0:0:0:0:
320,192,280536,1,0,0:0:0:0:
448,192,280536,128,0,280710:0:0:0:0:
64,192,280710,128,0,280884:0:0:0:0:
192,192,280884,1,0,0:0:0:0:
448,192,280884,128,0,281059:0:0:0:0:
64,192,281059,128,0,281233:0:0:0:0:
320,192,281233,1,0,0:0:0:0:
448,192,281233,128,0,281408:0:0:0:0:
64,192,281408,128,0,281582:0:0:0:0:
192,192,281582,1,0,0:0:0:0:
448,192,281582,128,0,281757:0:0:0:0:
64,192,281757,128,0,281931:0:0:0:0:
320,192,281931,1,0,0:0:0:0:
448,192,281931,128,0,282105:0:0:0:0:
64,192,282105,128,0,282280:0:0:0:0:
192,192,282280,1,0,0:0:0:0:
448,192,282280,128,0,282454:0:0:0:0:
64,192,282454,128,0,282629:0:0:0:0:
192,192,282629,1,0,0:0:0:0:
448,192,282629,128,0,282803:0:0:0:0:
64,192,282803,128,0,282977:0:0:0:0:
320,192,282977,1,0,0:0:0:0:
448,192,282977,128,0,283152:0:0:0:0:
64,192,283152,128,0,283326:0:0:0:0:
192,192,283326,1,0,0:0:0:0:
448,192,283326,128,0,283501:0:0:0:0:
64,192,283501,128,0,283675:0:0:0:0:
320,192,283675,1,0,0:0:0:0:
448,192,283675,128,0,283850:0:0:0:0:
64,192,283850,128,0,284024:0:0:0:0:
192,192,284024,1,0,0:0:0:0:
448,192,284024,128,0,284198:0:0:0:0:
64,192,284198,128,0,284373:0:0:0:0:
320,192,284373,1,0,0:0:0:0:
448,192,284373,128,0,284547:0:0:0:0:
64,192,284547,128,0,284722:0:0:0:0:
192,192,284722,1,0,0:0:0:0:
448,192,284722,128,0,284896:0:0:0:0:
64,192,284896,128,0,285070:0:0:0:0:
320,192,285070,1,0,0:0:0:0:
448,192,285070,128,0,285245:0:0:0:0:
64,192,285245,128,0,285419:0:0:0:0:
192,192,285419,1,0,0:0:0:0:
320,192,285419,1,0,0:0:0:0:
448,192,285419,128,0,285594:0:0:0:0:
192,192,285594,128,0,285768:0:0:0:0:
320,192,285768,128,0,285943:0:0:0:0:
64,192,285943,128,0,286117:0:0:0:0:
448,192,286117,128,0,286291:0:0:0:0:
192,192,286291,128,0,286466:0:0:0:0:
320,192,286466,128,0,286640:0:0:0:0:
64,192,286640,128,0,286815:0:0:0:0:
192,192,286815,128,0,286989:0:0:0:0:
320,192,286989,128,0,287164:0:0:0:0:
448,192,287164,128,0,287338:0:0:0:0:
64,192,287338,128,0,287512:0:0:0:0:
192,192,287512,128,0,287687:0:0:0:0:
320,192,287687,128,0,287861:0:0:0:0:
448,192,287861,128,0,288036:0:0:0:0:
64,192,288036,128,0,288210:0:0:0:0:
192,192,288210,128,0,288384:0:0:0:0:
448,192,288384,128,0,288559:0:0:0:0:
320,192,288559,128,0,288733:0:0:0:0:
192,192,288733,128,0,288908:0:0:0:0:
64,192,288908,128,0,289082:0:0:0:0:
448,192,289082,128,0,289257:0:0:0:0:
320,192,289257,128,0,289431:0:0:0:0:
192,192,289431,128,0,289605:0:0:0:0:
64,192,289605,128,0,289780:0:0:0:0:
320,192,289780,128,0,289954:0:0:0:0:
192,192,289954,128,0,290129:0:0:0:0:
320,192,290129,128,0,290303:0:0:0:0:
192,192,290303,128,0,290477:0:0:0:0:
448,192,290477,128,0,290652:0:0:0:0:
64,192,290652,128,0,290826:0:0:0:0:
192,192,290652,128,0,291001:0:0:0:0:
320,192,290826,128,0,291001:0:0:0:0:
64,192,291001,1,0,0:0:0:0:
448,192,291001,1,0,0:0:0:0:
