osu file format v14

[General]
AudioFilename: audio.mp3
AudioLeadIn: 0
PreviewTime: 62131
Countdown: 0
SampleSet: Soft
StackLeniency: 0.2
Mode: 0
LetterboxInBreaks: 0
WidescreenStoryboard: 0

[Editor]
DistanceSpacing: 1.2
BeatDivisor: 4
GridSize: 4
TimelineZoom: 1

[Metadata]
Title:Bitch Lasagna v1.2 (Remixed by Dylan Locke)
TitleUnicode:Bitch Lasagna v1.2 (Remixed by Dylan Locke)
Artist:Pewdiepie x Party in Backyard x Dylan Locke
ArtistUnicode:Pewdiepie x Party in Backyard x Dylan Locke
Creator:John5678
Version:Diss series
Source:
Tags:Bitch Lasagna T-series diss track Pewdiepie Party in Backyard Dylan Locke remix
BeatmapID:1867687
BeatmapSetID:893711

[Difficulty]
HPDrainRate:5.5
CircleSize:4
OverallDifficulty:8
ApproachRate:9.4
SliderMultiplier:2.7
SliderTickRate:1

[Events]
//Background and Video events
0,0,"BLASAGNA.jpg",0,0
//Break Periods
//Storyboard Layer 0 (Background)
//Storyboard Layer 1 (Fail)
//Storyboard Layer 2 (Pass)
//Storyboard Layer 3 (Foreground)
//Storyboard Sound Samples

[TimingPoints]
205,387.096774193548,4,2,0,20,1,0
11817,-39.2156862745098,4,2,0,20,0,0
12011,-46.5116279069767,4,2,0,20,0,0
12205,-400,4,2,0,20,0,0
12592,-95.2380952380952,4,2,0,20,0,0
13753,-666.666666666667,4,2,0,20,0,0
14527,-222.222222222222,4,2,0,20,0,0
14914,-80,4,2,0,20,0,0
15688,-400,4,2,0,20,0,0
16075,-80,4,2,0,20,0,0
17237,-100,4,2,0,20,0,0
18011,-666.666666666667,4,2,0,20,0,0
18205,-133.333333333333,4,2,0,20,0,0
18398,-54.054054054054,4,2,0,20,0,0
18785,-285.714285714286,4,2,0,20,0,0
18979,-133.333333333333,4,2,0,20,0,0
19172,-86.9565217391304,4,2,0,20,0,0
19366,-57.1428571428571,4,2,0,20,0,0
19559,-95.2380952380952,4,2,0,20,0,0
19946,-666.666666666667,4,2,0,20,0,0
20721,-222.222222222222,4,2,0,20,0,0
21108,-80,4,2,0,20,0,0
21495,-95.2380952380952,4,2,0,20,0,0
21882,-64.5161290322581,4,2,0,20,0,0
22075,-95.2380952380952,4,2,0,20,0,0
22269,-64.5161290322581,4,2,0,20,0,0
22463,-95.2380952380952,4,2,0,20,0,0
22656,-666.666666666667,4,2,0,20,0,0
23043,-95.2380952380952,4,2,0,20,0,0
24979,-48.780487804878,4,2,0,20,0,0
25366,-86.9565217391304,4,2,0,20,0,0
26914,-68.9655172413793,4,2,0,20,0,0
27108,-57.1428571428571,4,2,0,20,0,0
27301,-400,4,2,0,20,0,0
27688,-64.5161290322581,4,2,0,20,0,0
28075,-86.9565217391304,4,2,0,20,0,0
28656,-64.5161290322581,4,2,0,20,0,0
28850,-400,4,2,0,20,0,0
29237,-181.818181818182,4,2,0,20,0,0
29430,-86.9565217391304,4,2,0,20,0,0
29624,-68.9655172413793,4,2,0,20,0,0
29817,-57.1428571428571,4,2,0,20,0,0
30011,-86.9565217391304,4,2,0,20,0,0
30398,-48.780487804878,4,2,0,20,0,0
30592,-57.1428571428571,4,2,0,20,0,0
30785,-68.9655172413793,4,2,0,20,0,0
30979,-86.9565217391304,4,2,0,20,0,0
31172,-48.780487804878,4,2,0,20,0,0
31559,-80,4,2,0,20,0,0
31946,-68.9655172413793,4,2,0,20,0,0
34269,-64.5161290322581,4,2,0,20,0,0
35430,-133.333333333333,4,2,0,20,0,0
35817,-68.9655172413793,4,2,0,20,0,0
37366,-74.0740740740741,4,3,0,55,0,0
47430,-54.054054054054,4,3,0,55,0,0
47624,-222.222222222222,4,3,0,55,0,0
47817,-52.6315789473684,4,3,0,55,0,0
48011,-200,4,3,0,55,0,0
48205,-68.9655172413793,4,3,0,55,0,0
55946,-64.5161290322581,4,2,0,20,0,0
56334,-68.9655172413793,4,2,0,20,0,0
56721,-74.0740740740741,4,2,0,20,0,0
57108,-80,4,2,0,20,0,0
57495,-86.9565217391304,4,2,0,20,0,0
57882,-95.2380952380952,4,2,0,20,0,0
58269,-105.263157894737,4,2,0,20,0,0
58656,-117.647058823529,4,2,0,20,0,0
59043,-64.5161290322581,4,2,0,20,0,0
60592,-666.666666666667,4,2,0,20,0,0
61753,-32.7868852459016,4,2,0,20,0,0
61850,-32.7868852459016,4,3,0,5,0,0
62140,-64.5161290322581,4,2,0,20,0,0
74527,-57.1428571428571,4,2,0,45,0,1
83430,-42.5531914893617,4,2,0,45,0,1
83817,-57.1428571428571,4,2,0,45,0,1
86527,-32.7868852459016,4,2,0,45,0,1
86914,387.096774193548,4,2,0,20,1,0
86914,387.096774193548,4,2,0,20,1,0
86914,-95.2380952380952,4,2,0,20,0,0
89624,-285.714285714286,4,2,0,20,0,0
90011,-95.2380952380952,4,2,0,20,0,0
92715,-48.780487804878,4,2,0,20,0,0
93102,-95.2380952380952,4,2,0,20,0,0
99301,-74.0740740740741,4,2,0,20,0,0
111688,-68.9655172413793,4,3,0,55,0,0
115559,-60.6060606060606,4,3,0,55,0,0
115753,-181.818181818182,4,3,0,55,0,0
115946,-60.6060606060606,4,3,0,55,0,0
116140,-181.818181818182,4,3,0,55,0,0
116334,-68.9655172413793,4,3,0,55,0,0
130269,-68.9655172413793,4,2,0,20,0,0
131817,-64.5161290322581,4,2,0,20,0,0
132205,-60.6060606060606,4,2,0,20,0,0
132592,-57.1428571428571,4,2,0,20,0,0
132979,-54.054054054054,4,2,0,20,0,0
133366,-64.5161290322581,4,2,0,20,0,0
136075,-32.7868852459016,4,3,0,55,0,0
136463,-64.5161290322581,4,2,0,20,0,0
139172,-44.4444444444445,4,2,0,20,0,0
139559,-64.5161290322581,4,2,0,20,0,0
148850,-57.1428571428571,4,2,0,55,0,1
159688,-66.6666666666667,4,2,0,55,0,1
160075,-80,4,2,0,55,0,1
160463,-100,4,2,0,55,0,1
161237,-80,4,2,0,25,0,0
163946,-44.4444444444445,4,2,0,25,0,0
164334,-80,4,2,0,25,0,0
172850,-80,4,2,0,25,0,0
173043,-68.9655172413793,4,2,0,25,0,0
173237,-60.6060606060606,4,2,0,25,0,0
173430,-54.054054054054,4,2,0,25,0,0
173624,-57.1428571428571,4,2,0,55,0,1
186011,-100,4,2,0,55,0,0

[Colours]
Combo1 : 171,131,245
Combo2 : 195,195,195
Combo3 : 199,50,50
Combo4 : 189,189,189
Combo5 : 189,70,70
Combo6 : 21,173,247

[HitObjects]
264,152,205,5,0,0:0:0:0:
199,65,398,1,0,0:0:0:0:
96,100,592,1,0,0:0:0:0:
98,208,785,1,0,0:0:0:0:
202,240,979,1,0,0:0:0:0:
172,136,1172,1,0,0:0:0:0:
184,324,1366,5,0,0:0:0:0:
296,276,1559,1,0,0:0:0:0:
216,204,1753,1,0,0:0:0:0:
328,156,1946,1,0,0:0:0:0:
248,80,2140,1,0,0:0:0:0:
360,32,2334,1,0,0:0:0:0:
172,208,2527,5,0,0:0:0:0:
292,292,2721,1,0,0:0:0:0:
384,176,2914,1,0,0:0:0:0:
272,144,3108,1,0,0:0:0:0:
200,344,3301,5,0,0:0:0:0:
156,200,3495,1,0,0:0:0:0:
60,272,3688,1,0,0:0:0:0:
100,108,3882,1,0,0:0:0:0:
232,196,4075,1,0,0:0:0:0:
280,32,4269,1,0,0:0:0:0:
132,208,4463,37,0,0:0:0:0:
204,340,4656,1,0,0:0:0:0:
276,132,4850,1,0,0:0:0:0:
268,264,5043,1,0,0:0:0:0:
120,164,5237,1,0,0:0:0:0:
164,40,5430,1,0,0:0:0:0:
184,284,5624,5,0,0:0:0:0:
360,228,5817,1,0,0:0:0:0:
248,192,6011,1,0,0:0:0:0:
248,360,6205,1,0,0:0:0:0:
412,296,6398,5,0,0:0:0:0:
280,248,6592,1,0,0:0:0:0:
404,116,6785,1,0,0:0:0:0:
260,64,6979,1,0,0:0:0:0:
164,256,7172,5,0,0:0:0:0:
312,180,7366,1,0,0:0:0:0:
164,256,7559,37,0,0:0:0:0:
272,340,7753,1,0,0:0:0:0:
312,180,7946,1,0,0:0:0:0:
420,264,8140,1,0,0:0:0:0:
404,96,8334,5,0,0:0:0:0:
344,296,8527,1,0,0:0:0:0:
224,144,8721,5,0,0:0:0:0:
240,300,8914,1,0,0:0:0:0:
352,68,9108,1,0,0:0:0:0:
364,220,9301,1,0,0:0:0:0:
152,196,9495,5,0,0:0:0:0:
236,332,9688,1,0,0:0:0:0:
308,184,9882,1,0,0:0:0:0:
132,308,10075,1,0,0:0:0:0:
328,276,10269,37,0,0:0:0:0:
244,104,10463,1,0,0:0:0:0:
204,272,10656,5,0,0:0:0:0:
308,164,10850,1,0,0:0:0:0:
288,364,11043,5,0,0:0:0:0:
392,256,11237,1,0,0:0:0:0:
228,80,11430,1,0,0:0:0:0:
248,236,11624,1,0,0:0:0:0:
464,92,11817,6,0,B|352:56|352:56|372:120,1,172.124997701883
300,184,12011,6,0,L|464:232,1,145.125002214432
472,328,12205,6,0,L|420:340,1,50.625
336,316,12592,6,0,P|224:300|208:232,1,141.749995674133
92,108,12979,2,0,P|108:160|108:196,1,70.8749978370667
36,200,13172,2,0,P|37:254|28:289,1,70.8749978370667
128,332,13366,6,0,P|160:272|244:240,1,141.749995674133
360,356,13753,6,0,P|324:336|288:336,1,70.8749978370667
200,352,14527,2,0,P|152:324|96:336,1,91.1249972190858
24,368,14914,6,0,L|44:212,1,84.375
60,116,15108,1,0,0:0:0:0:
184,304,15301,38,0,P|228:332|288:336,1,84.375
364,232,15495,2,0,P|329:207|288:197,1,84.375
96,280,15688,6,0,L|100:340,1,50.625
24,352,16075,6,0,L|12:88,1,253.125
152,168,16463,6,0,P|192:184|256:172,1,84.375
287,260,16656,2,0,P|329:253|379:211,1,84.375
344,132,16850,2,0,P|377:105|399:43,1,84.375
152,168,17043,2,0,L|160:276,1,84.375
164,356,17237,37,0,0:0:0:0:
296,332,17430,1,0,0:0:0:0:
248,224,17624,1,0,0:0:0:0:
396,268,17817,1,0,0:0:0:0:
216,352,18011,6,0,L|200:352,1,10.1249996910095
140,336,18205,6,0,L|60:344,1,50.6250019311906
8,280,18398,6,0,B|168:260|168:260|192:256|216:240|216:240|384:220,1,374.624998570919
464,212,18785,38,0,L|468:252,1,23.6249992790222
380,271,18979,2,0,L|372:183,1,50.6250019311906
264,216,19172,6,0,L|272:316,1,77.6250014805794
152,332,19366,2,0,L|140:204,1,118.125001126528
104,56,19559,6,0,P|148:128|248:144,1,141.749995674133
288,12,19946,6,0,L|280:88,1,70.8749978370667
220,160,20721,38,0,L|212:260,1,91.1249972190858
200,352,21108,6,0,L|324:340,1,84.375
440,328,21301,1,0,0:0:0:0:
312,180,21495,6,0,L|320:264,1,70.8749978370667
325,321,21688,2,0,L|317:237,1,70.8749978370667
108,252,21882,6,0,P|168:228|232:248,1,104.625000798225
248,344,22075,2,0,L|168:332,1,70.8749978370667
136,152,22269,38,0,P|196:128|260:148,1,104.625000798225
276,244,22463,2,0,L|196:232,1,70.8749978370667
384,104,22656,6,0,L|380:136,1,30.3749990730286
392,308,23043,6,0,L|476:360,1,70.8749978370667
276,244,23237,2,0,L|192:296,1,70.8749978370667
84,360,23430,6,0,L|80:261,1,70.8749978370667
80,144,23624,2,0,L|167:190,1,70.8749978370667
264,284,23817,38,0,L|260:185,1,70.8749978370667
344,64,24011,2,0,L|431:110,1,70.8749978370667
312,352,24205,5,0,0:0:0:0:
152,280,24398,1,0,0:0:0:0:
408,240,24592,5,0,0:0:0:0:
272,176,24785,1,0,0:0:0:0:
252,376,24979,6,0,P|216:384|160:360,6,69.1875010557175
352,268,25366,5,0,0:0:0:0:
360,280,25463,1,0,0:0:0:0:
368,296,25559,1,0,0:0:0:0:
376,308,25656,1,0,0:0:0:0:
384,320,25753,6,0,L|272:312,1,77.6250014805794
112,300,25946,2,0,L|224:308,1,77.6250014805794
304,384,26140,1,0,0:0:0:0:
464,184,26334,6,0,P|416:172|360:192,1,77.6250014805794
236,96,26527,2,0,P|249:143|294:182,1,77.6250014805794
272,328,26721,2,0,P|306:292|317:233,1,77.6250014805794
376,152,26914,6,0,P|361:104|308:64,1,97.8750029869081
328,0,27108,2,0,P|278:-11|208:24,1,118.125001126528
100,164,27301,6,0,L|152:156,1,50.625
256,76,27688,6,0,B|212:96|220:144|220:144|248:280,1,209.250001596451
308,352,28075,38,0,P|356:328|372:292,1,77.6250014805794
332,160,28269,2,0,P|307:207|315:246,1,77.6250014805794
448,312,28463,2,0,P|440:258|410:232,1,77.6250014805794
212,140,28656,6,0,L|228:304,1,104.625000798225
232,376,28850,2,0,P|252:356|288:352,1,50.625
360,356,29237,6,0,P|384:336|412:328,1,37.1250011329651
484,348,29430,2,0,P|476:280|432:224,1,77.6250014805794
500,164,29624,2,0,P|437:136|352:148,1,97.8750029869081
332,64,29817,2,0,P|277:104|256:164,1,118.125001126528
220,336,30011,5,0,0:0:0:0:
468,280,30205,1,0,0:0:0:0:
180,192,30398,38,0,P|116:232|108:316,1,138.375002111435
256,336,30592,2,0,L|264:200,1,118.125001126528
360,56,30785,2,0,L|352:164,1,97.8750029869081
396,240,30979,2,0,L|392:324,1,77.6250014805794
224,360,31172,6,0,L|140:356,6,69.1875010557175
316,288,31559,1,0,0:0:0:0:
320,296,31656,1,0,0:0:0:0:
324,304,31753,1,0,0:0:0:0:
328,312,31850,1,0,0:0:0:0:
332,320,31946,6,0,P|432:320|432:148,1,293.625008960724
236,72,32334,6,0,B|244:148|244:148|240:152|240:152|248:260|248:260|244:264|244:264|252:368,1,293.625008960724
256,384,32721,38,0,P|312:376|352:352,1,97.8750029869081
364,272,32914,2,0,P|385:219|384:172,1,97.8750029869081
256,136,33108,6,0,P|200:144|160:168,1,97.8750029869081
100,316,33301,2,0,P|156:308|196:284,1,97.8750029869081
364,272,33495,2,0,P|308:264|268:240,1,97.8750029869081
172,112,33688,2,0,P|193:164|192:211,1,97.8750029869081
100,316,33882,2,0,P|151:294|198:295,1,97.8750029869081
316,356,34075,2,0,P|367:378|414:377,1,97.8750029869081
440,228,34269,6,0,P|416:68|324:216,1,418.500003192902
168,40,35043,6,0,L|184:272,1,209.250001596451
116,328,35430,6,0,L|192:320,1,50.6250019311906
256,312,35624,6,0,L|180:320,1,50.6250019311906
200,240,35817,6,0,P|248:224|316:228,1,97.8750029869081
308,148,36011,2,0,P|357:158|414:195,1,97.8750029869081
328,368,36205,6,0,P|336:312|320:256,1,97.8750029869081
200,240,36398,2,0,P|192:296|208:352,1,97.8750029869081
327,272,36592,1,0,0:0:0:0:
224,112,36785,1,0,0:0:0:0:
100,284,36979,1,0,0:0:0:0:
248,176,37172,1,0,0:0:0:0:
272,360,37366,38,0,P|376:360|372:140,1,364.500001390457
272,120,37946,1,0,0:0:0:0:
228,260,38140,2,0,P|308:276|344:188,1,182.250000695229
148,56,38527,2,0,B|152:116|152:116|148:120|148:120|156:200|156:200|152:204|152:204|156:248,1,182.250000695229
132,364,38914,6,0,B|192:360|192:360|260:376|260:376|312:312|312:312|384:328|384:328|496:320,1,364.500001390457
508,320,39495,1,0,0:0:0:0:
344,212,39688,2,0,P|292:148|336:56,1,182.250000695229
436,48,40075,2,0,P|498:101|470:200,1,182.250000695229
328,352,40463,69,0,0:0:0:0:
368,240,40656,1,0,0:0:0:0:
328,352,40850,5,0,0:0:0:0:
368,240,41043,1,0,0:0:0:0:
264,272,41237,69,0,0:0:0:0:
492,352,41430,1,0,0:0:0:0:
444,116,41624,1,0,0:0:0:0:
444,116,41817,1,0,0:0:0:0:
368,240,42011,6,0,B|320:288|252:280|208:216|208:216|164:156|88:156|48:212,1,364.500001390457
40,232,42592,1,0,0:0:0:0:
140,332,42785,70,0,B|192:368|256:368|306:339|306:339|356:308|400:304|452:312|488:336,1,364.500001390457
392,228,43366,1,0,0:0:0:0:
232,288,43559,6,0,B|176:292|144:336|144:336|192:264|192:152|120:84,1,364.500001390457
60,60,44140,1,0,0:0:0:0:
60,208,44334,70,0,P|112:220|224:164,1,182.250000695229
292,80,44721,2,0,P|364:28|456:36,1,182.250000695229
328,296,45108,6,0,B|296:324|296:324|300:280|288:228|248:176|176:164|108:188|72:252,1,364.500001390457
32,328,45688,1,0,0:0:0:0:
168,252,45882,2,0,P|192:168|136:56,1,182.250000695229
16,28,46269,2,0,P|-8:112|48:224,1,182.250000695229
168,348,46656,69,0,0:0:0:0:
240,148,46850,1,0,0:0:0:0:
296,200,47043,2,0,P|384:212|372:68,1,273.375001042843
192,84,47430,6,0,P|208:160|196:212,1,124.87499952364
196,216,47624,2,0,L|188:176,1,30.3749990730286
64,224,47817,70,0,P|88:292|152:348,1,128.249996575356
140,340,48011,2,0,L|127:292,1,33.75
220,300,48205,6,0,P|304:244|420:252,1,195.750005973816
492,344,48592,1,0,0:0:0:0:
344,364,48785,1,0,0:0:0:0:
244,160,48979,69,0,0:0:0:0:
244,160,49172,1,0,0:0:0:0:
328,80,49366,1,0,0:0:0:0:
296,304,49559,1,0,0:0:0:0:
120,176,49753,21,0,0:0:0:0:
116,184,50140,1,0,0:0:0:0:
112,192,50527,1,0,0:0:0:0:
108,200,50914,1,0,0:0:0:0:
184,260,51301,5,0,0:0:0:0:
188,276,51688,1,0,0:0:0:0:
192,292,52075,1,0,0:0:0:0:
196,308,52463,1,0,0:0:0:0:
132,380,52656,5,0,0:0:0:0:
156,176,52850,69,0,0:0:0:0:
208,168,53237,1,0,0:0:0:0:
260,160,53624,1,0,0:0:0:0:
312,152,54011,1,0,0:0:0:0:
384,332,54398,5,0,0:0:0:0:
484,264,54785,1,0,0:0:0:0:
316,184,55172,1,0,0:0:0:0:
416,116,55559,1,0,0:0:0:0:
296,308,55753,69,0,0:0:0:0:
152,148,55946,38,0,P|192:80|236:56,1,104.625000798225
328,148,56140,2,0,P|288:216|244:240,1,104.625000798225
152,148,56334,6,0,P|197:83|244:64,1,97.8750029869081
327,148,56527,2,0,P|282:212|240:232,1,97.8750029869081
100,232,56721,70,0,P|120:280|156:312,1,91.1250003476143
252,356,56914,2,0,P|303:362|349:347,1,91.1250003476143
327,148,57108,6,0,P|344:196|343:244,1,84.375
244,80,57301,2,0,P|227:128|228:176,1,84.375
144,220,57495,70,0,P|156:264|180:300,1,77.6250014805794
368,220,57688,2,0,P|356:264|332:300,1,77.6250014805794
134,233,57882,6,0,P|158:276|189:300,1,70.8749978370667
378,233,58075,2,0,P|353:276|322:300,1,70.8749978370667
224,344,58269,70,0,P|252:356|288:364,1,64.1249982876778
392,344,58463,2,0,P|416:325|441:298,1,64.1249982876778
476,228,58656,2,0,P|472:197|464:164,1,57.3750010943413
432,108,58850,2,0,P|404:96|368:92,1,57.3750010943413
208,164,59043,5,0,0:0:0:0:
244,212,59140,1,0,0:0:0:0:
296,244,59237,1,0,0:0:0:0:
356,248,59334,1,0,0:0:0:0:
400,272,59430,69,0,0:0:0:0:
367,314,59527,1,0,0:0:0:0:
321,343,59624,1,0,0:0:0:0:
268,346,59721,1,0,0:0:0:0:
220,336,59817,5,0,0:0:0:0:
181,307,59914,1,0,0:0:0:0:
154,268,60011,1,0,0:0:0:0:
151,221,60108,1,0,0:0:0:0:
164,176,60205,69,0,0:0:0:0:
172,172,60301,1,0,0:0:0:0:
180,168,60398,1,0,0:0:0:0:
188,164,60495,1,0,0:0:0:0:
264,184,60592,22,0,P|304:188|372:172,1,111.374996601105
440,124,61753,6,0,L|432:348,1,205.875005890131
172,256,62140,70,0,P|220:232|332:320,1,209.250001596451
144,360,62527,2,0,L|32:344,1,104.625000798225
32,176,62721,2,0,L|144:192,1,104.625000798225
240,320,62914,5,0,0:0:0:0:
328,88,63108,2,0,P|348:156|336:212,1,104.625000798225
420,192,63301,2,0,P|403:260|180:252,1,313.875002394676
112,108,63688,5,0,0:0:0:0:
120,320,63882,1,0,0:0:0:0:
212,88,64075,5,0,0:0:0:0:
120,320,64269,1,0,0:0:0:0:
328,228,64463,5,0,0:0:0:0:
152,164,64656,1,0,0:0:0:0:
248,352,64850,6,0,P|360:368|468:336,1,209.250001596451
280,184,65237,6,0,P|296:224|464:256,1,209.250001596451
456,36,65624,2,0,P|392:56|336:48,1,104.625000798225
324,128,65817,2,0,P|274:82|253:30,1,104.625000798225
128,152,66011,5,0,0:0:0:0:
220,292,66205,2,0,P|272:300|360:268,1,104.625000798225
428,184,66398,2,0,P|376:175|325:186,1,104.625000798225
304,104,66592,2,0,P|254:122|215:157,1,104.625000798225
23,305,66785,6,0,P|111:329|231:281,1,209.250001596451
224,96,67172,1,0,0:0:0:0:
96,216,67366,1,0,0:0:0:0:
256,308,67559,5,0,0:0:0:0:
164,152,67753,1,0,0:0:0:0:
140,328,67946,37,0,0:0:0:0:
296,216,68140,1,0,0:0:0:0:
380,336,68334,6,0,B|420:352|420:352|400:140,1,209.250001596451
352,56,68721,2,0,P|312:72|240:72,1,104.625000798225
150,92,68914,2,0,P|190:76|262:76,1,104.625000798225
144,264,69108,5,0,0:0:0:0:
256,376,69301,2,0,P|188:352|160:308,1,104.625000798225
296,172,69495,2,0,P|416:132|420:284,1,313.875002394676
328,300,69882,5,0,0:0:0:0:
460,364,70075,1,0,0:0:0:0:
324,168,70269,5,0,0:0:0:0:
460,364,70463,1,0,0:0:0:0:
216,228,70656,5,0,0:0:0:0:
460,364,70850,1,0,0:0:0:0:
404,160,71043,1,0,0:0:0:0:
288,312,71430,6,0,P|172:324|84:240,1,209.250001596451
80,112,71817,2,0,P|152:104|188:124,1,104.625000798225
256,204,72011,2,0,P|328:212|364:192,1,104.625000798225
424,80,72205,5,0,0:0:0:0:
240,40,72398,2,0,P|260:96|236:148,1,104.625000798225
128,296,72592,2,0,P|113:246|133:199,1,104.625000798225
355,198,72785,2,0,P|374:245|360:294,1,104.625000798225
232,352,72979,5,0,0:0:0:0:
260,136,73172,1,0,0:0:0:0:
440,296,73366,5,0,0:0:0:0:
260,136,73559,1,0,0:0:0:0:
248,360,73753,5,0,0:0:0:0:
440,296,73946,1,0,0:0:0:0:
380,84,74140,5,0,0:0:0:0:
296,280,74334,1,0,0:0:0:0:
160,88,74527,69,0,0:0:0:0:
152,120,74624,1,0,0:0:0:0:
144,148,74721,1,0,0:0:0:0:
136,180,74817,1,0,0:0:0:0:
128,204,74914,6,0,P|192:216|248:188,1,118.125001126528
408,44,75108,2,0,P|344:32|288:60,1,118.125001126528
240,288,75301,70,0,P|360:284|404:172,1,236.250002253056
228,36,75688,5,0,0:0:0:0:
208,368,75882,1,0,0:0:0:0:
408,172,76075,69,0,0:0:0:0:
208,188,76269,1,0,0:0:0:0:
420,332,76463,5,0,0:0:0:0:
344,44,76656,1,0,0:0:0:0:
296,296,76850,69,0,0:0:0:0:
440,72,77043,1,0,0:0:0:0:
220,136,77237,6,0,L|120:152,4,78.7500007510185
181,295,77624,6,0,P|229:307|313:287,1,118.125001126528
448,152,77817,2,0,P|400:140|316:160,1,118.125001126528
181,295,78011,6,0,P|229:302|311:275,1,118.125001126528
448,152,78205,2,0,P|399:144|317:171,1,118.125001126528
136,189,78398,6,0,P|144:241|200:309,1,118.125001126528
364,356,78592,5,0,0:0:0:0:
288,40,78785,1,0,0:0:0:0:
192,160,78979,1,0,0:0:0:0:
296,280,79172,5,0,0:0:0:0:
432,144,79366,1,0,0:0:0:0:
296,56,79559,5,0,0:0:0:0:
376,308,79753,1,0,0:0:0:0:
472,52,79946,69,0,0:0:0:0:
184,128,80140,1,0,0:0:0:0:
344,324,80334,6,0,L|328:260,6,59.0625005632639
244,180,80721,70,0,P|328:152|476:240,1,236.250002253056
224,360,81108,2,0,P|156:356|108:328,1,118.125001126528
64,160,81301,2,0,P|122:161|174:187,1,118.125001126528
300,352,81495,5,0,0:0:0:0:
324,112,81688,1,0,0:0:0:0:
180,220,81882,69,0,0:0:0:0:
484,256,82075,1,0,0:0:0:0:
180,220,82269,5,0,0:0:0:0:
292,336,82463,1,0,0:0:0:0:
356,96,82656,69,0,0:0:0:0:
264,168,82850,1,0,0:0:0:0:
244,48,83043,5,0,0:0:0:0:
380,248,83237,1,0,0:0:0:0:
128,268,83430,6,0,B|92:296|40:304|40:304|236:312|236:312|240:304|240:304|236:312|236:312|488:324,1,475.874992738724
456,324,83817,6,0,P|456:256|416:176,1,118.125001126528
304,120,84011,2,0,P|304:188|344:268,1,118.125001126528
456,80,84205,2,0,P|388:48|264:56,1,118.125001126528
212,120,84398,2,0,P|144:152|20:144,1,118.125001126528
124,36,84592,5,0,0:0:0:0:
296,208,84785,1,0,0:0:0:0:
72,280,84979,5,0,0:0:0:0:
296,208,85172,1,0,0:0:0:0:
284,356,85366,5,0,0:0:0:0:
484,272,85559,1,0,0:0:0:0:
484,272,85753,1,0,0:0:0:0:
308,144,85946,1,0,0:0:0:0:
392,364,86140,5,0,0:0:0:0:
444,68,86334,1,0,0:0:0:0:
180,248,86527,2,0,B|240:252|240:252|256:272|256:272|292:228|292:228|312:248|312:248|392:256,1,205.875005890131
368,356,86914,5,0,0:0:0:0:
440,300,87108,1,0,0:0:0:0:
360,232,87301,1,0,0:0:0:0:
432,176,87495,1,0,0:0:0:0:
336,104,87688,2,0,P|268:92|204:144,1,141.749995674133
64,224,88075,2,0,P|132:212|196:264,1,141.749995674133
256,360,88463,5,0,0:0:0:0:
312,224,88656,1,0,0:0:0:0:
256,360,88850,5,0,0:0:0:0:
176,128,89043,1,0,0:0:0:0:
256,360,89237,5,0,0:0:0:0:
312,64,89430,1,0,0:0:0:0:
220,192,89624,38,0,L|312:200,1,70.8749978370667
376,276,90011,6,0,P|328:280|280:268,1,70.8749978370667
236,336,90205,2,0,P|192:315|156:281,1,70.8749978370667
68,160,90398,6,0,P|80:204|84:256,1,70.8749978370667
80,384,90592,2,0,P|68:340|64:288,1,70.8749978370667
144,80,90785,6,0,L|224:92,1,70.8749978370667
228,288,90979,2,0,L|308:276,1,70.8749978370667
344,104,91172,38,0,L|424:116,1,70.8749978370667
452,256,91366,2,0,L|372:268,1,70.8749978370667
156,152,91559,6,0,L|236:164,1,70.8749978370667
272,356,91753,2,0,L|288:256,1,70.8749978370667
324,76,91946,6,0,L|308:176,1,70.8749978370667
200,248,92140,2,0,L|104:236,1,70.8749978370667
20,268,92334,5,0,0:0:0:0:
256,192,92527,1,0,0:0:0:0:
276,352,92721,38,0,P|336:292|516:312,1,276.75000422287
408,364,93108,6,0,L|396:264,1,70.8749978370667
380,152,93301,2,0,L|392:252,1,70.8749978370667
324,352,93495,6,0,L|312:252,1,70.8749978370667
296,140,93688,2,0,L|308:240,1,70.8749978370667
128,308,93882,6,0,L|220:296,1,70.8749978370667
224,216,94075,2,0,L|132:228,1,70.8749978370667
108,144,94269,38,0,L|16:132,1,70.8749978370667
16,8,94463,2,0,L|108:20,1,70.8749978370667
204,356,94656,6,0,L|192:268,1,70.8749978370667
256,56,94850,2,0,L|244:160,1,70.8749978370667
344,228,95043,6,0,L|248:248,1,70.8749978370667
56,180,95237,2,0,L|136:200,1,70.8749978370667
376,288,95430,6,0,L|364:192,1,70.8749978370667
372,64,95624,2,0,L|381:135,1,70.8749978370667
468,216,95817,1,0,0:0:0:0:
272,148,96011,1,0,0:0:0:0:
376,372,96205,38,0,L|472:360,1,70.8749978370667
420,260,96398,2,0,L|332:272,1,70.8749978370667
228,344,96592,2,0,L|140:352,1,70.8749978370667
128,244,96785,2,0,L|216:236,1,70.8749978370667
288,304,96979,6,0,L|380:296,1,70.8749978370667
384,200,97172,2,0,L|292:208,1,70.8749978370667
160,128,97366,2,0,L|248:120,1,70.8749978370667
392,104,97559,1,0,0:0:0:0:
344,328,97753,5,0,0:0:0:0:
152,240,97946,1,0,0:0:0:0:
356,180,98140,1,0,0:0:0:0:
164,88,98334,1,0,0:0:0:0:
240,336,98527,5,0,0:0:0:0:
464,188,98721,1,0,0:0:0:0:
216,252,98914,6,0,L|160:256,6,35.4374989185334
312,348,99301,22,0,L|308:296,6,45.5625001738071
348,216,99688,5,0,0:0:0:0:
356,160,99785,1,0,0:0:0:0:
364,104,99882,1,0,0:0:0:0:
372,48,99979,1,0,0:0:0:0:
380,0,100075,6,0,P|332:16|268:16,1,91.1250003476143
188,108,100269,2,0,P|225:141|257:196,1,91.1250003476143
376,224,100463,2,0,P|386:174|418:119,1,91.1250003476143
307,108,100656,2,0,P|270:141|238:196,1,91.1250003476143
188,300,100850,5,0,0:0:0:0:
456,252,101043,1,0,0:0:0:0:
304,24,101237,1,0,0:0:0:0:
268,276,101430,1,0,0:0:0:0:
476,140,101624,1,0,0:0:0:0:
204,96,101817,1,0,0:0:0:0:
372,312,102011,1,0,0:0:0:0:
300,48,102205,2,0,L|276:140,1,91.1250003476143
218,259,102398,37,0,0:0:0:0:
271,320,102495,1,0,0:0:0:0:
346,351,102592,1,0,0:0:0:0:
425,342,102688,1,0,0:0:0:0:
488,300,102785,6,0,P|488:244|468:176,1,91.1250003476143
312,220,102979,2,0,P|360:248|429:264,1,91.1250003476143
448,132,103172,5,0,0:0:0:0:
252,68,103366,1,0,0:0:0:0:
140,304,103559,1,0,0:0:0:0:
312,220,103753,1,0,0:0:0:0:
168,136,103946,5,0,0:0:0:0:
244,336,104140,1,0,0:0:0:0:
360,120,104334,5,0,0:0:0:0:
328,280,104527,1,0,0:0:0:0:
476,336,104721,5,0,0:0:0:0:
412,216,104914,1,0,0:0:0:0:
360,368,105108,1,0,0:0:0:0:
360,368,105301,1,0,0:0:0:0:
236,176,105495,5,0,0:0:0:0:
36,364,105688,1,0,0:0:0:0:
36,364,105785,1,0,0:0:0:0:
140,244,106269,5,0,0:0:0:0:
392,160,106463,1,0,0:0:0:0:
392,160,106559,1,0,0:0:0:0:
344,352,107043,5,0,0:0:0:0:
256,220,107237,1,0,0:0:0:0:
256,220,107334,1,0,0:0:0:0:
120,312,107624,1,0,0:0:0:0:
68,44,107817,6,0,P|116:40|164:68,1,91.1250003476143
140,184,108011,2,0,P|244:248|316:68,1,364.500001390457
244,100,108592,37,0,0:0:0:0:
288,368,108785,1,0,0:0:0:0:
148,272,108979,1,0,0:0:0:0:
288,368,109172,1,0,0:0:0:0:
416,240,109366,6,0,P|412:192|372:116,1,91.1250003476143
256,180,109559,2,0,P|260:228|300:304,1,91.1250003476143
364,368,109753,5,0,0:0:0:0:
488,284,109946,1,0,0:0:0:0:
340,120,110140,5,0,0:0:0:0:
364,288,110334,1,0,0:0:0:0:
240,368,110527,5,0,0:0:0:0:
264,200,110721,1,0,0:0:0:0:
144,128,110914,5,0,0:0:0:0:
156,256,111108,1,0,0:0:0:0:
48,312,111301,5,0,0:0:0:0:
60,264,111495,1,0,0:0:0:0:
152,332,111688,54,0,B|224:336|224:336|280:296|280:296|312:380|312:380|352:336|352:336|432:344|432:344|416:328,1,391.500011947632
480,256,112269,1,0,0:0:0:0:
240,52,112463,2,0,B|216:164|216:164|276:248,1,195.750005973816
408,212,112850,2,0,B|432:100|432:100|372:16,1,195.750005973816
168,256,113237,6,0,B|112:356|112:356|396:312,1,391.500011947632
492,296,113817,1,0,0:0:0:0:
432,116,114011,2,0,B|336:80|336:80|252:144,1,195.750005973816
276,280,114398,2,0,B|372:316|372:316|456:252,1,195.750005973816
136,164,114785,69,0,0:0:0:0:
192,316,114979,1,0,0:0:0:0:
224,72,115172,2,0,P|172:52|52:216,1,293.625008960724
192,316,115559,6,0,P|264:312|304:292,1,111.375001062155
400,144,115753,2,0,L|340:152,1,37.1250011329651
274,245,115946,70,0,P|213:284|189:321,1,111.375001062155
316,368,116140,2,0,L|368:360,1,37.1250011329651
472,324,116334,6,0,P|456:208|400:152,1,195.750005973816
192,296,116721,1,0,0:0:0:0:
384,280,116914,1,0,0:0:0:0:
172,104,117108,69,0,0:0:0:0:
172,104,117301,1,0,0:0:0:0:
252,328,117495,1,0,0:0:0:0:
272,152,117688,1,0,0:0:0:0:
112,228,117882,6,0,B|204:212|204:212|340:292|340:292|428:272|428:272|360:268,1,391.500011947632
476,356,118463,1,0,0:0:0:0:
452,112,118656,2,0,P|344:96|264:168,1,195.750005973816
304,272,119043,2,0,P|412:288|492:216,1,195.750005973816
264,76,119430,70,0,B|136:40|136:40|160:344,1,391.500011947632
160,376,120011,1,0,0:0:0:0:
320,272,120205,2,0,P|364:192|300:76,1,195.750005973816
136,88,120592,2,0,P|92:168|156:284,1,195.750005973816
232,296,120979,5,0,0:0:0:0:
340,276,121172,1,0,0:0:0:0:
232,296,121366,69,0,0:0:0:0:
340,276,121559,1,0,0:0:0:0:
136,196,121753,5,0,0:0:0:0:
328,368,121946,1,0,0:0:0:0:
357,130,122140,1,0,0:0:0:0:
357,130,122334,1,0,0:0:0:0:
244,72,122527,70,0,P|208:204|356:124,1,391.500011947632
336,0,123108,1,0,0:0:0:0:
236,304,123301,6,0,P|128:344|16:120,1,391.500011947632
112,80,123882,1,0,0:0:0:0:
308,208,124075,5,0,0:0:0:0:
312,216,124463,1,0,0:0:0:0:
316,224,124850,1,0,0:0:0:0:
320,232,125237,1,0,0:0:0:0:
404,376,125624,5,0,0:0:0:0:
412,352,126011,1,0,0:0:0:0:
420,328,126398,1,0,0:0:0:0:
432,300,126785,1,0,0:0:0:0:
288,172,126979,5,0,0:0:0:0:
240,368,127172,5,0,0:0:0:0:
292,356,127559,1,0,0:0:0:0:
344,344,127946,1,0,0:0:0:0:
396,332,128334,1,0,0:0:0:0:
384,120,128721,37,0,0:0:0:0:
300,132,129108,1,0,0:0:0:0:
216,144,129495,1,0,0:0:0:0:
132,156,129882,1,0,0:0:0:0:
60,328,130075,5,0,0:0:0:0:
352,356,130269,38,0,P|400:324|428:248,1,97.8750029869081
488,244,130463,2,0,P|484:185|432:123,1,97.8750029869081
244,168,130656,6,0,P|247:225|299:287,1,97.8750029869081
244,32,130850,2,0,P|196:63|168:139,1,97.8750029869081
399,134,131043,70,0,P|348:108|268:122,1,97.8750029869081
175,97,131237,2,0,P|126:127|100:203,1,97.8750029869081
220,280,131430,6,0,P|267:248|295:172,1,97.8750029869081
332,68,131624,2,0,P|373:93|399:134,1,97.8750029869081
420,292,131817,70,0,P|360:328|280:336,1,104.625000798225
136,292,132011,2,0,P|196:328|276:336,1,104.625000798225
280,200,132205,6,0,P|220:164|140:156,1,111.375001062155
112,340,132398,2,0,P|158:370|211:384,1,111.375001062155
326,335,132592,70,0,P|368:292|372:216,1,118.125001126528
344,104,132785,2,0,P|285:89|216:124,1,118.125001126528
152,196,132979,6,0,P|168:253|232:296,1,124.87499952364
188,364,133172,2,0,P|246:378|316:340,1,124.87499952364
300,160,133366,69,0,0:0:0:0:
296,128,133463,1,0,0:0:0:0:
292,100,133559,1,0,0:0:0:0:
288,72,133656,1,0,0:0:0:0:
288,48,133753,5,0,0:0:0:0:
240,124,133850,1,0,0:0:0:0:
196,200,133946,1,0,0:0:0:0:
148,276,134043,1,0,0:0:0:0:
168,368,134140,69,0,0:0:0:0:
256,332,134237,1,0,0:0:0:0:
344,296,134334,1,0,0:0:0:0:
436,256,134430,1,0,0:0:0:0:
432,152,134527,6,0,L|408:96,8,52.3125003991127
96,168,136075,6,0,L|304:204,1,205.875005890131
432,228,136269,1,0,0:0:0:0:
316,340,136463,6,0,L|84:300,1,209.250001596451
84,136,136850,2,0,P|56:196|64:264,1,104.625000798225
192,240,137043,6,0,P|292:196|296:96,1,209.250001596451
124,40,137430,1,0,0:0:0:0:
152,216,137624,5,0,0:0:0:0:
304,152,137817,1,0,0:0:0:0:
220,40,138011,5,0,0:0:0:0:
100,320,138205,1,0,0:0:0:0:
408,276,138398,1,0,0:0:0:0:
136,120,138592,5,0,0:0:0:0:
260,348,138785,1,0,0:0:0:0:
260,348,138979,1,0,0:0:0:0:
384,144,139172,6,0,P|364:32|280:132,1,303.750011587143
320,348,139559,6,0,P|388:284|504:280,1,209.250001596451
336,72,139946,2,0,P|288:108|276:160,1,104.625000798225
172,196,140140,2,0,P|179:255|218:291,1,104.625000798225
404,128,140334,5,0,0:0:0:0:
172,100,140527,1,0,0:0:0:0:
144,336,140721,1,0,0:0:0:0:
144,336,140914,1,0,0:0:0:0:
348,300,141108,5,0,0:0:0:0:
232,92,141301,1,0,0:0:0:0:
172,268,141495,5,0,0:0:0:0:
356,200,141688,1,0,0:0:0:0:
180,280,141882,5,0,0:0:0:0:
349,181,142075,1,0,0:0:0:0:
264,104,142269,5,0,0:0:0:0:
284,344,142463,1,0,0:0:0:0:
440,252,142656,6,0,P|448:152|360:96,1,209.250001596451
200,224,143043,2,0,P|256:252|328:240,1,104.625000798225
104,48,143237,6,0,L|120:272,1,209.250001596451
128,356,143624,1,0,0:0:0:0:
304,212,143817,1,0,0:0:0:0:
304,212,144011,1,0,0:0:0:0:
384,352,144205,6,0,P|452:340|496:280,1,104.625000798225
428,152,144398,2,0,P|360:164|316:224,1,104.625000798225
248,256,144592,6,0,P|220:207|173:174,1,104.625000798225
132,80,144785,2,0,P|75:80|23:103,1,104.625000798225
64,264,144979,5,0,0:0:0:0:
64,264,145172,1,0,0:0:0:0:
256,296,145366,5,0,0:0:0:0:
140,216,145559,1,0,0:0:0:0:
300,360,145753,6,0,P|360:356|416:316,1,104.625000798225
368,204,145946,2,0,P|308:208|252:248,1,104.625000798225
184,320,146140,6,0,P|124:316|68:276,1,104.625000798225
136,112,146334,2,0,P|196:116|252:156,1,104.625000798225
296,308,146527,5,0,0:0:0:0:
284,48,146721,1,0,0:0:0:0:
148,216,146914,1,0,0:0:0:0:
400,224,147108,1,0,0:0:0:0:
192,136,147301,5,0,0:0:0:0:
185,145,147495,1,0,0:0:0:0:
194,150,147688,1,0,0:0:0:0:
200,141,147882,1,0,0:0:0:0:
64,200,148075,5,0,0:0:0:0:
176,384,148269,1,0,0:0:0:0:
276,264,148463,2,0,L|340:252,6,52.3125003991127
456,356,148850,69,0,0:0:0:0:
464,292,148946,1,0,0:0:0:0:
472,228,149043,1,0,0:0:0:0:
480,164,149140,1,0,0:0:0:0:
488,100,149237,6,0,P|432:56|360:52,1,118.125001126528
328,168,149430,2,0,P|384:212|456:216,1,118.125001126528
272,72,149624,69,0,0:0:0:0:
228,300,149817,1,0,0:0:0:0:
128,88,150011,5,0,0:0:0:0:
160,356,150205,1,0,0:0:0:0:
308,228,150398,70,0,P|340:176|332:100,1,118.125001126528
208,84,150592,2,0,P|176:133|176:191,1,118.125001126528
184,300,150785,6,0,P|236:296|292:326,1,118.125001126528
460,348,150979,2,0,P|430:304|428:241,1,118.125001126528
396,56,151172,5,0,0:0:0:0:
296,220,151366,1,0,0:0:0:0:
480,132,151559,2,0,L|420:136,6,59.0625005632639
312,84,151946,6,0,P|256:92|180:148,1,118.125001126528
248,264,152140,2,0,P|304:256|380:200,1,118.125001126528
104,36,152334,6,0,L|112:196,1,118.125001126528
168,372,152527,2,0,L|160:220,1,118.125001126528
40,120,152721,5,0,0:0:0:0:
240,212,152914,1,0,0:0:0:0:
240,12,153108,1,0,0:0:0:0:
240,12,153301,1,0,0:0:0:0:
88,216,153495,5,0,0:0:0:0:
264,352,153688,1,0,0:0:0:0:
220,144,153882,5,0,0:0:0:0:
120,368,154075,1,0,0:0:0:0:
304,240,154269,5,0,0:0:0:0:
120,92,154463,1,0,0:0:0:0:
52,260,154656,2,0,L|28:324,6,59.0625005632639
368,268,155043,6,0,P|316:160|144:200,1,236.250002253056
176,348,155430,2,0,P|244:344|284:296,1,118.125001126528
96,20,155624,6,0,B|108:144|108:144|104:152|104:152|116:264,1,236.250002253056
277,310,156011,2,0,P|325:270|401:286,1,118.125001126528
388,120,156205,2,0,P|340:160|264:144,1,118.125001126528
128,60,156398,2,0,P|176:20|252:36,1,118.125001126528
424,208,156592,6,0,L|444:340,1,118.125001126528
280,348,156785,2,0,L|260:216,1,118.125001126528
424,208,156979,6,0,P|424:128|388:76,1,118.125001126528
244,119,157172,2,0,P|239:177|262:231,1,118.125001126528
312,312,157366,5,0,0:0:0:0:
168,224,157559,1,0,0:0:0:0:
124,364,157753,6,0,L|44:384,6,59.0625005632639
248,296,158140,6,0,B|296:336|296:336|384:324,1,118.125001126528
404,112,158334,2,0,B|345:133|345:133|311:215,1,118.125001126528
248,296,158527,6,0,B|296:336|296:336|384:324,1,118.125001126528
404,112,158721,2,0,B|342:100|342:100|271:154,1,118.125001126528
112,268,158914,5,0,0:0:0:0:
336,368,159108,1,0,0:0:0:0:
288,128,159301,1,0,0:0:0:0:
288,128,159495,1,0,0:0:0:0:
120,204,159688,6,0,P|168:244|240:256,1,101.250003862381
208,76,159882,2,0,P|197:137|222:205,1,101.250003862381
148,332,160075,6,0,P|200:352|240:352,1,84.375
384,288,160269,2,0,P|332:308|292:308,1,84.375
176,176,160463,5,0,0:0:0:0:
364,332,160656,1,0,0:0:0:0:
384,116,160850,1,0,0:0:0:0:
308,248,161043,1,0,0:0:0:0:
176,176,161237,6,0,P|152:224|208:312,1,168.75
360,204,161624,1,0,0:0:0:0:
176,175,161817,6,0,P|125:192|64:296,1,168.75
232,384,162205,1,0,0:0:0:0:
368,252,162398,1,0,0:0:0:0:
368,252,162592,1,0,0:0:0:0:
160,232,162785,5,0,0:0:0:0:
324,352,162979,1,0,0:0:0:0:
304,116,163172,1,0,0:0:0:0:
468,236,163366,1,0,0:0:0:0:
248,248,163559,5,0,0:0:0:0:
248,248,163753,1,0,0:0:0:0:
416,336,163946,6,0,B|440:352|440:352|464:284|432:236|432:236|408:328|308:336,1,303.750011587143
112,360,164334,6,0,P|172:288|268:256,1,168.75
272,108,164721,2,0,P|316:124|352:156,1,84.375
432,168,164914,2,0,P|440:214|430:261,1,84.375
284,344,165108,5,0,0:0:0:0:
360,28,165301,2,0,P|344:72|312:108,1,84.375
300,188,165495,2,0,P|254:196|207:186,1,84.375
112,56,165688,2,0,P|158:48|205:58,1,84.375
232,288,165882,5,0,0:0:0:0:
396,200,166075,1,0,0:0:0:0:
192,184,166269,5,0,0:0:0:0:
288,208,166463,1,0,0:0:0:0:
152,292,166656,5,0,0:0:0:0:
372,240,166850,1,0,0:0:0:0:
272,44,167043,5,0,0:0:0:0:
272,44,167237,1,0,0:0:0:0:
80,316,167430,6,0,P|136:244|232:232,1,168.75
316,356,167817,2,0,L|196:344,1,84.375
236,140,168011,6,0,P|180:68|84:56,1,168.75
52,176,168398,2,0,L|172:164,1,84.375
352,192,168592,5,0,0:0:0:0:
352,192,168785,1,0,0:0:0:0:
224,104,168979,6,0,P|276:128|300:160,1,84.375
280,336,169172,2,0,P|274:278|290:242,1,84.375
448,164,169366,2,0,P|401:197|361:201,1,84.375
128,212,169559,2,0,P|175:245|215:249,1,84.375
384,312,169753,5,0,0:0:0:0:
472,288,169946,1,0,0:0:0:0:
384,312,170140,5,0,0:0:0:0:
124,288,170527,6,0,P|128:240|156:200,1,84.375
272,240,170721,2,0,P|268:288|240:328,1,84.375
208,152,170914,6,0,P|188:115|186:74,1,84.375
320,40,171108,2,0,P|340:77|343:119,1,84.375
224,348,171301,5,0,0:0:0:0:
184,192,171495,1,0,0:0:0:0:
360,276,171688,1,0,0:0:0:0:
360,276,171882,1,0,0:0:0:0:
268,368,172075,5,0,0:0:0:0:
244,108,172269,1,0,0:0:0:0:
268,368,172463,5,0,0:0:0:0:
236,128,172656,2,0,L|244:236,1,84.375
268,368,172850,6,0,P|316:344|340:304,1,84.375
432,296,173043,6,0,P|452:236|440:176,1,97.8750029869081
436,96,173237,6,0,P|388:68|292:68,1,111.375001062155
172,244,173430,6,0,P|252:236|308:192,1,124.87499952364
380,256,173624,22,0,L|448:276,6,59.0625005632639
268,352,174011,6,0,P|268:288|304:224,1,118.125001126528
272,136,174205,2,0,P|327:104|400:103,1,118.125001126528
469,332,174398,6,0,L|405:76,1,236.250002253056
148,184,174785,5,0,0:0:0:0:
364,236,174979,1,0,0:0:0:0:
100,300,175172,5,0,0:0:0:0:
232,356,175366,1,0,0:0:0:0:
272,184,175559,5,0,0:0:0:0:
100,300,175753,1,0,0:0:0:0:
400,320,175946,5,0,0:0:0:0:
248,52,176140,1,0,0:0:0:0:
224,320,176334,6,0,L|216:388,6,59.0625005632639
348,256,176721,6,0,P|380:212|352:128,1,118.125001126528
220,124,176914,2,0,P|187:171|195:228,1,118.125001126528
379,358,177108,6,0,P|384:303|318:245,1,118.125001126528
449,224,177301,2,0,P|425:171|372:150,1,118.125001126528
184,296,177495,6,0,P|120:316|64:296,1,118.125001126528
60,88,177688,2,0,P|124:68|180:88,1,118.125001126528
208,196,177882,5,0,0:0:0:0:
292,44,178075,1,0,0:0:0:0:
152,272,178269,5,0,0:0:0:0:
440,248,178463,1,0,0:0:0:0:
212,76,178656,5,0,0:0:0:0:
176,352,178850,1,0,0:0:0:0:
316,220,179043,5,0,0:0:0:0:
140,160,179237,1,0,0:0:0:0:
316,220,179430,1,0,0:0:0:0:
140,160,179624,1,0,0:0:0:0:
232,328,179817,6,0,P|336:328|468:232,1,236.250002253056
360,68,180205,2,0,P|296:96|272:144,1,118.125001126528
180,112,180398,2,0,P|172:181|201:226,1,118.125001126528
172,340,180592,5,0,0:0:0:0:
420,240,180785,1,0,0:0:0:0:
272,76,180979,2,0,B|288:176|288:176|276:200|276:200|296:328,1,236.250002253056
304,376,181366,5,0,0:0:0:0:
408,236,181559,1,0,0:0:0:0:
308,144,181753,5,0,0:0:0:0:
380,344,181946,1,0,0:0:0:0:
308,144,182140,1,0,0:0:0:0:
168,224,182334,1,0,0:0:0:0:
480,204,182527,5,0,0:0:0:0:
476,220,182624,1,0,0:0:0:0:
472,236,182721,1,0,0:0:0:0:
468,252,182817,1,0,0:0:0:0:
464,268,182914,6,0,P|404:296|336:296,1,118.125001126528
280,360,183108,2,0,P|225:322|191:263,1,118.125001126528
248,96,183301,6,0,P|302:133|336:192,1,118.125001126528
120,344,183495,2,0,L|136:204,1,118.125001126528
392,248,183688,6,0,L|378:365,1,118.125001126528
292,376,183882,1,0,0:0:0:0:
496,196,184075,1,0,0:0:0:0:
496,196,184269,1,0,0:0:0:0:
152,232,184463,5,0,0:0:0:0:
396,344,184656,1,0,0:0:0:0:
312,36,184850,5,0,0:0:0:0:
148,320,185043,1,0,0:0:0:0:
432,120,185237,5,0,0:0:0:0:
120,104,185430,1,0,0:0:0:0:
488,252,185624,5,0,0:0:0:0:
184,280,185817,1,0,0:0:0:0:
392,360,186011,6,0,L|376:216,1,135
276,88,186398,1,0,0:0:0:0:
276,88,186592,1,0,0:0:0:0:
254,221,186785,2,0,L|278:73,1,135
460,116,187172,2,0,L|438:249,1,135
316,308,187559,5,0,0:0:0:0:
316,308,187753,2,0,L|460:336,1,135
508,272,188140,1,0,0:0:0:0:
424,160,188334,5,0,0:0:0:0:
356,216,188527,1,0,0:0:0:0:
240,128,188721,1,0,0:0:0:0:
208,156,188817,1,0,0:0:0:0:
176,184,188914,1,0,0:0:0:0:
144,212,189011,1,0,0:0:0:0:
112,240,189108,38,0,L|96:104,1,135
252,256,189495,1,0,0:0:0:0:
252,256,189688,1,0,0:0:0:0:
272,122,189882,2,0,L|248:278,1,135
328,344,190269,5,0,0:0:0:0:
408,352,190366,1,0,0:0:0:0:
376,276,190559,1,0,0:0:0:0:
296,268,190656,6,0,L|152:284,1,135
104,348,191043,1,0,0:0:0:0:
132,196,191237,1,0,0:0:0:0:
4,80,191430,6,0,L|16:236,1,135
108,340,191817,1,0,0:0:0:0:
128,204,192011,1,0,0:0:0:0:
264,336,192205,38,0,P|244:272|248:192,1,135
336,72,192592,1,0,0:0:0:0:
336,72,192785,1,0,0:0:0:0:
336,205,192979,2,0,P|344:141|328:49,1,135
152,136,193366,2,0,P|152:208|168:272,1,135
280,340,193753,5,0,0:0:0:0:
280,340,193946,2,0,P|352:344|424:296,1,135
272,188,194334,1,0,0:0:0:0:
452,224,194527,5,0,0:0:0:0:
320,276,194721,1,0,0:0:0:0:
204,104,194914,1,0,0:0:0:0:
204,132,195011,1,0,0:0:0:0:
204,156,195108,1,0,0:0:0:0:
204,180,195205,1,0,0:0:0:0:
204,204,195301,54,0,P|128:244|64:232,1,135
84,72,195688,1,0,0:0:0:0:
84,72,195882,1,0,0:0:0:0:
206,36,196075,2,0,P|139:35|83:71,1,135
328,344,196463,5,0,0:0:0:0:
432,316,196559,1,0,0:0:0:0:
356,232,196753,1,0,0:0:0:0:
328,344,196850,5,0,0:0:0:0:
240,128,197043,1,0,0:0:0:0:
136,296,197237,1,0,0:0:0:0:
272,64,197430,1,0,0:0:0:0:
320,252,197624,5,0,0:0:0:0:
120,92,197817,1,0,0:0:0:0:
128,356,198011,5,0,0:0:0:0:
128,356,198205,5,0,0:0:0:0:
