osu file format v14

[General]
AudioFilename: audio.mp3
AudioLeadIn: 0
PreviewTime: -1
Countdown: 1
SampleSet: Soft
StackLeniency: 0.7
Mode: 0
LetterboxInBreaks: 0
WidescreenStoryboard: 0

[Editor]
Bookmarks: 57416,59262
DistanceSpacing: 2.6
BeatDivisor: 8
GridSize: 4
TimelineZoom: 1.4

[Metadata]
Title:Bitch Lasagna (Heroic Orchestra ver.)
TitleUnicode:Bitch Lasagna (Heroic Orchestra ver.)
Artist:Pewdiepie Ft. TheDancingFishstick
ArtistUnicode:Pewdiepie Ft. TheDancingFishstick
Creator:greevy
Version:Sad reactions only
Source:
Tags:
BeatmapID:1924203
BeatmapSetID:921446

[Difficulty]
HPDrainRate:5.5
CircleSize:4
OverallDifficulty:6
ApproachRate:8
SliderMultiplier:1.4
SliderTickRate:2

[Events]
//Background and Video events
0,0,"Vocaloid_Hatsune_Miku_441555_1920x1200.jpg",0,0
//Break Periods
//Storyboard Layer 0 (Background)
//Storyboard Layer 1 (Fail)
//Storyboard Layer 2 (Pass)
//Storyboard Layer 3 (Foreground)
//Storyboard Sound Samples

[TimingPoints]
647,923.076923076923,4,2,0,30,1,0

[HitObjects]
113,86,185,5,0,0:0:0:0:
69,158,647,1,0,0:0:0:0:
121,223,1108,1,0,0:0:0:0:
204,215,1570,1,0,0:0:0:0:
240,139,2031,1,0,0:0:0:0:
240,139,2493,5,0,0:0:0:0:
292,73,2954,1,0,0:0:0:0:
361,120,3416,1,0,0:0:0:0:
311,235,3877,6,0,P|290:211|282:173,2,70
411,266,5262,5,0,0:0:0:0:
440,165,5723,1,0,0:0:0:0:
336,180,6185,1,0,0:0:0:0:
336,180,6646,1,0,0:0:0:0:
276,278,7108,1,0,0:0:0:0:
158,330,7570,5,0,0:0:0:0:
35,236,8031,2,0,P|105:209|126:193,1,70
150,66,8954,1,0,0:0:0:0:
244,111,9416,1,0,0:0:0:0:
257,215,9877,5,0,0:0:0:0:
361,229,10339,1,0,0:0:0:0:
420,142,10800,1,0,0:0:0:0:
420,142,11262,5,0,0:0:0:0:
353,197,11723,1,0,0:0:0:0:
380,298,12185,1,0,0:0:0:0:
281,332,12646,2,0,P|300:267|315:250,1,70
342,164,13570,5,0,0:0:0:0:
342,164,14031,1,0,0:0:0:0:
342,164,14493,1,0,0:0:0:0:
211,83,14954,6,0,B|243:129|243:129|203:168|240:215,1,140
137,103,16339,1,0,0:0:0:0:
68,240,16800,1,0,0:0:0:0:
211,296,17262,1,0,0:0:0:0:
270,154,17723,1,0,0:0:0:0:
270,154,18185,1,0,0:0:0:0:
401,73,18647,6,0,L|411:155,1,70
427,282,19570,1,0,0:0:0:0:
341,221,20031,1,0,0:0:0:0:
427,282,20493,1,0,0:0:0:0:
164,233,20954,1,0,0:0:0:0:
251,290,21416,1,0,0:0:0:0:
271,157,21877,1,0,0:0:0:0:
152,84,22339,6,0,L|163:174,1,70
157,307,23262,1,0,0:0:0:0:
67,199,23723,1,0,0:0:0:0:
203,167,24185,1,0,0:0:0:0:
203,167,24647,1,0,0:0:0:0:
158,308,25108,1,0,0:0:0:0:
158,308,25570,1,0,0:0:0:0:
309,283,26031,6,0,P|279:249|229:232,1,70
103,221,26954,1,0,0:0:0:0:
79,68,27416,2,0,P|153:84|161:90,1,70
255,195,28339,1,0,0:0:0:0:
277,221,28800,1,0,0:0:0:0:
298,248,29262,1,0,0:0:0:0:
142,186,29723,5,0,0:0:0:0:
241,152,30185,1,0,0:0:0:0:
139,124,30646,1,0,0:0:0:0:
237,88,31108,1,0,0:0:0:0:
135,60,31570,1,0,0:0:0:0:
275,108,32031,2,0,P|239:125|216:169,1,70
175,243,32954,1,0,0:0:0:0:
150,345,33416,5,0,0:0:0:0:
48,317,33877,2,0,P|63:282|97:259,1,70
191,168,34800,1,0,0:0:0:0:
240,252,35262,2,0,P|277:226|286:190,1,70
302,107,36185,1,0,0:0:0:0:
302,107,36647,1,0,0:0:0:0:
457,247,37108,5,0,0:0:0:0:
374,312,37570,1,0,0:0:0:0:
271,288,38031,1,0,0:0:0:0:
176,333,38493,1,0,0:0:0:0:
82,285,38954,1,0,0:0:0:0:
50,184,39416,6,0,L|130:137,1,70
464,196,40339,2,0,L|405:146,1,70
359,58,41262,1,0,0:0:0:0:
314,152,41723,1,0,0:0:0:0:
246,71,42185,1,0,0:0:0:0:
211,170,42647,1,0,0:0:0:0:
129,236,43108,2,0,P|111:205|108:171,2,70
176,329,44493,6,0,L|243:286,1,70
316,224,45416,1,0,0:0:0:0:
343,325,45877,1,0,0:0:0:0:
151,102,46339,1,0,0:0:0:0:
88,186,46800,1,0,0:0:0:0:
381,46,47262,1,0,0:0:0:0:
430,138,47723,1,0,0:0:0:0:
311,308,48185,5,0,0:0:0:0:
260,216,48646,1,0,0:0:0:0:
303,120,49108,2,0,L|232:102,2,70
229,195,50493,2,0,L|238:270,1,70
229,195,51416,1,0,0:0:0:0:
243,298,51877,5,0,0:0:0:0:
344,323,52339,2,0,P|348:266|337:240,1,70
260,191,53262,1,0,0:0:0:0:
155,177,53723,2,0,P|182:125|206:106,2,70
190,275,55108,2,0,P|152:258|103:257,1,70
19,262,56031,1,0,0:0:0:0:
124,254,56493,1,0,0:0:0:0:
51,177,56954,1,0,0:0:0:0:
86,94,57416,5,0,0:0:0:0:
94,116,57531,1,0,0:0:0:0:
110,133,57646,1,0,0:0:0:0:
132,142,57762,1,0,0:0:0:0:
171,135,57877,1,0,0:0:0:0:
203,110,57993,1,0,0:0:0:0:
239,94,58108,1,0,0:0:0:0:
277,105,58223,1,0,0:0:0:0:
309,128,58339,1,0,0:0:0:0:
326,164,58454,5,0,0:0:0:0:
322,204,58570,1,0,0:0:0:0:
280,266,58685,1,0,0:0:0:0:
205,275,58800,1,0,0:0:0:0:
145,228,58916,1,0,0:0:0:0:
130,154,59031,1,0,0:0:0:0:
170,91,59146,1,0,0:0:0:0:
244,77,59262,1,0,0:0:0:0:
356,140,59723,5,0,0:0:0:0:
388,239,60185,1,0,0:0:0:0:
362,285,60416,1,0,0:0:0:0:
312,303,60646,1,0,0:0:0:0:
237,215,61108,1,0,0:0:0:0:
157,292,61570,5,0,0:0:0:0:
75,188,62031,1,0,0:0:0:0:
120,162,62262,1,0,0:0:0:0:
136,111,62493,1,0,0:0:0:0:
31,107,62954,6,0,P|67:47|143:33,1,140
259,42,64339,6,0,L|297:122,1,70
333,200,65262,1,0,0:0:0:0:
333,200,65723,1,0,0:0:0:0:
333,200,65954,1,0,0:0:0:0:
333,200,66185,2,0,P|293:228|278:266,1,70
202,320,67108,6,0,L|285:325,1,70
168,341,68031,1,0,0:0:0:0:
88,271,68493,1,0,0:0:0:0:
137,178,68954,1,0,0:0:0:0:
167,135,69185,1,0,0:0:0:0:
236,210,69416,1,0,0:0:0:0:
236,210,69877,6,0,P|286:241|301:240,1,70
393,204,70800,1,0,0:0:0:0:
382,99,71262,1,0,0:0:0:0:
382,99,71723,2,0,P|435:136|443:164,1,70
473,237,72647,2,0,P|429:227|388:244,1,70
434,319,73339,1,0,0:0:0:0:
405,233,73570,1,0,0:0:0:0:
247,364,74031,5,0,0:0:0:0:
109,323,74493,1,0,0:0:0:0:
208,287,74954,1,0,0:0:0:0:
118,231,75416,1,0,0:0:0:0:
182,148,75877,1,0,0:0:0:0:
118,231,76339,6,0,P|82:180|90:146,1,70
134,100,77031,1,0,0:0:0:0:
82,175,77262,1,0,0:0:0:0:
194,33,77723,5,0,0:0:0:0:
194,33,78185,2,0,L|216:132,1,70
281,156,78877,1,0,0:0:0:0:
259,244,79108,1,0,0:0:0:0:
352,233,79570,1,0,0:0:0:0:
363,168,80031,6,0,P|367:202|351:232,1,70
290,300,80723,1,0,0:0:0:0:
249,200,80954,1,0,0:0:0:0:
165,242,81416,6,0,L|172:162,2,70
76,185,82800,1,0,0:0:0:0:
54,287,83262,2,0,P|80:306|145:313,1,70
219,298,84185,1,0,0:0:0:0:
282,216,84646,2,0,P|244:194|218:193,2,70
322,271,86031,2,0,L|339:331,1,35
322,271,86493,6,0,L|407:277,1,70
484,325,87416,2,0,P|484:256|475:241,1,70
429,167,88339,1,0,0:0:0:0:
197,89,88800,1,0,0:0:0:0:
128,168,89262,6,0,L|146:259,1,70
419,315,90185,2,0,L|405:228,1,70
394,100,91108,1,0,0:0:0:0:
288,210,91570,1,0,0:0:0:0:
288,210,92031,2,0,L|308:306,1,70
160,83,92954,2,0,L|175:163,1,70
261,96,93877,1,0,0:0:0:0:
261,96,94339,1,0,0:0:0:0:
371,199,94800,6,0,L|356:124,1,70
357,130,95493,1,0,0:0:0:0:
357,130,95723,6,0,P|328:158|286:174,1,70
185,103,96646,2,0,P|204:143|200:178,1,70
83,238,97570,2,0,P|150:244|164:255,1,70
192,359,98493,2,0,P|233:320|261:314,1,70
391,277,99416,2,0,L|316:240,2,70
380,172,100800,1,0,0:0:0:0:
337,73,101262,6,0,P|301:102|290:135,1,70
277,227,102185,5,0,0:0:0:0:
65,120,102646,1,0,0:0:0:0:
166,147,103108,2,0,L|181:236,1,70
403,129,104031,6,0,P|364:139|339:157,1,70
271,235,104954,1,0,0:0:0:0:
264,67,105416,2,0,L|267:147,1,70
195,214,106339,1,0,0:0:0:0:
112,278,106800,2,0,P|168:311|192:309,1,70
370,328,107723,6,0,P|407:298|419:264,2,70
195,214,109108,1,0,0:0:0:0:
346,97,109570,5,0,0:0:0:0:
203,72,110031,1,0,0:0:0:0:
265,268,110493,1,0,0:0:0:0:
439,181,110954,6,0,P|405:160|359:163,1,70
63,308,111877,2,0,P|116:273|146:269,1,70
337,282,112800,1,0,0:0:0:0:
120,85,113262,2,0,P|108:151|116:171,1,70
265,280,114185,2,0,P|294:235|292:192,1,70
289,114,115108,5,0,0:0:0:0:
367,27,115570,2,0,P|401:78|395:111,1,70
430,249,116493,2,0,P|405:215|368:199,1,70
68,216,117416,2,0,L|75:238,1,17.5
68,216,117646,2,0,L|91:202,1,17.5
68,216,117877,2,0,L|65:191,1,17.5
68,216,118108,2,0,L|35:219,1,17.5
68,216,118339,2,0,B|53:153|99:111|173:124|225:144|231:201|186:218|188:262|208:306|247:322|302:337|337:352|376:316|395:291|415:248|415:200|363:198,1,560
443,82,122493,6,0,L|364:122,1,70
290,167,123416,1,0,0:0:0:0:
319,66,123877,1,0,0:0:0:0:
220,103,124339,1,0,0:0:0:0:
254,3,124800,1,0,0:0:0:0:
154,36,125262,1,0,0:0:0:0:
81,248,125723,5,0,0:0:0:0:
157,175,126185,1,0,0:0:0:0:
186,275,126646,1,0,0:0:0:0:
405,151,127108,2,0,P|421:173|425:235,2,70
312,100,128493,1,0,0:0:0:0:
312,100,128954,1,0,0:0:0:0:
349,198,129416,5,0,0:0:0:0:
315,297,129877,2,0,P|349:301|381:317,2,70
216,332,131262,5,0,0:0:0:0:
261,237,131723,5,0,0:0:0:0:
212,143,132185,5,0,0:0:0:0:
289,71,132646,5,0,0:0:0:0:
416,190,133339,5,0,0:0:0:0:
370,190,133454,1,0,0:0:0:0:
350,231,133570,1,0,0:0:0:0:
305,221,133685,1,0,0:0:0:0:
288,263,133800,1,0,0:0:0:0:
243,253,133916,1,0,0:0:0:0:
227,295,134031,1,0,0:0:0:0:
256,192,134146,12,0,136339,0:0:0:0:
