osu file format v14

[General]
AudioFilename: audio.mp3
AudioLeadIn: 0
PreviewTime: 202489
Countdown: 1
SampleSet: Soft
StackLeniency: 0.7
Mode: 0
LetterboxInBreaks: 0
WidescreenStoryboard: 0

[Editor]
Bookmarks: 106974,148445
DistanceSpacing: 1
BeatDivisor: 4
GridSize: 4
TimelineZoom: 1

[Metadata]
Title:Congratulations
TitleUnicode:Congratulations
Artist:PewDiePie, Roomie and Boyinaband
ArtistUnicode:PewDiePie, Roomie and Boyinaband
Creator:Doomsday is Bad
Version:Brofist
Source:
Tags:
BeatmapID:2026443
BeatmapSetID:968464

[Difficulty]
HPDrainRate:6
CircleSize:4.5
OverallDifficulty:8
ApproachRate:8
SliderMultiplier:2.2
SliderTickRate:1

[Events]
//Background and Video events
0,0,"maxresdefault.jpg",0,0
Video,-10,"Congratulations.mp4"
//Break Periods
2,194527,199621
2,245703,248172
//Storyboard Layer 0 (Background)
//Storyboard Layer 1 (Fail)
//Storyboard Layer 2 (Pass)
//Storyboard Layer 3 (Foreground)
//Storyboard Sound Samples

[TimingPoints]
210,441.176470588235,4,2,0,60,1,0
13445,-133.333333333333,4,2,0,60,0,0
14327,-66.6666666666667,4,2,0,60,0,1
27562,-100,4,2,0,60,0,1
28445,-133.333333333333,4,2,0,60,0,0
35062,-100,4,2,0,60,0,0
37709,-66.6666666666667,4,2,0,60,0,0
38592,-133.333333333333,4,2,0,60,0,0
42562,-100,4,2,0,60,0,0
50945,-133.333333333333,4,2,0,60,0,0
56459,-100,4,2,0,60,0,0
63518,-133.333333333333,4,2,0,60,0,0
70798,-100,4,2,0,60,0,0
84033,-133.333333333333,4,2,0,60,0,0
84915,-66.6666666666667,4,2,0,60,0,1
113151,-100,4,2,0,60,0,0
129033,-66.6666666666667,4,2,0,60,0,0
130798,-100,4,2,0,60,0,0
132562,-66.6666666666667,4,2,0,60,0,0
134327,-100,4,2,0,60,0,0
137415,-133.333333333333,4,2,0,60,0,0
139180,-66.6666666666667,4,2,0,60,0,0
141386,-100,4,2,0,60,0,0
148445,-57.1428571428571,4,2,0,60,0,0
148665,-100,4,2,0,60,0,0
150209,-133.333333333333,4,2,0,60,0,0
151974,-100,4,2,0,60,0,0
153739,-133.333333333333,4,2,0,60,0,0
169621,-400,4,2,0,60,0,0
202268,-400,4,2,0,5,0,0
202489,-80,4,2,0,60,0,0
203371,441.176470588235,4,2,0,60,1,1
203371,-50,4,2,0,60,0,1
245723,-100,4,2,0,60,0,0

[HitObjects]
54,40,210,6,0,L|88:188,1,110,4|0,0:0|0:0,0:0:0:0:
103,196,540,1,0,0:0:0:0:
141,235,651,1,0,0:0:0:0:
247,261,871,1,0,0:0:0:0:
356,251,1092,2,0,P|455:146|440:38,1,220
354,34,1754,1,0,0:0:0:0:
299,24,1864,1,0,0:0:0:0:
244,24,1974,6,0,L|115:58,1,110
78,144,2415,2,0,B|116:251|291:228,1,220,2|0,0:0|0:0,0:0:0:0:
353,170,3077,1,2,0:0:0:0:
410,76,3298,2,0,P|480:85|515:144,1,110
492,221,3739,6,0,P|425:306|394:314,1,110,2|0,0:0|0:0,0:0:0:0:
376,324,4070,1,0,0:0:0:0:
321,330,4180,1,0,0:0:0:0:
210,329,4401,1,0,0:0:0:0:
108,286,4621,2,0,P|97:172|152:60,1,220,2|0,0:0|0:0,0:0:0:0:
239,35,5283,1,0,0:0:0:0:
292,23,5393,1,0,0:0:0:0:
339,50,5504,6,0,L|421:187,1,110,2|0,0:0|0:0,0:0:0:0:
427,339,5945,1,2,0:0:0:0:
142,223,6165,1,0,0:0:0:0:
370,223,6386,1,2,0:0:0:0:
85,339,6607,2,0,P|32:255|50:98,1,220,2|0,0:0|0:0,0:0:0:0:
93,46,7268,6,0,L|246:22,1,110,2|0,0:0|0:0,0:0:0:0:
256,23,7599,1,0,0:0:0:0:
310,14,7709,1,0,0:0:0:0:
406,68,7930,1,0,0:0:0:0:
300,99,8151,2,0,P|150:172|110:212,1,220,2|0,0:0|0:0,0:0:0:0:
163,305,8812,1,0,0:0:0:0:
209,335,8923,1,0,0:0:0:0:
261,350,9033,6,0,P|368:357|408:346,1,110,2|0,0:0|0:0,0:0:0:0:
450,281,9474,2,0,P|451:151|386:42,1,220,2|0,0:0|0:0,0:0:0:0:
306,43,10136,2,0,L|61:14,1,220
40,116,10798,6,0,P|39:248|33:268,1,110,2|0,0:0|0:0,0:0:0:0:
52,279,11129,1,0,0:0:0:0:
92,315,11239,1,0,0:0:0:0:
196,348,11459,1,0,0:0:0:0:
305,334,11680,2,0,P|386:294|446:162,1,220,2|0,0:0|0:0,0:0:0:0:
377,95,12342,1,0,0:0:0:0:
330,66,12452,1,0,0:0:0:0:
276,55,12562,6,0,L|157:36,1,110,2|0,0:0|0:0,0:0:0:0:
35,181,13004,1,2,0:0:0:0:
170,363,13224,1,0,0:0:0:0:
285,182,13445,6,0,L|355:91,1,82.5000031471254
227,202,13886,2,0,L|157:293,1,82.5000031471254
13,293,14327,6,0,P|43:154|216:9,1,330.000012588501,4|0,0:0|0:0,0:0:0:0:
337,44,14989,1,0,0:0:0:0:
398,196,15209,2,0,L|462:27,1,165.000006294251,8|0,0:0|0:0,0:0:0:0:
274,210,15651,2,0,L|332:55,1,165.000006294251
171,199,16092,6,0,P|126:276|289:273,2,330.000012588501,0|0|8,0:0|0:0|0:0,0:0:0:0:
304,101,17195,1,0,0:0:0:0:
436,198,17415,1,0,0:0:0:0:
288,271,17636,1,0,0:0:0:0:
383,135,17857,6,0,B|449:73|468:16|468:16|377:25|276:16,1,330.000012588501,4|0,0:0|0:0,0:0:0:0:
124,48,18518,1,0,0:0:0:0:
36,188,18739,2,0,L|173:295,1,165.000006294251,8|0,0:0|0:0,0:0:0:0:
330,274,19180,2,0,L|193:167,1,165.000006294251,0|8,0:0|0:0,0:0:0:0:
65,76,19621,6,0,P|149:33|249:18,1,165.000006294251,0|8,0:0|0:0,0:0:0:0:
374,59,20062,1,0,0:0:0:0:
436,218,20283,1,0,0:0:0:0:
436,218,20393,1,0,0:0:0:0:
436,218,20504,2,0,P|371:250|313:330,1,165.000006294251,8|0,0:0|0:0,0:0:0:0:
153,292,20945,1,0,0:0:0:0:
85,142,21165,1,0,0:0:0:0:
211,35,21386,6,0,P|461:92|526:169,2,330.000012588501,4|0|8,0:0|0:0|0:0,0:0:0:0:
68,119,22489,1,0,0:0:0:0:
162,253,22709,1,0,0:0:0:0:
258,118,22930,1,8,0:0:0:0:
360,247,23151,6,0,P|464:286|509:189,1,165.000006294251,0|8,0:0|0:0,0:0:0:0:
468,113,23592,2,0,L|132:33,1,330.000012588501,0|8,0:0|0:0,0:0:0:0:
51,171,24254,1,0,0:0:0:0:
123,318,24474,1,0,0:0:0:0:
218,182,24695,1,0,0:0:0:0:
277,335,24915,6,0,P|364:263|416:168,1,165.000006294251,4|0,0:0|0:0,0:0:0:0:
342,62,25357,2,0,P|255:134|203:229,1,165.000006294251
118,301,25798,1,8,0:0:0:0:
49,151,26018,1,0,0:0:0:0:
151,20,26239,1,0,0:0:0:0:
1,89,26459,1,0,0:0:0:0:
160,134,26680,6,0,P|309:207|343:195,1,165.000006294251,0|8,0:0|0:0,0:0:0:0:
430,136,27121,2,0,P|281:63|222:72,1,165.000006294251
123,88,27562,1,8,0:0:0:0:
51,237,27783,1,0,0:0:0:0:
214,214,28004,1,0,0:0:0:0:
214,214,28114,1,0,0:0:0:0:
214,214,28224,1,0,0:0:0:0:
306,131,28445,6,0,P|363:89|396:75,1,82.5000031471254,4|0,0:0|0:0,0:0:0:0:
474,155,28886,2,2,P|417:197|384:211,1,82.5000031471254
291,247,29327,1,8,0:0:0:0:
169,273,29548,1,0,0:0:0:0:
49,242,29768,2,0,L|33:136,1,82.5000031471254
95,51,30209,6,0,L|298:66,1,165.000006294251
338,298,31092,2,0,L|357:186,1,82.5000031471254,8|0,0:0|0:0,0:0:0:0:
174,298,31533,2,0,L|155:186,1,82.5000031471254
161,92,31974,5,0,0:0:0:0:
256,13,32195,1,0,0:0:0:0:
351,92,32415,1,0,0:0:0:0:
313,210,32636,1,0,0:0:0:0:
256,320,32857,1,8,0:0:0:0:
199,210,33077,1,0,0:0:0:0:
113,120,33298,2,0,L|69:214,1,82.5000031471254
148,296,33739,6,0,P|226:339|321:308,2,165.000006294251,0|0|8,0:0|0:0|0:0,0:0:0:0:
93,194,34842,1,0,0:0:0:0:
96,86,35062,1,0,0:0:0:0:
131,43,35173,1,0,0:0:0:0:
183,28,35283,1,0,0:0:0:0:
310,26,35504,6,0,L|334:168,1,110,2|0,0:0|0:0,0:0:0:0:
258,219,35945,2,0,L|234:77,1,110
138,65,36386,2,0,L|180:326,1,220,8|0,0:0|0:0,0:0:0:0:
274,326,37048,1,0,0:0:0:0:
410,283,37268,5,0,0:0:0:0:
401,77,37489,1,0,0:0:0:0:
157,16,37709,6,0,P|78:107|151:305,1,330.000012588501,8|0,0:0|0:0,0:0:0:0:
296,310,38371,1,0,0:0:0:0:
419,307,38592,6,0,L|466:205,1,82.5000031471254
405,117,39033,6,0,L|358:219,1,82.5000031471254,4|0,0:0|0:0,0:0:0:0:
307,298,39474,1,0,0:0:0:0:
190,339,39695,1,0,0:0:0:0:
71,304,39915,2,0,L|60:197,2,82.5000031471254,8|8|8,0:0|0:0|0:0,0:0:0:0:
189,341,40577,1,0,0:0:0:0:
309,312,40798,6,0,L|417:267,1,82.5000031471254
397,156,41239,2,0,L|289:201,1,82.5000031471254
203,312,41680,2,0,L|95:267,1,82.5000031471254,8|8,0:0|0:0,0:0:0:0:
115,156,42121,2,0,L|223:201,1,82.5000031471254,8|0,0:0|0:0,0:0:0:0:
287,134,42562,5,4,0:0:0:0:
379,74,42783,1,0,0:0:0:0:
475,20,43004,2,0,L|485:162,1,110
444,233,43445,1,8,0:0:0:0:
359,303,43665,1,0,0:0:0:0:
253,335,43886,6,0,P|139:331|82:236,1,220
107,142,44548,5,0,0:0:0:0:
157,44,44768,1,0,0:0:0:0:
201,144,44989,1,0,0:0:0:0:
251,46,45209,1,8,0:0:0:0:
298,145,45430,1,0,0:0:0:0:
348,47,45651,2,0,L|432:154,1,110
410,243,46092,6,0,L|342:329,1,110
232,342,46533,1,0,0:0:0:0:
121,344,46754,2,0,L|72:191,1,110,0|8,0:0|0:0,0:0:0:0:
68,130,47195,1,0,0:0:0:0:
134,42,47415,2,0,L|262:29,1,110
353,39,47857,6,0,P|416:65|454:114,2,110
238,34,48518,2,0,P|201:122|209:177,1,110,0|8,0:0|0:0,0:0:0:0:
234,239,48959,1,0,0:0:0:0:
335,281,49180,1,2,0:0:0:0:
385,259,49290,1,2,0:0:0:0:
396,204,49401,1,2,0:0:0:0:
403,94,49621,6,0,L|441:227,1,110
376,294,50062,2,0,L|338:161,1,110
293,90,50504,2,0,L|159:34,1,110,8|0,0:0|0:0,0:0:0:0:
77,97,50945,6,0,L|72:209,1,82.5000031471254
140,283,51386,2,0,L|145:171,1,82.5000031471254
223,105,51827,2,0,L|344:121,3,82.5000031471254,0|0|8|0,0:0|0:0|0:0|0:0,0:0:0:0:
417,172,52709,2,0,P|427:113|400:66,1,82.5000031471254
304,46,53151,6,0,L|193:29,1,82.5000031471254
98,37,53592,1,0,0:0:0:0:
14,127,53812,2,0,P|20:196|47:217,1,82.5000031471254,0|8,0:0|0:0,0:0:0:0:
126,277,54254,1,0,0:0:0:0:
247,254,54474,1,0,0:0:0:0:
355,193,54695,1,0,0:0:0:0:
392,72,54915,6,0,L|280:42,1,82.5000031471254
203,110,55357,1,0,0:0:0:0:
347,227,55577,1,0,0:0:0:0:
161,217,55798,1,8,0:0:0:0:
317,116,56018,1,0,0:0:0:0:
250,289,56239,2,0,P|195:320|143:318,1,82.5000031471254
75,278,56680,6,0,L|55:129,1,110,4|0,0:0|0:0,0:0:0:0:
145,130,57121,2,0,L|130:239,1,110
216,307,57562,2,0,L|201:197,1,110,8|0,0:0|0:0,0:0:0:0:
293,259,58003,2,0,L|278:368,1,110
387,351,58445,5,0,0:0:0:0:
453,264,58665,1,0,0:0:0:0:
434,155,58886,1,0,0:0:0:0:
368,66,59107,1,0,0:0:0:0:
324,162,59327,1,8,0:0:0:0:
434,155,59548,1,0,0:0:0:0:
369,69,59768,2,0,P|273:39|217:35,1,110,2|0,0:0|0:0,0:0:0:0:
142,142,60209,6,0,P|238:112|294:108,1,110,4|0,0:0|0:0,0:0:0:0:
350,149,60651,1,0,0:0:0:0:
377,255,60871,1,0,0:0:0:0:
276,299,61092,2,0,L|141:341,1,110,8|0,0:0|0:0,0:0:0:0:
76,274,61533,2,0,L|211:232,1,110
287,213,61974,6,0,B|341:190|341:190|313:122,1,110
243,64,62415,1,0,0:0:0:0:
133,49,62636,1,0,0:0:0:0:
58,130,62857,2,0,L|38:245,1,110,8|0,0:0|0:0,0:0:0:0:
110,321,63298,1,0,0:0:0:0:
231,342,63518,1,0,0:0:0:0:
354,331,63739,6,0,L|382:220,3,82.5000031471254,2|0|0|0,0:0|0:0|0:0|0:0,0:0:0:0:
314,142,64621,1,8,0:0:0:0:
190,154,64842,1,0,0:0:0:0:
143,268,65062,1,0,0:0:0:0:
231,342,65283,1,0,0:0:0:0:
354,331,65504,6,0,L|382:220,3,82.5000031471254,2|0|0|0,0:0|0:0|0:0|0:0,0:0:0:0:
314,142,66386,1,8,0:0:0:0:
190,154,66607,1,0,0:0:0:0:
143,268,66827,1,0,0:0:0:0:
231,342,67048,1,0,0:0:0:0:
354,331,67268,6,0,L|382:220,2,82.5000031471254,2|0|0,0:0|0:0|0:0,0:0:0:0:
230,340,67930,1,2,0:0:0:0:
107,318,68151,1,8,0:0:0:0:
31,220,68371,1,0,0:0:0:0:
23,96,68592,2,0,L|114:46,1,82.5000031471254,2|0,0:0|0:0,0:0:0:0:
258,59,69033,5,8,0:0:0:0:
435,160,69254,1,0,0:0:0:0:
258,59,69474,1,8,0:0:0:0:
435,160,69695,1,0,0:0:0:0:
339,310,69915,5,8,0:0:0:0:
136,273,70136,1,0,0:0:0:0:
66,93,70357,1,8,0:0:0:0:
66,93,70467,1,0,0:0:0:0:
66,93,70577,1,0,0:0:0:0:
161,37,70798,6,0,P|271:27|319:40,2,110,4|0|0,0:0|0:0|0:0,0:0:0:0:
107,132,71459,1,0,0:0:0:0:
130,239,71680,1,8,0:0:0:0:
209,315,71901,1,0,0:0:0:0:
315,340,72121,1,0,0:0:0:0:
424,325,72342,1,0,0:0:0:0:
464,223,72562,6,0,L|453:84,1,110
365,48,73004,1,0,0:0:0:0:
260,80,73224,2,0,L|250:205,1,110,0|8,0:0|0:0,0:0:0:0:
151,236,73665,1,0,0:0:0:0:
50,191,73886,2,0,L|41:81,1,110
144,42,74327,6,0,L|283:33,2,110
135,151,74989,2,0,P|177:234|200:243,1,110,0|8,0:0|0:0,0:0:0:0:
256,153,75430,1,0,0:0:0:0:
208,53,75651,1,0,0:0:0:0:
140,140,75871,6,0,L|16:140,1,110
255,192,76312,1,0,0:0:0:0:
372,140,76533,2,0,L|496:140,2,110,0|0|8,0:0|0:0|0:0,0:0:0:0:
327,240,77195,1,0,0:0:0:0:
246,314,77415,1,0,0:0:0:0:
246,314,77526,1,0,0:0:0:0:
246,314,77636,1,0,0:0:0:0:
135,311,77857,6,0,L|61:177,1,110,4|0,0:0|0:0,0:0:0:0:
153,130,78298,2,0,L|227:264,1,110
316,227,78739,2,0,L|369:130,1,110,8|0,0:0|0:0,0:0:0:0:
440,216,79180,2,0,L|386:312,1,110
282,348,79621,5,0,0:0:0:0:
171,343,79842,1,0,0:0:0:0:
73,291,80062,1,0,0:0:0:0:
22,193,80283,1,0,0:0:0:0:
33,83,80504,2,0,B|163:65|162:65,2,110,8|0|0,0:0|0:0|0:0,0:0:0:0:
99,170,81165,1,0,0:0:0:0:
174,250,81386,6,0,L|320:269,1,110
374,202,81827,1,0,0:0:0:0:
402,95,82048,1,0,0:0:0:0:
305,42,82268,2,0,L|177:36,2,110,8|0|0,0:0|0:0|0:0,0:0:0:0:
414,49,82930,1,0,0:0:0:0:
460,148,83151,6,0,L|454:268,1,110,10|0,0:0|0:0,0:0:0:0:
363,319,83592,2,0,L|369:199,1,110,10|0,0:0|0:0,0:0:0:0:
306,107,84033,6,0,L|199:114,1,82.5000031471254,2|0,0:0|0:0,0:0:0:0:
206,277,84474,6,0,L|313:270,1,82.5000031471254,2|0,0:0|0:0,0:0:0:0:
413,163,84915,6,0,P|303:42|192:156,1,330.000012588501,4|0,0:0|0:0,0:0:0:0:
198,292,85577,1,0,0:0:0:0:
356,335,85797,2,0,L|420:166,1,165.000006294251,8|0,0:0|0:0,0:0:0:0:
250,205,86239,2,0,L|308:50,1,165.000006294251
188,164,86680,6,0,P|165:250|321:202,2,330.000012588501,0|0|8,0:0|0:0|0:0,0:0:0:0:
306,48,87783,1,0,0:0:0:0:
395,186,88003,1,0,0:0:0:0:
451,30,88224,1,0,0:0:0:0:
320,130,88445,6,0,B|215:247|215:247|348:372,1,330.000012588501,4|0,0:0|0:0,0:0:0:0:
457,249,89106,1,0,0:0:0:0:
338,133,89327,2,0,L|207:31,1,165.000006294251,8|0,0:0|0:0,0:0:0:0:
45,63,89768,2,0,L|175:164,1,165.000006294251,0|8,0:0|0:0,0:0:0:0:
237,317,90209,6,0,P|153:360|53:375,1,165.000006294251,0|8,0:0|0:0,0:0:0:0:
23,220,90650,1,0,0:0:0:0:
142,105,90871,1,0,0:0:0:0:
142,105,90981,1,0,0:0:0:0:
142,105,91092,2,0,P|207:73|306:58,1,165.000006294251,8|0,0:0|0:0,0:0:0:0:
384,198,91533,1,0,0:0:0:0:
257,303,91753,1,0,0:0:0:0:
96,342,91974,6,0,P|153:92|230:27,2,330.000012588501,4|0|8,0:0|0:0|0:0,0:0:0:0:
259,320,93077,1,0,0:0:0:0:
330,171,93297,1,0,0:0:0:0:
400,320,93518,1,8,0:0:0:0:
477,174,93739,6,0,P|472:72|419:25,1,165.000006294251,0|8,0:0|0:0,0:0:0:0:
300,132,94180,2,0,P|128:170|-36:52,1,330.000012588501,0|8,0:0|0:0,0:0:0:0:
141,17,94842,1,0,0:0:0:0:
305,29,95062,1,0,0:0:0:0:
369,181,95283,1,0,0:0:0:0:
396,343,95503,6,0,P|483:271|535:176,1,165.000006294251,4|0,0:0|0:0,0:0:0:0:
455,72,95945,2,0,P|368:144|316:239,1,165.000006294251
270,336,96386,1,8,0:0:0:0:
105,343,96606,1,0,0:0:0:0:
206,212,96827,1,0,0:0:0:0:
41,222,97047,1,0,0:0:0:0:
12,48,97268,6,0,P|142:43|221:53,1,165.000006294251,0|8,0:0|0:0,0:0:0:0:
397,118,97709,2,0,P|258:61|189:54,1,165.000006294251
86,106,98150,1,8,0:0:0:0:
54,268,98371,1,0,0:0:0:0:
209,212,98592,1,0,0:0:0:0:
209,212,98702,1,0,0:0:0:0:
209,212,98812,1,0,0:0:0:0:
291,68,99033,6,0,P|458:53|442:180,1,330.000012588501,4|0,0:0|0:0,0:0:0:0:
349,300,99695,1,0,0:0:0:0:
187,332,99915,2,0,P|172:165|299:181,1,330.000012588501,8|0,0:0|0:0,0:0:0:0:
426,263,100577,1,0,0:0:0:0:
456,100,100798,5,0,0:0:0:0:
299,49,101018,1,0,0:0:0:0:
299,49,101129,1,0,0:0:0:0:
299,49,101239,2,0,P|193:71|121:117,1,165.000006294251
75,248,101680,1,8,0:0:0:0:
195,356,101901,2,0,P|285:350|377:290,1,165.000006294251
433,172,102342,1,0,0:0:0:0:
298,77,102562,6,0,P|186:60|199:275,1,330.000012588501,4|0,0:0|0:0,0:0:0:0:
273,331,103224,1,0,0:0:0:0:
438,327,103445,2,0,P|455:215|240:228,1,330.000012588501,8|0,0:0|0:0,0:0:0:0:
148,268,104107,1,0,0:0:0:0:
39,144,104327,6,0,P|117:62|206:50,2,165.000006294251
352,42,105209,2,0,P|431:218|306:277,1,330.000012588501,8|0,0:0|0:0,0:0:0:0:
288,290,105761,1,0,0:0:0:0:
228,303,105871,1,0,0:0:0:0:
72,246,106092,6,0,B|49:80|49:80|252:62,1,330.000012588501,4|0,0:0|0:0,0:0:0:0:
356,143,106754,1,0,0:0:0:0:
405,299,106974,2,0,B|239:322|239:322|221:119,1,330.000012588501,8|0,0:0|0:0,0:0:0:0:
321,26,107636,1,0,0:0:0:0:
457,119,107857,6,0,P|432:236|351:264,1,165.000006294251
248,321,108298,2,0,P|119:291|185:126,1,330.000012588501,0|8,0:0|0:0,0:0:0:0:
309,67,108959,2,0,P|438:97|372:262,1,330.000012588501
248,321,109621,6,0,P|119:291|20:104,1,330.000012588501,4|0,0:0|0:0,0:0:0:0:
148,25,110283,1,0,0:0:0:0:
313,28,110504,2,0,P|386:71|411:192,1,165.000006294251,8|0,0:0|0:0,0:0:0:0:
350,294,110945,2,0,P|277:251|252:130,1,165.000006294251
201,20,111386,6,0,L|131:184,2,165.000006294251
258,149,112048,1,0,0:0:0:0:
364,274,112268,2,0,P|437:219|435:84,1,165.000006294251,8|0,0:0|0:0,0:0:0:0:
352,21,112709,1,0,0:0:0:0:
352,21,112820,1,0,0:0:0:0:
352,21,112930,1,0,0:0:0:0:
242,32,113151,6,0,L|131:105,1,110
147,202,113592,2,0,L|258:129,1,110
337,92,114033,1,0,0:0:0:0:
439,52,114254,1,0,0:0:0:0:
421,160,114474,2,0,L|399:307,1,110
316,335,114915,6,0,L|169:313,1,110
101,284,115357,1,0,0:0:0:0:
101,284,115467,1,0,0:0:0:0:
101,284,115577,2,0,P|68:194|78:129,2,110,0|8|0,0:0|0:0|0:0,0:0:0:0:
178,206,116239,2,0,L|317:157,1,110,2|0,0:0|0:0,0:0:0:0:
384,124,116680,6,0,B|472:124|472:124|428:124|428:124|428:212,1,220
239,325,117562,2,0,P|151:312|112:258,2,110
395,169,118445,2,0,P|316:201|412:260,1,220
217,322,119107,1,0,0:0:0:0:
44,336,119327,2,0,B|44:232|44:232|112:280|56:346,1,220,8|0,0:0|0:0,0:0:0:0:
175,348,119989,1,0,0:0:0:0:
283,334,120209,6,0,L|389:217,1,110
342,142,120651,2,0,L|236:259,1,110
158,227,121092,2,0,L|84:145,1,110,8|0,0:0|0:0,0:0:0:0:
69,255,121534,2,0,L|142:336,1,110
252,341,121974,5,0,0:0:0:0:
359,314,122195,1,0,0:0:0:0:
440,240,122415,1,0,0:0:0:0:
453,130,122636,1,0,0:0:0:0:
392,37,122857,2,0,L|247:44,1,110,8|0,0:0|0:0,0:0:0:0:
120,37,123298,2,0,L|265:44,1,110
318,107,123739,5,0,0:0:0:0:
352,211,123959,1,0,0:0:0:0:
252,163,124180,1,0,0:0:0:0:
286,267,124400,1,0,0:0:0:0:
193,206,124621,2,0,L|225:324,1,110,8|0,0:0|0:0,0:0:0:0:
325,350,125062,2,0,P|417:348|442:335,1,110
472,238,125504,5,0,0:0:0:0:
445,131,125724,1,0,0:0:0:0:
355,66,125945,1,0,0:0:0:0:
246,51,126165,1,0,0:0:0:0:
138,76,126386,2,0,L|62:173,1,110,8|0,0:0|0:0,0:0:0:0:
121,260,126827,2,0,L|197:163,1,110
269,97,127268,6,0,L|305:256,2,110
169,48,127930,1,0,0:0:0:0:
65,85,128151,1,8,0:0:0:0:
44,192,128371,1,0,0:0:0:0:
63,300,128592,2,0,P|155:348|190:346,1,110,2|0,0:0|0:0,0:0:0:0:
323,344,129033,6,0,L|396:152,1,165.000006294251
289,52,129474,2,0,L|216:244,1,165.000006294251
125,334,129915,1,8,0:0:0:0:
57,183,130136,1,0,0:0:0:0:
120,32,130357,2,0,L|328:32,1,165.000006294251
373,97,130798,6,0,L|426:228,1,110
378,303,131239,2,0,L|260:349,2,110,2|0|8,0:0|0:0|0:0,0:0:0:0:
430,205,131901,1,0,0:0:0:0:
394,101,132121,1,0,0:0:0:0:
296,50,132342,1,0,0:0:0:0:
132,68,132562,6,0,P|50:145|91:215,1,165.000006294251
205,262,133004,2,0,P|287:185|246:115,1,165.000006294251
122,90,133445,1,8,0:0:0:0:
78,248,133665,1,0,0:0:0:0:
204,354,133886,1,0,0:0:0:0:
204,354,133996,1,0,0:0:0:0:
204,354,134107,1,0,0:0:0:0:
313,341,134327,6,0,L|428:284,2,110
203,356,134989,1,0,0:0:0:0:
107,302,135209,2,0,L|62:171,2,110,8|0|0,0:0|0:0|0:0,0:0:0:0:
203,356,135871,1,0,0:0:0:0:
312,344,136092,5,0,0:0:0:0:
312,344,136312,1,0,0:0:0:0:
399,276,136533,2,0,L|413:146,2,110,0|0|8,0:0|0:0|0:0,0:0:0:0:
312,344,137195,1,0,0:0:0:0:
213,349,137415,5,0,0:0:0:0:
113,347,137636,1,0,0:0:0:0:
63,261,137857,6,0,L|61:146,1,82.5000031471254
134,111,138298,2,0,L|136:226,1,82.5000031471254
140,292,138739,2,0,L|247:287,1,82.5000031471254,8|0,0:0|0:0,0:0:0:0:
385,263,139180,6,0,P|442:184|412:89,1,165.000006294251
277,69,139621,6,0,L|75:39,1,165.000006294251
220,171,140062,2,0,L|6:172,1,165.000006294251
147,310,140504,1,8,0:0:0:0:
309,338,140724,1,0,0:0:0:0:
427,222,140945,2,0,L|446:52,1,165.000006294251
338,32,141386,6,0,L|207:24,2,110
403,120,142048,1,0,0:0:0:0:
433,225,142268,2,0,P|379:310|337:317,1,110,8|0,0:0|0:0,0:0:0:0:
268,335,142709,1,0,0:0:0:0:
157,338,142930,1,0,0:0:0:0:
69,270,143151,6,0,L|54:108,1,110
97,57,143592,2,0,P|164:142|279:83,1,220,0|8,0:0|0:0,0:0:0:0:
353,58,144254,1,0,0:0:0:0:
455,19,144474,2,0,P|487:62|455:158,1,110
403,188,144915,6,0,P|321:286|312:303,1,110
239,333,145357,1,0,0:0:0:0:
129,322,145577,1,0,0:0:0:0:
52,242,145798,2,0,L|43:101,2,110,8|0|0,0:0|0:0|0:0,0:0:0:0:
129,322,146459,1,0,0:0:0:0:
236,346,146680,6,0,L|296:218,1,110
339,151,147121,2,0,P|331:73|184:63,1,220,0|8,0:0|0:0,0:0:0:0:
157,139,147783,1,0,0:0:0:0:
148,248,148004,1,0,0:0:0:0:
148,248,148114,1,0,0:0:0:0:
148,248,148224,1,0,0:0:0:0:
304,360,148445,6,0,P|406:320|435:193,1,192.500001835823,4|0,0:0|0:0,0:0:0:0:
435,139,148886,6,0,P|376:54|349:40,1,110
264,28,149327,1,0,0:0:0:0:
153,28,149548,1,0,0:0:0:0:
47,79,149768,2,0,L|36:204,1,110
63,292,150209,6,0,P|86:332|127:356,1,82.5000031471254
223,349,150651,1,0,0:0:0:0:
325,319,150871,1,0,0:0:0:0:
407,250,151092,2,0,L|455:159,2,82.5000031471254
325,319,151754,1,0,0:0:0:0:
223,359,151974,6,0,L|152:230,2,110
325,319,152636,1,0,0:0:0:0:
391,230,152857,2,0,P|343:109|333:105,1,110
265,94,153298,2,0,L|237:214,1,110
203,302,153739,5,0,0:0:0:0:
115,362,153959,1,0,0:0:0:0:
91,257,154180,1,0,0:0:0:0:
97,149,154401,1,0,0:0:0:0:
103,42,154621,2,0,L|218:31,1,82.5000031471254,8|0,0:0|0:0,0:0:0:0:
245,122,155062,1,0,0:0:0:0:
245,122,155173,1,0,0:0:0:0:
245,122,155283,1,0,0:0:0:0:
254,228,155504,6,0,P|306:305|330:318,1,82.5000031471254,4|0,0:0|0:0,0:0:0:0:
403,300,155945,2,0,P|429:268|445:230,1,82.5000031471254
418,126,156386,1,8,0:0:0:0:
339,52,156607,1,0,0:0:0:0:
233,36,156827,1,0,0:0:0:0:
125,39,157048,1,0,0:0:0:0:
68,129,157268,6,0,L|76:248,1,82.5000031471254
168,262,157709,2,0,L|160:143,1,82.5000031471254
190,75,158151,1,8,0:0:0:0:
266,150,158371,1,0,0:0:0:0:
346,79,158592,1,0,0:0:0:0:
423,152,158812,1,0,0:0:0:0:
430,44,159033,6,0,L|326:25,2,82.5000031471254
478,140,159695,1,0,0:0:0:0:
463,245,159915,1,8,0:0:0:0:
387,320,160136,1,0,0:0:0:0:
281,339,160357,1,0,0:0:0:0:
176,315,160577,1,0,0:0:0:0:
98,241,160798,6,0,L|68:129,1,82.5000031471254
77,53,161239,2,0,P|176:28|190:29,1,82.5000031471254
257,61,161680,2,0,L|287:173,1,82.5000031471254,8|0,0:0|0:0,0:0:0:0:
278,249,162121,2,0,P|179:274|165:273,1,82.5000031471254
99,234,162562,5,0,0:0:0:0:
99,234,162783,2,0,L|67:148,2,82.5000031471254
173,311,163445,2,0,P|240:340|282:334,1,82.5000031471254,8|0,0:0|0:0,0:0:0:0:
352,316,163886,1,0,0:0:0:0:
439,253,164107,1,0,0:0:0:0:
458,147,164327,5,0,0:0:0:0:
393,60,164548,1,0,0:0:0:0:
290,30,164768,2,0,L|246:127,1,82.5000031471254
155,144,165209,2,0,L|199:47,1,82.5000031471254,8|0,0:0|0:0,0:0:0:0:
94,17,165651,1,0,0:0:0:0:
16,90,165871,1,0,0:0:0:0:
24,197,166092,6,0,P|51:275|67:294,1,82.5000031471254
144,326,166533,1,0,0:0:0:0:
249,343,166754,1,0,0:0:0:0:
355,347,166974,2,0,P|411:308|441:266,1,82.5000031471254,8|0,0:0|0:0,0:0:0:0:
383,196,167415,2,0,P|327:235|297:277,1,82.5000031471254
254,332,167857,5,0,0:0:0:0:
150,358,168077,1,0,0:0:0:0:
46,329,168298,2,0,L|43:220,1,82.5000031471254
115,166,168739,2,0,L|118:275,1,82.5000031471254,8|0,0:0|0:0,0:0:0:0:
196,320,169180,2,0,L|193:211,1,82.5000031471254
195,141,169621,5,4,0:0:0:0:
208,45,169842,2,0,L|242:39,2,27.5
112,61,170504,2,0,L|104:95,1,27.5
104,184,170945,2,0,L|112:218,1,27.5
174,282,171386,6,0,L|211:295,2,27.5,0|0|4,0:0|0:0|0:0,0:0:0:0:
110,210,172048,1,0,0:0:0:0:
94,116,172268,2,0,L|88:80,1,27.5
278,49,172930,1,0,0:0:0:0:
278,49,173040,1,0,0:0:0:0:
278,49,173151,6,0,L|316:59,1,27.5,4|0,0:0|0:0,0:0:0:0:
356,137,173592,1,0,0:0:0:0:
343,232,173812,1,0,0:0:0:0:
291,313,174033,2,0,P|268:342|244:351,1,55,0|4,0:0|0:0,0:0:0:0:
155,344,174695,1,0,0:0:0:0:
75,289,174915,6,0,L|75:251,1,27.5
103,169,175357,1,4,0:0:0:0:
186,122,175577,2,0,L|224:114,1,27.5
415,326,176680,5,4,0:0:0:0:
415,326,176901,2,0,L|425:292,2,27.5
321,346,177562,2,0,L|286:352,1,27.5
205,310,178004,2,0,L|200:280,1,27.5
122,226,178445,6,0,L|127:256,1,27.5
82,338,178886,1,4,0:0:0:0:
16,267,179107,2,0,L|11:239,1,27.5
102,70,179768,1,0,0:0:0:0:
102,70,179989,1,0,0:0:0:0:
102,70,180209,5,4,0:0:0:0:
197,56,180430,2,0,L|221:53,1,13.75
354,39,180871,2,0,L|364:98,1,55
358,189,181533,1,4,0:0:0:0:
314,274,181754,1,0,0:0:0:0:
231,323,181974,5,0,0:0:0:0:
134,323,182195,1,0,0:0:0:0:
56,266,182415,2,0,L|50:200,1,55,4|0,0:0|0:0,0:0:0:0:
42,115,183077,1,0,0:0:0:0:
222,47,183518,1,0,0:0:0:0:
222,47,183739,6,0,L|261:42,1,27.5,4|0,0:0|0:0,0:0:0:0:
326,101,184180,2,0,L|287:106,1,27.5
241,181,184621,2,0,L|280:176,1,27.5
336,245,185062,2,0,L|297:250,1,27.5
246,322,185504,5,0,0:0:0:0:
158,361,185724,1,0,0:0:0:0:
61,352,185945,1,4,0:0:0:0:
16,266,186165,1,0,0:0:0:0:
15,169,186386,2,0,L|25:110,1,55
83,38,187048,1,0,0:0:0:0:
177,21,187268,6,0,L|199:52,1,27.5,4|0,0:0|0:0,0:0:0:0:
265,107,187709,2,0,L|295:83,1,27.5
360,27,188151,2,0,L|399:72,1,55,0|4,0:0|0:0,0:0:0:0:
408,163,188812,1,0,0:0:0:0:
401,259,189033,5,0,0:0:0:0:
361,346,189254,1,0,0:0:0:0:
266,361,189474,1,4,0:0:0:0:
169,358,189695,1,0,0:0:0:0:
78,327,189915,2,0,L|76:267,1,55
129,86,190798,5,4,0:0:0:0:
256,192,191018,12,0,194327,0:0:0:0:
256,192,201386,12,0,202268,0:0:0:0:
92,49,202489,6,0,L|86:211,1,137.5,2|0,0:0|0:0,0:0:0:0:
293,326,202930,2,0,L|299:164,1,137.5,2|0,0:0|0:0,0:0:0:0:
413,163,203371,6,0,P|303:42|53:104,1,440,4|0,0:0|0:0,0:0:0:0:
98,315,204033,1,0,0:0:0:0:
316,339,204253,2,0,L|485:185,1,220,8|0,0:0|0:0,0:0:0:0:
269,262,204695,2,0,L|361:59,1,220
140,80,205136,6,0,P|55:123|244:261,2,440,0|0|8,0:0|0:0|0:0,0:0:0:0:
352,21,206239,1,0,0:0:0:0:
330,239,206459,1,0,0:0:0:0:
158,100,206680,1,0,0:0:0:0:
367,32,206901,6,0,B|367:152|467:247|467:247|345:222|281:371,1,440,4|0,0:0|0:0,0:0:0:0:
256,347,207451,1,0,0:0:0:0:
206,362,207562,1,0,0:0:0:0:
153,355,207672,1,0,0:0:0:0:
102,343,207783,2,0,L|111:105,1,220,8|0,0:0|0:0,0:0:0:0:
304,226,208224,2,0,P|416:147|442:20,1,220,0|8,0:0|0:0,0:0:0:0:
228,22,208665,6,0,P|144:65|108:200,1,220,0|8,0:0|0:0,0:0:0:0:
259,335,209106,1,0,0:0:0:0:
463,253,209327,1,0,0:0:0:0:
463,253,209437,1,0,0:0:0:0:
463,253,209548,2,0,P|495:188|457:34,1,220,8|0,0:0|0:0,0:0:0:0:
250,80,209989,1,0,0:0:0:0:
362,268,210209,1,0,0:0:0:0:
151,332,210430,6,0,P|84:118|311:22,2,440,4|0|8,0:0|0:0|0:0,0:0:0:0:
370,318,211533,1,0,0:0:0:0:
344,100,211753,1,0,0:0:0:0:
181,248,211974,1,8,0:0:0:0:
413,208,212195,6,0,P|437:86|301:20,1,220,0|8,0:0|0:0,0:0:0:0:
300,231,212636,2,0,P|128:269|133:45,1,440,0|8,0:0|0:0,0:0:0:0:
330,29,213298,1,0,0:0:0:0:
476,192,213518,1,0,0:0:0:0:
331,364,213739,1,0,0:0:0:0:
119,304,213959,6,0,P|32:232|36:106,1,220,4|0,0:0|0:0,0:0:0:0:
224,34,214401,2,0,P|137:106|104:215,1,220
309,291,214842,1,8,0:0:0:0:
95,340,215062,1,0,0:0:0:0:
229,165,215283,1,0,0:0:0:0:
13,203,215503,1,0,0:0:0:0:
13,41,215724,6,0,P|143:36|254:66,1,220,0|8,0:0|0:0,0:0:0:0:
504,141,216165,2,0,P|365:84|276:72,1,220
79,110,216606,1,8,0:0:0:0:
41,327,216827,1,0,0:0:0:0:
239,231,217048,1,0,0:0:0:0:
239,231,217158,1,0,0:0:0:0:
239,231,217268,1,0,0:0:0:0:
407,89,217489,6,0,P|422:256|358:117,1,440,4|0,0:0|0:0,0:0:0:0:
256,346,218151,1,0,0:0:0:0:
169,143,218371,2,0,P|35:236|105:89,1,440,8|0,0:0|0:0,0:0:0:0:
319,138,219033,1,0,0:0:0:0:
414,336,219254,5,0,0:0:0:0:
439,118,219474,1,0,0:0:0:0:
439,118,219695,2,0,P|333:96|224:32,1,220
73,191,220136,1,8,0:0:0:0:
196,373,220357,2,0,P|286:367|396:278,1,220
438,77,220798,1,0,0:0:0:0:
219,53,221018,6,0,P|107:36|235:98,1,440,4|0,0:0|0:0,0:0:0:0:
445,56,221680,1,0,0:0:0:0:
380,266,221901,2,0,P|268:283|396:214,1,440,8|0,0:0|0:0,0:0:0:0:
242,362,222563,1,0,0:0:0:0:
104,190,222783,6,0,P|182:108|316:58,2,220
352,42,223665,2,0,P|431:218|236:322,1,440,8|0,0:0|0:0,0:0:0:0:
180,308,224217,1,0,0:0:0:0:
125,255,224327,1,0,0:0:0:0:
66,43,224547,6,0,B|270:17|270:17|221:317,1,440,4|0,0:0|0:0,0:0:0:0:
391,94,225210,1,0,0:0:0:0:
391,94,225429,2,0,B|442:311|442:311|227:333,1,440,8|2,0:0|0:0,0:0:0:0:
53,64,226092,1,0,0:0:0:0:
53,64,226313,6,0,P|78:181|203:169,1,220
383,188,226754,2,0,P|254:158|417:44,1,440,0|8,0:0|0:0,0:0:0:0:
318,231,227415,2,0,P|187:242|291:62,1,440
277,328,228077,6,0,P|148:298|142:17,1,440,4|0,0:0|0:0,0:0:0:0:
345,22,228739,1,0,0:0:0:0:
345,22,228960,2,0,P|302:95|351:246,1,220,8|0,0:0|0:0,0:0:0:0:
152,355,229401,2,0,P|79:312|195:212,1,220
278,50,229842,6,0,L|253:296,2,220
494,91,230504,1,0,0:0:0:0:
459,307,230724,2,0,P|381:282|216:153,1,220,8|0,0:0|0:0,0:0:0:0:
95,67,231165,1,0,0:0:0:0:
95,67,231276,1,0,0:0:0:0:
95,67,231386,1,0,0:0:0:0:
149,279,231606,6,0,P|290:319|367:275,2,220,4|0|0,0:0|0:0|0:0,0:0:0:0:
56,79,232268,1,0,0:0:0:0:
269,28,232488,1,8,0:0:0:0:
339,234,232709,1,0,0:0:0:0:
487,65,232929,1,0,0:0:0:0:
269,28,233150,1,8,0:0:0:0:
269,28,233260,1,0,0:0:0:0:
269,28,233370,6,0,L|34:53,1,220,8|0,0:0|0:0,0:0:0:0:
24,271,233812,2,0,P|63:145|383:164,2,440,0|8|0,0:0|0:0|0:0,0:0:0:0:
230,347,234915,1,0,0:0:0:0:
444,299,235135,6,0,L|451:69,1,220,4|0,0:0|0:0,0:0:0:0:
236,26,235576,2,0,L|229:256,1,220
426,346,236018,1,0,0:0:0:0:
470,131,236238,1,0,0:0:0:0:
275,234,236459,1,0,0:0:0:0:
189,32,236679,1,0,0:0:0:0:
60,211,236900,6,0,L|111:-8,1,220
289,124,237341,2,0,L|238:343,1,220
456,300,237782,2,0,L|472:44,1,220,10|0,0:0|0:0,0:0:0:0:
255,28,238223,1,2,0:0:0:0:
255,28,238334,1,0,0:0:0:0:
255,28,238444,1,0,0:0:0:0:
63,137,238665,6,0,P|102:290|312:191,1,440,6|0,0:0|0:0,0:0:0:0:
180,31,239326,1,0,0:0:0:0:
31,194,239547,2,0,P|67:304|329:225,1,440,8|0,0:0|0:0,0:0:0:0:
375,33,240209,1,0,0:0:0:0:
156,52,240429,6,0,L|-26:196,1,220
128,354,240870,2,0,L|310:210,1,220
465,69,241312,1,8,0:0:0:0:
253,8,241532,1,0,0:0:0:0:
47,69,241753,2,0,P|46:185|154:199,1,220
344,157,242194,6,0,P|345:41|237:27,1,220,4|0,0:0|0:0,0:0:0:0:
51,86,242635,1,0,0:0:0:0:
88,303,242856,1,0,0:0:0:0:
306,325,243076,2,0,P|451:260|295:73,1,440,8|0,0:0|0:0,0:0:0:0:
117,56,243738,1,0,0:0:0:0:
72,271,243959,5,0,0:0:0:0:
279,341,244179,1,0,0:0:0:0:
476,242,244400,1,8,0:0:0:0:
328,79,244620,1,0,0:0:0:0:
476,242,244841,1,0,0:0:0:0:
284,351,245062,2,0,P|184:269|181:141,1,220
194,122,245393,1,0,0:0:0:0:
236,69,245503,1,0,0:0:0:0:
256,194,248922,5,8,0:0:0:0:
426,57,250273,5,8,0:0:0:0:
58,157,251486,5,8,0:0:0:0:
408,333,252562,5,8,0:0:0:0:
268,59,253361,5,8,0:0:0:0:
76,257,254051,5,8,0:0:0:0:
387,329,254547,5,8,0:0:0:0:
417,60,254961,5,8,0:0:0:0:
88,63,255402,5,8,0:0:0:0:
267,169,255815,5,8,0:0:0:0:
465,75,256201,5,8,0:0:0:0:
406,302,256615,5,8,0:0:0:0:
119,320,256973,5,8,0:0:0:0:
75,108,257359,5,8,0:0:0:0:
407,71,257801,5,8,0:0:0:0:
