osu file format v14

[General]
AudioFilename: audio.mp3
AudioLeadIn: 0
PreviewTime: 89694
Countdown: 0
SampleSet: None
StackLeniency: 0.7
Mode: 0
LetterboxInBreaks: 0
WidescreenStoryboard: 0

[Editor]
DistanceSpacing: 0.3
BeatDivisor: 4
GridSize: 16
TimelineZoom: 1.4

[Metadata]
Title:Bitch Lasagna
TitleUnicode:Bitch Lasagna
Artist:PewDiePie x Party In The Backyard
ArtistUnicode:PewDiePie x Party In The Backyard
Creator:Sticky Apple
Version:Subscribe to Pewds
Source:
Tags:subscribe tseries diss track youtube meme
BeatmapID:1910751
BeatmapSetID:914876

[Difficulty]
HPDrainRate:6
CircleSize:4
OverallDifficulty:8
ApproachRate:9
SliderMultiplier:2
SliderTickRate:1

[Events]
//Background and Video events
Video,0,"bitch lasagna.mp4"
0,0,"bg.png",0,0
//Break Periods
//Storyboard Layer 0 (Background)
//Storyboard Layer 1 (Fail)
//Storyboard Layer 2 (Pass)
//Storyboard Layer 3 (Foreground)
//Storyboard Sound Samples

[TimingPoints]
94,400,4,2,1,15,1,0
94,-200,4,2,1,15,0,0
294,-200,4,2,1,5,0,0
494,-200,4,2,1,15,0,0
694,-200,4,2,1,5,0,0
894,-200,4,2,1,15,0,0
1094,-200,4,2,1,5,0,0
1294,-200,4,2,1,15,0,0
1494,-200,4,2,1,5,0,0
1694,-200,4,2,1,15,0,0
1894,-200,4,2,1,5,0,0
2094,-200,4,2,1,15,0,0
2294,-200,4,2,1,5,0,0
2494,-200,4,2,1,15,0,0
2694,-200,4,2,1,5,0,0
2894,-200,4,2,1,15,0,0
3094,-200,4,2,1,5,0,0
3294,-200,4,2,1,15,0,0
3494,-200,4,2,1,5,0,0
3694,-200,4,2,1,15,0,0
3894,-200,4,2,1,5,0,0
4094,-200,4,2,1,15,0,0
4294,-200,4,2,1,5,0,0
4494,-200,4,2,1,15,0,0
4694,-200,4,2,1,5,0,0
4894,-200,4,2,1,15,0,0
5094,-200,4,2,1,5,0,0
5294,-200,4,2,1,15,0,0
5494,-200,4,2,1,5,0,0
5694,-200,4,2,1,15,0,0
5894,-200,4,2,1,5,0,0
6094,-200,4,2,1,15,0,0
6294,-200,4,2,1,5,0,0
6494,-200,4,2,1,15,0,0
6694,-200,4,2,1,5,0,0
6894,-200,4,2,1,15,0,0
7094,-200,4,2,1,5,0,0
7294,-200,4,2,1,15,0,0
7494,-200,4,2,1,5,0,0
7694,-200,4,2,1,15,0,0
7894,-200,4,2,1,5,0,0
8094,-200,4,2,1,15,0,0
8294,-200,4,2,1,5,0,0
8494,-200,4,2,1,15,0,0
8694,-200,4,2,1,5,0,0
8894,-200,4,2,1,15,0,0
9094,-200,4,2,1,5,0,0
9294,-200,4,2,1,15,0,0
9494,-200,4,2,1,5,0,0
9694,-200,4,2,1,15,0,0
9894,-200,4,2,1,5,0,0
10094,-200,4,2,1,15,0,0
10294,-200,4,2,1,5,0,0
10494,-200,4,2,1,15,0,0
10694,-200,4,2,1,5,0,0
10894,-200,4,2,1,15,0,0
11094,-200,4,2,1,5,0,0
11294,-125,4,3,1,15,0,0
12894,-80,4,3,1,65,0,0
15594,-80,4,3,1,5,0,0
15694,-80,4,3,1,65,0,0
18794,-80,4,3,1,5,0,0
18894,-80,4,3,1,65,0,0
21694,-80,4,2,1,65,0,0
22094,-80,4,3,1,65,0,0
23594,-80,4,3,1,5,0,0
23694,-80,4,3,1,65,0,0
24894,-80,4,2,1,65,0,0
25694,-80,4,3,1,65,0,0
28094,-80,4,2,1,65,0,0
28494,-80,4,3,1,65,0,0
29694,-80,4,2,1,65,0,0
30094,-80,4,3,1,65,0,0
30894,-40,4,1,1,65,0,0
31294,-80,4,3,1,65,0,0
33194,-80,4,3,1,5,0,0
33294,-80,4,3,1,65,0,0
33594,-80,4,3,1,5,0,0
33694,-80,4,3,1,65,0,0
37994,-80,4,3,1,5,0,0
38094,-80,4,3,1,65,0,0
38494,-66.6666666666667,4,3,1,85,0,1
48794,-66.6666666666667,4,3,1,5,0,1
48894,-66.6666666666667,4,3,1,85,0,1
50794,-66.6666666666667,4,3,1,5,0,1
50894,-66.6666666666667,4,3,1,85,0,1
61594,-66.6666666666667,4,3,1,5,0,1
61694,-66.6666666666667,4,3,1,85,0,1
61994,-66.6666666666667,4,3,1,5,0,1
62094,-66.6666666666667,4,3,1,85,0,1
63894,-80,4,3,1,65,0,0
66894,-500,4,3,1,65,0,0
67194,-500,4,3,1,5,0,0
67294,-80,4,3,1,65,0,0
70094,-500,4,3,1,65,0,0
70394,-500,4,3,1,5,0,0
70494,-80,4,3,1,65,0,0
73594,-80,4,3,1,5,0,0
73694,-80,4,3,1,65,0,0
76494,-500,4,3,1,65,0,0
76794,-80,4,3,1,65,0,0
77394,-80,4,3,1,5,0,0
77494,-80,4,3,1,65,0,0
77594,-80,4,3,1,5,0,0
77694,-80,4,3,1,65,0,0
80194,-80,4,3,1,5,0,0
80294,-80,4,3,1,65,0,0
80394,-80,4,3,1,5,0,0
80494,-80,4,3,1,65,0,0
86394,-80,4,3,1,5,0,0
86494,-80,4,3,1,65,0,0
86594,-80,4,3,1,5,0,0
86694,-80,4,3,1,65,0,0
86794,-80,4,3,1,5,0,0
86894,-80,4,3,1,65,0,0
86994,-80,4,3,1,5,0,0
87094,-80,4,3,1,65,0,0
87194,-80,4,3,1,5,0,0
87294,-80,4,3,1,65,0,0
89694,-66.6666666666667,4,3,1,85,0,1
93594,-66.6666666666667,4,3,1,5,0,1
93694,-66.6666666666667,4,3,1,85,0,1
101994,-66.6666666666667,4,3,1,5,0,1
102094,-66.6666666666667,4,3,1,85,0,1
102494,-55.5555555555556,4,3,1,85,0,1
103194,-55.5555555555556,4,3,1,5,0,1
103294,-55.5555555555556,4,3,1,85,0,1
104794,-55.5555555555556,4,3,1,5,0,1
104894,-55.5555555555556,4,3,1,85,0,1
106394,-55.5555555555556,4,3,1,5,0,1
106494,-55.5555555555556,4,3,1,85,0,1
108394,-55.5555555555556,4,3,1,5,0,1
108494,-55.5555555555556,4,3,1,85,0,1
109594,-55.5555555555556,4,3,1,5,0,1
109694,-55.5555555555556,4,3,1,85,0,1
111194,-55.5555555555556,4,3,1,5,0,1
111294,-55.5555555555556,4,3,1,85,0,1
112094,-66.6666666666667,4,3,1,50,0,0
114794,-66.6666666666667,4,3,1,5,0,0
114894,-66.6666666666667,4,3,1,50,0,0
115294,-100,4,3,1,60,0,0
115594,-100,4,3,1,5,0,0
115694,-100,4,3,1,60,0,0
115994,-100,4,3,1,5,0,0
116094,-100,4,3,1,60,0,0
116394,-100,4,3,1,5,0,0
116494,-100,4,3,1,60,0,0
117194,-100,4,3,1,5,0,0
117294,-100,4,3,1,60,0,0
117594,-100,4,3,1,5,0,0
117694,-100,4,3,1,60,0,0
117994,-100,4,3,1,5,0,0
118094,-100,4,3,1,60,0,0
118794,-100,4,3,1,5,0,0
118894,-100,4,3,1,60,0,0
119194,-100,4,3,1,5,0,0
119294,-100,4,3,1,60,0,0
119594,-100,4,3,1,5,0,0
119694,-100,4,3,1,60,0,0
119994,-100,4,3,1,5,0,0
120094,-100,4,3,1,60,0,0
120394,-100,4,3,1,5,0,0
120494,-100,4,3,1,60,0,0
120794,-100,4,3,1,5,0,0
120894,-100,4,3,1,60,0,0
121194,-100,4,3,1,5,0,0
121294,-100,4,3,1,60,0,0
121994,-100,4,3,1,5,0,0
122094,-100,4,3,1,60,0,0
122394,-100,4,3,1,5,0,0
122494,-100,4,3,1,60,0,0
122794,-100,4,3,1,5,0,0
122894,-100,4,3,1,60,0,0
123594,-100,4,3,1,5,0,0
123694,-100,4,3,1,60,0,0
123994,-100,4,3,1,5,0,0
124094,-100,4,3,1,60,0,0
124394,-100,4,3,1,5,0,0
124494,-100,4,3,1,60,0,0
125194,-100,4,3,1,5,0,0
125294,-100,4,3,1,60,0,0
125594,-100,4,3,1,5,0,0
125694,-100,4,3,1,60,0,0
125994,-100,4,3,1,5,0,0
126094,-100,4,3,1,60,0,0
126394,-100,4,3,1,5,0,0
126494,-100,4,3,1,60,0,0
126794,-100,4,3,1,5,0,0
126894,-100,4,3,1,60,0,0
127194,-100,4,3,1,5,0,0
127294,-100,4,3,1,60,0,0
127594,-100,4,3,1,5,0,0
127694,-100,4,3,1,60,0,0
129094,-100,4,3,1,60,0,0
129694,-100,4,3,1,45,0,0
130294,-100,4,3,1,30,0,0
130894,-100,4,3,1,15,0,0
131294,-100,4,3,1,5,0,0

[Colours]
Combo1 : 226,45,124
Combo2 : 255,0,0
Combo3 : 82,82,82
Combo4 : 255,128,255

[HitObjects]
358,296,94,6,0,L|411:307,1,50
358,296,494,2,0,L|411:307,1,50
358,217,894,2,0,L|411:228,1,50
358,88,1294,2,0,L|411:77,1,50
154,88,1694,2,0,L|101:77,1,50
154,88,2094,2,0,L|101:77,1,50
154,217,2494,2,0,L|101:228,1,50
154,217,2894,2,0,L|101:228,1,50
281,294,3294,6,0,L|292:347,1,50
281,294,3694,2,0,L|292:347,1,50
281,294,4094,2,0,L|292:347,1,50
231,186,4494,2,0,L|220:239,1,50
231,186,4894,2,0,L|220:239,1,50
231,186,5294,2,0,L|220:239,1,50
312,186,5694,2,0,L|323:239,1,50
153,186,6094,2,0,L|142:239,1,50
154,311,6494,6,0,L|101:322,1,50
154,311,6894,2,0,L|101:322,1,50
154,232,7294,2,0,L|101:243,1,50
154,103,7694,2,0,L|101:92,1,50
358,103,8094,2,0,L|411:92,1,50
358,103,8494,2,0,L|411:92,1,50
358,232,8894,2,0,L|411:243,1,50
358,232,9294,2,0,L|411:243,1,50
231,309,9694,6,0,L|220:362,1,50
231,309,10094,2,0,L|220:362,1,50
231,309,10494,2,0,L|220:362,1,50
281,186,10894,2,0,L|292:239,1,50
229,133,11294,6,0,B|212:63|104:58|76:155|134:203|134:203|158:223|158:223|125:241|125:241|159:259|159:259|127:280|127:280|161:296|161:296|157:334|192:387|260:365|284:322|262:284,1,600
353,151,12894,6,0,L|390:278,1,125
451,334,13294,1,0,0:0:0:0:
289,88,13494,1,0,0:0:0:0:
372,321,13694,2,0,P|407:266|494:268,1,125,8|0,0:0|0:0,0:0:0:0:
368,101,14094,2,0,P|333:156|246:154,1,125
176,120,14494,5,0,0:0:0:0:
278,296,14694,1,0,0:0:0:0:
299,94,14894,1,0,0:0:0:0:
163,245,15094,1,0,0:0:0:0:
361,203,15294,2,0,P|413:134|328:91,1,187.5,8|0,0:0|0:0,0:0:0:0:
331,88,15694,5,0,0:0:0:0:
278,207,15894,1,0,0:0:0:0:
145,308,16094,2,0,L|143:176,1,125
86,131,16494,2,0,P|148:105|217:157,1,125
296,258,16894,1,8,0:0:0:0:
132,276,17094,1,0,0:0:0:0:
197,126,17294,2,0,L|334:116,1,125
445,142,17694,5,0,0:0:0:0:
343,317,17894,1,0,0:0:0:0:
322,116,18094,1,0,0:0:0:0:
458,266,18294,1,0,0:0:0:0:
247,223,18494,2,0,P|226:128|301:83,1,187.5,8|0,0:0|0:0,0:0:0:0:
299,161,18894,2,0,P|371:96|349:29,1,125
372,76,19194,1,0,0:0:0:0:
372,76,19294,1,0,0:0:0:0:
261,258,19494,5,0,0:0:0:0:
291,83,19694,1,0,0:0:0:0:
189,155,19894,1,0,0:0:0:0:
363,186,20094,2,0,L|407:309,1,125,8|0,0:0|0:0,0:0:0:0:
373,100,20494,1,0,0:0:0:0:
395,384,20694,1,0,0:0:0:0:
321,293,20894,2,0,P|303:238|245:213,1,125
137,354,21294,1,0,0:0:0:0:
245,288,21494,1,0,0:0:0:0:
137,229,21694,2,0,L|100:227,2,31.25,8|0|0,0:0|0:0|0:0,0:0:0:0:
188,150,21894,2,0,L|160:124,2,31.25
265,91,22094,6,0,L|353:192,1,125
211,30,22494,1,0,0:0:0:0:
147,225,22694,1,0,0:0:0:0:
347,185,22894,1,0,0:0:0:0:
211,30,23094,1,0,0:0:0:0:
132,49,23294,2,0,P|178:106|282:71,1,187.5,8|0,0:0|0:0,0:0:0:0:
285,64,23694,5,0,0:0:0:0:
177,236,23894,1,0,0:0:0:0:
365,160,24094,1,0,0:0:0:0:
168,111,24294,1,0,0:0:0:0:
298,266,24494,2,0,L|458:301,1,125
419,194,24894,5,8,0:0:0:0:
419,173,24994,1,0,0:0:0:0:
414,152,25094,1,0,0:0:0:0:
408,138,25194,1,0,0:0:0:0:
398,124,25294,1,0,0:0:0:0:
311,87,25494,1,0,0:0:0:0:
105,229,25694,5,0,0:0:0:0:
406,154,25894,1,0,0:0:0:0:
123,112,26094,1,0,0:0:0:0:
388,271,26294,1,0,0:0:0:0:
218,41,26494,5,8,0:0:0:0:
293,342,26694,1,0,0:0:0:0:
335,59,26894,1,0,0:0:0:0:
176,324,27094,1,0,0:0:0:0:
407,155,27294,5,0,0:0:0:0:
106,230,27494,1,0,0:0:0:0:
389,272,27694,1,0,0:0:0:0:
124,113,27894,1,0,0:0:0:0:
294,343,28094,2,0,L|322:369,2,31.25,8|0|0,0:0|0:0|0:0,0:0:0:0:
345,264,28294,2,0,L|382:266,2,31.25
346,168,28494,5,0,0:0:0:0:
180,254,28694,1,0,0:0:0:0:
338,355,28894,2,0,L|479:347,1,125
446,148,29294,1,0,0:0:0:0:
462,347,29494,1,0,0:0:0:0:
350,164,29694,2,0,L|333:137,2,31.25,8|0|0,0:0|0:0|0:0,0:0:0:0:
280,226,29893,2,0,L|250:216,2,31.25
253,321,30094,5,0,0:0:0:0:
141,318,30294,2,0,L|132:182,1,125
126,103,30694,1,0,0:0:0:0:
358,192,30894,6,0,P|414:201|379:248,1,125,8|0,0:0|0:0,0:0:0:0:
154,192,31094,2,0,P|98:201|133:248,1,125,8|0,0:0|0:0,0:0:0:0:
352,223,31294,5,0,0:0:0:0:
167,137,31494,1,0,0:0:0:0:
266,313,31694,1,0,0:0:0:0:
290,112,31894,1,0,0:0:0:0:
152,260,32094,2,0,L|136:423,1,125
299,176,32494,5,0,0:0:0:0:
299,344,32694,1,0,0:0:0:0:
152,260,32894,2,0,P|131:240|225:130,1,187.5,8|0,0:0|0:0,0:0:0:0:
194,197,33294,2,0,P|221:188|187:48,1,187.5
209,54,33694,1,0,0:0:0:0:
181,197,33894,1,0,0:0:0:0:
293,59,34094,5,0,0:0:0:0:
240,255,34294,1,0,0:0:0:0:
396,127,34494,1,8,0:0:0:0:
193,138,34694,1,0,0:0:0:0:
363,249,34894,2,0,L|526:235,1,125
359,171,35294,2,0,P|286:223|393:319,1,250
363,249,36094,1,8,0:0:0:0:
221,223,36494,5,0,0:0:0:0:
246,146,36694,1,0,0:0:0:0:
300,206,36894,1,0,0:0:0:0:
166,162,37094,1,0,0:0:0:0:
196,300,37294,1,0,0:0:0:0:
191,84,37494,1,0,0:0:0:0:
275,284,37694,2,0,B|307:201|222:201|272:88,1,187.5
270,67,38094,1,0,0:0:0:0:
381,170,38494,6,0,P|386:267|325:302,1,150.000005722046
114,171,38894,1,0,0:0:0:0:
322,222,39094,1,0,0:0:0:0:
290,149,39294,2,0,P|241:233|336:301,1,225.000008583069,8|0,3:0|3:0,3:0:0:0:
322,222,39694,2,0,B|198:252|222:139|119:158,1,225.000008583069,0|0,3:0|3:0,3:0:0:0:
117,236,40094,6,0,P|42:173|58:105,1,150.000005722046
298,40,40494,1,0,0:0:0:0:
119,157,40694,1,0,0:0:0:0:
194,183,40894,2,0,P|165:90|51:112,1,225.000008583069,8|0,3:0|3:0,3:0:0:0:
119,157,41294,2,0,B|181:45|247:140|304:52,1,225.000008583069,0|0,3:0|3:0,3:0:0:0:
210,176,41694,5,0,0:0:0:0:
429,182,41894,1,0,0:0:0:0:
312,370,42094,1,0,0:0:0:0:
321,116,42294,1,0,0:0:0:0:
470,354,42494,5,8,0:0:0:0:
204,302,42694,1,0,0:0:0:0:
461,150,42894,1,0,0:0:0:0:
312,370,43094,1,0,0:0:0:0:
168,147,43294,6,0,P|212:60|282:60,1,150.000005722046
399,279,43694,1,0,0:0:0:0:
245,131,43894,1,0,0:0:0:0:
236,210,44094,2,0,P|320:161|272:55,1,225.000008583069,8|0,3:0|3:0,3:0:0:0:
245,131,44494,2,0,B|335:139|261:227|411:231,1,150.000005722046,0|0,3:0|3:0,3:0:0:0:
353,222,44794,1,0,0:0:0:0:
353,222,44894,6,0,P|363:318|303:356,1,150.000005722046
86,237,45294,1,0,0:0:0:0:
296,277,45494,1,0,0:0:0:0:
260,206,45694,2,0,P|215:292|313:355,1,225.000008583069,8|0,3:0|3:0,3:0:0:0:
296,277,46094,2,0,B|173:313|191:199|89:223,1,225.000008583069,0|0,3:0|3:0,3:0:0:0:
167,239,46494,6,0,P|86:301|24:268,1,150.000005722046
23,20,46894,1,0,0:0:0:0:
90,223,47094,1,0,0:0:0:0:
134,157,47294,2,0,P|36:160|29:276,1,225.000008583069,8|0,3:0|3:0,3:0:0:0:
90,223,47694,2,0,B|-1:133|107:94|36:16,1,225.000008583069,0|0,3:0|3:0,3:0:0:0:
384,207,48094,1,0,0:0:0:0:
205,72,48294,1,0,0:0:0:0:
177,295,48494,2,0,B|253:229|316:323|392:197,1,225.000008583069
378,217,48894,5,8,0:0:0:0:
204,79,49094,1,0,0:0:0:0:
174,300,49294,1,0,0:0:0:0:
330,99,49494,1,0,0:0:0:0:
47,187,49694,5,0,0:0:0:0:
311,302,49894,1,0,0:0:0:0:
204,79,50094,1,0,0:0:0:0:
174,300,50294,1,0,0:0:0:0:
391,136,50494,2,0,P|478:100|527:207,1,225.000008583069,8|0,0:0|0:0,0:0:0:0:
457,175,50894,1,0,0:0:0:0:
147,149,51094,5,0,0:0:0:0:
126,169,51194,1,0,0:0:0:0:
117,199,51294,2,0,P|123:237|230:255,1,150.000005722046
95,50,51694,1,0,0:0:0:0:
263,346,51894,1,0,0:0:0:0:
218,158,52094,2,0,P|229:114|391:77,1,225.000008583069,8|0,0:0|0:0,0:0:0:0:
382,70,52494,2,0,P|371:114|209:151,1,225.000008583069
282,84,52894,6,0,P|255:55|157:100,1,150.000005722046
382,195,53294,1,0,0:0:0:0:
78,43,53494,1,0,0:0:0:0:
221,174,53694,2,0,P|236:216|122:337,1,225.000008583069,8|0,0:0|0:0,0:0:0:0:
134,339,54094,2,0,P|118:296|232:175,1,225.000008583069
443,206,54494,5,0,0:0:0:0:
260,325,54694,1,0,0:0:0:0:
248,105,54894,1,0,0:0:0:0:
386,318,55094,1,0,0:0:0:0:
127,208,55294,5,8,0:0:0:0:
376,98,55494,1,0,0:0:0:0:
252,370,55694,1,0,0:0:0:0:
248,105,55894,1,0,0:0:0:0:
430,294,56094,6,0,P|463:273|440:168,1,150.000005722046
300,368,56494,1,0,0:0:0:0:
512,102,56694,1,0,0:0:0:0:
354,215,56894,2,0,P|309:220|215:84,1,225.000008583069,8|0,0:0|0:0,0:0:0:0:
212,94,57294,2,0,B|277:68|304:137|386:68,1,150.000005722046
357,87,57594,1,0,0:0:0:0:
357,87,57694,6,0,B|428:114|428:114|433:206,1,150.000005722046
252,50,58094,1,0,0:0:0:0:
440,304,58294,1,0,0:0:0:0:
214,127,58494,2,0,B|161:73|161:73|192:-15,1,150.000005722046,8|0,0:0|0:0,0:0:0:0:
355,317,58894,2,0,B|390:383|390:383|484:381,1,150.000005722046
155,297,59294,6,0,B|83:269|83:269|78:177,1,150.000005722046
260,334,59694,1,0,0:0:0:0:
72,80,59894,1,0,0:0:0:0:
298,257,60094,2,0,B|350:310|350:310|319:399,1,150.000005722046,8|0,0:0|0:0,0:0:0:0:
157,67,60494,2,0,B|121:0|121:0|27:2,1,150.000005722046
121,256,60894,5,0,0:0:0:0:
350,287,61094,1,0,0:0:0:0:
262,71,61294,2,0,B|272:55|291:2|187:-18|154:68|179:122|257:164|304:130,1,225.000008583069
319,111,61694,2,0,P|310:181|185:157,1,225.000008583069,8|0,0:0|0:0,0:0:0:0:
119,18,62094,5,0,0:0:0:0:
329,116,62294,1,0,0:0:0:0:
139,249,62494,1,0,0:0:0:0:
252,6,62694,1,0,0:0:0:0:
272,237,62894,5,0,0:0:0:0:
62,139,63094,1,0,0:0:0:0:
323,117,63294,2,0,B|418:66|442:217|539:137,1,225.000008583069,8|0,0:0|0:0,0:0:0:0:
475,73,63694,2,0,P|439:145|505:232,1,150.000005722046
462,205,63994,1,0,0:0:0:0:
462,205,64094,6,0,L|442:349,1,125
360,328,64494,2,0,L|378:205,1,125
462,205,64894,2,0,P|428:139|305:157,1,187.5,8|0,0:0|0:0,0:0:0:0:
288,219,65294,2,0,P|238:157|281:58,1,187.5
288,219,65694,5,0,0:0:0:0:
324,137,65894,1,0,0:0:0:0:
378,205,66094,1,0,0:0:0:0:
234,151,66294,1,0,0:0:0:0:
198,233,66494,1,8,0:0:0:0:
270,69,66694,1,0,0:0:0:0:
288,219,66894,6,0,L|284:256,1,30
198,233,67294,5,0,0:0:0:0:
270,69,67494,1,0,0:0:0:0:
288,219,67694,1,0,0:0:0:0:
180,83,67894,1,0,0:0:0:0:
162,315,68094,5,8,0:0:0:0:
324,137,68294,1,0,0:0:0:0:
342,287,68494,1,0,0:0:0:0:
144,165,68694,1,0,0:0:0:0:
162,315,68894,5,0,0:0:0:0:
198,233,69094,1,0,0:0:0:0:
252,301,69294,1,0,0:0:0:0:
144,165,69494,1,0,0:0:0:0:
72,329,69694,1,8,0:0:0:0:
288,219,69894,1,0,0:0:0:0:
108,247,70094,6,0,L|76:252,1,30
324,137,70494,5,0,0:0:0:0:
288,219,70694,1,0,0:0:0:0:
378,205,70894,1,0,0:0:0:0:
234,151,71094,1,0,0:0:0:0:
342,287,71294,5,8,0:0:0:0:
414,123,71494,1,0,0:0:0:0:
198,233,71694,1,0,0:0:0:0:
432,273,71894,1,0,0:0:0:0:
180,83,72094,5,0,0:0:0:0:
144,165,72294,1,0,0:0:0:0:
216,1,72494,1,0,0:0:0:0:
270,69,72694,1,0,0:0:0:0:
126,15,72894,5,8,0:0:0:0:
54,179,73094,1,0,0:0:0:0:
270,69,73294,2,0,P|329:47|308:138,1,187.5
288,219,73694,5,0,0:0:0:0:
324,137,73894,1,0,0:0:0:0:
378,205,74094,1,0,0:0:0:0:
234,151,74294,1,0,0:0:0:0:
198,233,74494,5,8,0:0:0:0:
414,123,74694,1,0,0:0:0:0:
270,69,74894,1,0,0:0:0:0:
342,287,75094,1,0,0:0:0:0:
360,55,75294,5,0,0:0:0:0:
198,233,75494,1,0,0:0:0:0:
468,191,75694,1,0,0:0:0:0:
180,83,75894,1,0,0:0:0:0:
342,287,76094,5,8,0:0:0:0:
360,55,76294,1,0,0:0:0:0:
198,233,76494,2,0,L|179:253,1,20
173,262,76794,1,0,0:0:0:0:
159,277,76894,5,0,0:0:0:0:
391,222,77094,1,0,0:0:0:0:
246,50,77294,2,0,P|214:41|164:77,1,62.5
112,46,77494,2,0,P|116:78|136:106,1,62.5
362,279,77694,5,8,0:0:0:0:
325,57,77894,1,0,0:0:0:0:
151,199,78094,1,0,0:0:0:0:
407,157,78294,1,0,0:0:0:0:
196,77,78494,5,0,0:0:0:0:
233,299,78694,1,0,0:0:0:0:
407,157,78894,1,0,0:0:0:0:
151,199,79094,1,0,0:0:0:0:
89,264,79294,5,8,0:0:0:0:
68,175,79494,1,0,0:0:0:0:
172,288,79694,1,0,0:0:0:0:
287,183,79894,1,0,0:0:0:0:
383,76,80094,6,0,L|447:60,1,62.5
242,46,80294,2,0,L|188:0,1,62.5
366,157,80494,1,0,0:0:0:0:
321,20,80694,1,0,0:0:0:0:
225,127,80894,5,8,0:0:0:0:
383,76,81094,2,0,P|431:105|448:173,1,125
444,182,81494,1,0,0:0:0:0:
386,310,81694,5,0,0:0:0:0:
316,355,81894,1,0,0:0:0:0:
244,309,82094,1,0,0:0:0:0:
182,364,82294,1,0,0:0:0:0:
102,383,82494,1,8,0:0:0:0:
24,350,82694,1,0,0:0:0:0:
7,265,82894,1,0,0:0:0:0:
304,144,83294,5,0,0:0:0:0:
215,233,83494,1,0,0:0:0:0:
393,55,83594,1,0,0:0:0:0:
281,260,84094,5,0,0:0:0:0:
396,308,84294,1,0,0:0:0:0:
164,211,84394,1,0,0:0:0:0:
230,183,84894,5,0,0:0:0:0:
247,307,85094,1,0,0:0:0:0:
212,58,85194,1,0,0:0:0:0:
61,231,85694,5,0,0:0:0:0:
496,175,85894,1,0,0:0:0:0:
240,197,86294,6,0,L|306:197,1,62.5
240,116,86494,2,0,L|174:116,1,62.5
159,197,86694,2,0,L|159:263,1,62.5
321,116,86894,2,0,L|321:50,1,62.5
240,278,87094,2,0,L|306:278,1,62.5
321,116,87294,5,8,0:0:0:0:
383,278,87494,1,0,0:0:0:0:
447,142,87694,1,0,0:0:0:0:
372,178,87894,1,0,0:0:0:0:
441,225,88094,5,0,0:0:0:0:
372,178,88294,1,0,0:0:0:0:
326,248,88494,1,0,0:0:0:0:
372,178,88694,1,0,0:0:0:0:
396,294,88894,2,0,B|364:343|364:343|292:342,1,125
190,332,89294,1,0,0:0:0:0:
91,312,89494,1,0,0:0:0:0:
282,84,89694,6,0,P|255:55|157:100,1,150.000005722046
382,195,90094,1,0,0:0:0:0:
78,43,90294,1,0,0:0:0:0:
221,174,90494,2,0,P|236:216|122:337,1,225.000008583069,8|0,0:0|0:0,0:0:0:0:
134,339,90894,2,0,P|118:296|232:175,1,225.000008583069
386,289,91294,6,0,P|366:323|260:301,1,150.000005722046
458,158,91694,1,0,0:0:0:0:
196,374,91894,1,0,0:0:0:0:
306,215,92094,2,0,P|311:170|172:78,1,225.000008583069,8|0,0:0|0:0,0:0:0:0:
184,73,92494,2,0,P|178:118|316:210,1,225.000008583069
109,88,92894,5,0,0:0:0:0:
240,281,93094,1,0,0:0:0:0:
342,72,93294,2,0,P|370:43|473:137,1,225.000008583069
447,276,93694,5,8,0:0:0:0:
389,132,93894,1,0,0:0:0:0:
354,240,94094,1,0,0:0:0:0:
303,177,94294,1,0,0:0:0:0:
281,290,94494,1,0,0:0:0:0:
236,120,94694,1,0,0:0:0:0:
206,241,94894,1,0,0:0:0:0:
161,41,95094,1,0,0:0:0:0:
143,306,95294,6,0,P|67:343|40:206,1,225.000008583069,8|0,0:0|0:0,0:0:0:0:
79,270,95694,2,0,P|8:222|77:139,1,150.000005722046
71,99,95994,1,0,0:0:0:0:
71,99,96094,6,0,P|103:182|62:241,1,150.000005722046
146,25,96494,1,0,0:0:0:0:
71,331,96694,1,0,0:0:0:0:
340,212,96894,2,0,P|420:172|363:240,1,225.000008583069,8|0,0:0|0:0,0:0:0:0:
113,195,97294,1,0,0:0:0:0:
258,46,97694,6,0,P|286:130|356:149,1,150.000005722046
152,38,98094,1,0,0:0:0:0:
407,223,98294,1,0,0:0:0:0:
124,305,98494,2,0,P|81:383|151:328,1,225.000008583069,8|0,0:0|0:0,0:0:0:0:
287,146,98894,1,0,0:0:0:0:
113,288,99294,5,0,0:0:0:0:
249,61,99494,1,0,0:0:0:0:
377,296,99694,1,0,0:0:0:0:
116,134,99894,1,0,0:0:0:0:
456,121,100094,5,8,0:0:0:0:
240,369,100294,1,0,0:0:0:0:
235,10,100494,1,0,0:0:0:0:
377,296,100694,1,0,0:0:0:0:
109,298,100894,6,0,P|65:219|97:155,1,150.000005722046
77,68,101294,1,0,0:0:0:0:
43,381,101494,1,0,0:0:0:0:
290,157,101694,2,0,P|200:153|283:121,1,225.000008583069,8|0,0:0|0:0,0:0:0:0:
511,99,102094,1,0,0:0:0:0:
359,332,102294,5,0,0:0:0:0:
325,348,102394,1,0,0:0:0:0:
301,358,102494,2,0,B|239:371|239:371|242:259|242:259|246:257|246:257|242:256|242:256|245:146|245:146|176:164,1,359.999989013672
13,251,103094,2,0,B|42:230|42:230|40:223|40:223|47:227|47:227|83:202,1,89.9999972534181
35,135,103294,2,0,B|80:108|130:129|149:159|149:159|155:157|155:157|151:161|151:161|166:189|178:239|121:281,1,269.999991760254,8|0,0:0|0:0,0:0:0:0:
80,206,103694,2,0,B|107:161|161:157|192:175|192:175|197:171|197:171|195:176|195:176|221:194|254:233|222:297,1,269.999991760254
459,43,104094,6,0,B|397:29|397:29|400:141|400:141|404:143|404:143|400:144|400:144|403:255|403:255|334:236,1,359.999989013672
171,150,104694,2,0,B|200:170|200:170|198:177|198:177|205:173|205:173|241:198,1,89.9999972534181
193,266,104894,2,0,B|238:293|288:272|307:242|307:242|313:243|313:243|309:240|309:240|324:212|336:162|279:120,1,269.999991760254,8|0,0:0|0:0,0:0:0:0:
238,195,105294,2,0,B|265:239|319:243|350:225|350:225|355:229|355:229|353:224|353:224|379:206|412:167|380:103,1,269.999991760254
384,110,105694,1,0,0:0:0:0:
160,121,105894,1,0,0:0:0:0:
289,333,106094,2,0,B|251:206|437:266|383:97,1,269.999991760254
386,110,106494,5,8,0:0:0:0:
163,127,106694,1,0,0:0:0:0:
282,316,106894,1,0,0:0:0:0:
273,61,107094,1,0,0:0:0:0:
112,311,107294,5,0,0:0:0:0:
389,229,107494,1,0,0:0:0:0:
163,127,107694,1,0,0:0:0:0:
282,316,107894,1,0,0:0:0:0:
335,83,108094,2,0,P|383:0|500:94,1,269.999991760254,8|0,0:0|0:0,0:0:0:0:
419,76,108494,1,0,0:0:0:0:
91,10,108694,5,0,0:0:0:0:
90,46,108794,1,0,0:0:0:0:
90,79,108894,2,0,B|99:141|99:141|203:98|203:98|202:93|202:93|205:97|205:97|307:55|307:55|314:125,1,359.999989013672
293,309,109494,2,0,B|301:273|301:273|308:273|308:273|302:268|302:268|312:225,1,89.9999972534181
393,247,109694,2,0,B|402:195|364:156|329:149|329:149|328:142|328:142|327:148|327:148|295:144|244:150|225:219,1,269.999991760254,8|0,0:0|0:0,0:0:0:0:
311,230,110094,2,0,B|342:188|326:136|299:114|299:114|301:107|301:107|297:111|297:111|270:94|222:76|174:129,1,269.999991760254
45,353,110494,6,0,B|106:366|106:366|103:254|103:254|99:252|99:252|103:251|103:251|101:141|101:141|169:159,1,359.999989013672
333,246,111094,2,0,B|303:225|303:225|305:218|305:218|298:222|298:222|262:197,1,89.9999972534181
311,130,111294,2,0,B|266:103|216:124|197:154|197:154|190:152|190:152|195:156|195:156|180:184|168:234|225:276,1,269.999991760254,8|0,0:0|0:0,0:0:0:0:
266,201,111694,2,0,B|238:156|184:152|153:170|153:170|148:166|148:166|150:171|150:171|124:189|91:228|123:292,1,269.999991760254
320,291,112094,5,0,0:0:0:0:
508,157,112294,1,0,0:0:0:0:
300,139,112494,5,0,0:0:0:0:
418,305,112694,1,0,0:0:0:0:
427,125,112894,5,0,0:0:0:0:
288,222,113094,1,0,0:0:0:0:
433,238,113294,5,0,0:0:0:0:
340,109,113494,1,0,0:0:0:0:
275,255,113694,6,0,B|244:245|224:286|228:333|293:373|429:293|339:208|312:175|245:196,1,300.000011444092
114,201,114294,1,0,0:0:0:0:
123,285,114494,2,0,P|189:238|109:117,1,225.000008583069
142,122,114894,1,0,0:0:0:0:
376,174,115294,6,0,P|415:153|431:55,1,150
296,150,115694,2,0,P|294:194|371:257,1,150
356,92,116094,2,0,P|318:68|225:103,1,150,8|0,0:0|0:0,0:0:0:0:
376,174,116494,1,0,0:0:0:0:
207,303,116894,6,0,P|177:335|78:325,1,150
205,219,117294,2,0,P|248:229|289:320,1,150
133,262,117694,2,0,P|120:220|178:139,1,150,8|0,0:0|0:0,0:0:0:0:
207,303,118094,1,0,0:0:0:0:
386,140,118494,6,0,B|391:208|391:208|396:209|396:209|391:210|391:210|397:298,1,150
298,148,118894,2,0,B|302:219|302:219|297:220|297:220|302:221|302:221|307:289,1,150
131,267,119294,6,0,B|126:199|126:199|121:198|121:198|126:197|126:197|120:109,1,150,8|0,0:0|0:0,0:0:0:0:
219,259,119694,2,0,B|214:187|214:187|219:186|219:186|214:185|214:185|209:117,1,150
378,232,120094,6,0,B|412:223|428:206|439:183|439:183|444:182|444:182|440:179|440:179|446:160|448:130|430:100,1,150
298,204,120494,2,0,B|288:237|295:260|309:281|309:281|308:286|308:286|312:284|312:284|326:298|351:315|386:315,1,150
362,148,120894,2,0,B|337:123|314:117|289:119|289:119|285:115|285:115|285:120|285:120|265:125|238:138|221:168,1,150,8|0,0:0|0:0,0:0:0:0:
378,232,121294,1,0,0:0:0:0:
122,154,121494,5,0,0:0:0:0:
122,154,121594,1,0,0:0:0:0:
122,154,121694,2,0,P|83:133|67:35,1,150
202,130,122094,2,0,P|203:174|126:237,1,150
142,72,122494,2,0,P|179:48|272:83,1,150,8|0,0:0|0:0,0:0:0:0:
122,154,122894,1,0,0:0:0:0:
290,283,123294,6,0,P|320:315|419:305,1,150
292,199,123694,2,0,P|248:209|208:299,1,150
364,242,124094,2,0,P|376:199|318:118,1,150,8|0,0:0|0:0,0:0:0:0:
291,283,124494,1,0,0:0:0:0:
126,140,124894,6,0,B|121:208|121:208|116:209|116:209|121:210|121:210|115:298,1,150
214,148,125294,2,0,B|209:219|209:219|214:220|214:220|209:221|209:221|204:289,1,150
381,267,125694,6,0,B|386:199|386:199|391:198|391:198|386:197|386:197|392:109,1,150,8|0,0:0|0:0,0:0:0:0:
293,259,126094,2,0,B|297:187|297:187|292:186|292:186|297:185|297:185|302:117,1,150
134,232,126494,6,0,B|100:223|84:206|73:183|73:183|68:182|68:182|72:179|72:179|66:160|64:130|82:100,1,150
214,204,126894,2,0,B|223:237|216:260|202:281|202:281|203:286|203:286|199:284|199:284|185:298|160:315|125:315,1,150
150,148,127294,2,0,B|174:123|197:117|222:119|222:119|226:115|226:115|226:120|226:120|246:125|273:138|290:168,1,150,8|0,0:0|0:0,0:0:0:0:
134,232,127694,5,0,0:0:0:0:
231,108,127894,5,0,0:0:0:0:
279,94,127994,1,0,0:0:0:0:
326,108,128094,1,0,0:0:0:0:
256,192,128194,12,0,131294,0:0:0:0:
