osu file format v14

[General]
AudioFilename: audio.mp3
AudioLeadIn: 0
PreviewTime: 38563
Countdown: 0
SampleSet: None
StackLeniency: 0.7
Mode: 0
LetterboxInBreaks: 0
WidescreenStoryboard: 1

[Editor]
Bookmarks: 12963,128163
DistanceSpacing: 1.5
BeatDivisor: 4
GridSize: 8
TimelineZoom: 1.6

[Metadata]
Title:T-Series Diss Track
TitleUnicode:T-Series Diss Track
Artist:PewDiePie x Party In Backyard
ArtistUnicode:PewDiePie x Party In Backyard
Creator:Aasheda_
Version:b*tch lasagna
Source:
Tags:pewdiepie party in backyard tseries
BeatmapID:1828524
BeatmapSetID:874937

[Difficulty]
HPDrainRate:5
CircleSize:5
OverallDifficulty:6
ApproachRate:8
SliderMultiplier:1.6
SliderTickRate:1

[Events]
//Background and Video events
0,0,"maxresdefault.jpg",0,0
//Break Periods
//Storyboard Layer 0 (Background)
//Storyboard Layer 1 (Fail)
//Storyboard Layer 2 (Pass)
//Storyboard Layer 3 (Foreground)
//Storyboard Sound Samples

[TimingPoints]
163,400,4,1,0,55,1,0
38563,-100,4,1,0,55,0,1
64163,-100,4,1,0,55,0,0
89763,-100,4,1,0,55,0,1
115363,-100,4,1,0,55,0,0

[Colours]
Combo1 : 192,192,192
Combo2 : 255,0,0

[HitObjects]
80,64,12963,6,0,L|168:64,1,80
229,141,13363,2,0,L|125:141,1,80
51,177,13763,2,0,L|163:305,1,160
242,356,14363,2,0,L|354:356,1,80
424,360,14763,1,0,0:0:0:0:
424,240,14963,1,0,0:0:0:0:
424,120,15163,2,0,L|424:24,1,80
181,65,15763,6,0,B|85:33|85:33|45:113,1,160
118,276,16563,1,0,0:0:0:0:
319,255,16963,2,0,B|360:281|360:281|369:323,2,80
280,324,17563,2,0,B|234:320|234:320|208:280,1,80
254,236,17963,2,0,L|294:161,1,80
329,96,18363,1,0,0:0:0:0:
403,40,18563,2,0,B|348:18|348:18|248:34,1,160
146,83,19163,5,0,0:0:0:0:
121,108,19263,1,0,0:0:0:0:
105,137,19363,2,0,B|106:190|106:190|148:219,1,80
222,207,19763,2,0,B|201:265|201:265|184:269,1,80
112,283,20163,2,0,B|59:280|59:280|24:228,2,80
216,347,20763,1,0,0:0:0:0:
274,262,20963,1,0,0:0:0:0:
254,180,21163,2,0,B|207:208|207:208|193:242,2,80
324,212,21763,1,0,0:0:0:0:
269,27,22163,5,0,0:0:0:0:
343,32,22363,2,0,B|353:75|353:75|334:112,2,80
269,27,22963,1,0,0:0:0:0:
195,39,23163,2,0,B|160:79|160:79|166:114,1,80
344,281,23763,5,0,0:0:0:0:
423,297,23963,2,0,B|401:347|401:347|363:358,2,80
413,208,24563,2,0,B|369:186|369:186|322:183,1,80
264,214,24963,1,0,0:0:0:0:
97,352,25363,6,0,B|134:308|134:308|113:264,1,80
58,286,25763,2,0,B|45:238|45:238|58:186,1,80
97,148,26163,1,0,0:0:0:0:
39,102,26363,2,0,B|93:64|93:64|128:79,1,80
182,92,26763,2,0,B|225:103|225:103|229:154,1,80
241,216,27163,6,0,B|293:204|293:204|319:146,2,80
170,197,27763,1,0,0:0:0:0:
55,319,27963,1,0,0:0:0:0:
226,355,28163,1,0,0:0:0:0:
448,208,28563,6,0,B|481:159|481:159|458:124,1,80
409,87,28963,1,0,0:0:0:0:
384,161,29163,1,0,0:0:0:0:
320,136,29363,2,0,B|291:190|291:190|304:226,2,80
422,27,30163,6,0,B|481:41|481:41|501:69,2,80
121,48,30763,1,0,0:0:0:0:
322,51,30963,1,0,0:0:0:0:
235,218,31163,1,0,0:0:0:0:
216,59,31363,6,0,B|243:112|243:112|220:148,1,80
101,184,31763,1,0,0:0:0:0:
194,324,31963,1,0,0:0:0:0:
344,198,32163,1,0,0:0:0:0:
380,98,32563,6,0,B|415:46|415:46|459:49,2,80
480,216,33363,1,0,0:0:0:0:
395,334,33563,2,0,B|346:363|346:363|308:355,1,80
267,293,33963,1,0,0:0:0:0:
197,207,34163,6,0,B|149:228|149:228|136:263,1,80
177,312,34563,2,0,B|133:342|133:342|99:303,1,80
76,255,34963,2,0,B|71:197|71:197|99:158,1,80
121,118,35363,2,0,B|167:82|167:82|286:133,1,160
425,183,36163,1,0,0:0:0:0:
209,286,36563,5,0,0:0:0:0:
110,99,36763,1,0,0:0:0:0:
258,172,36963,1,0,0:0:0:0:
187,16,37163,1,0,0:0:0:0:
137,227,37363,1,0,0:0:0:0:
289,77,37563,1,0,0:0:0:0:
409,121,37763,2,0,B|395:158|395:158|432:224|432:224|393:247,1,160
178,50,38563,6,0,B|79:73|79:73|56:151,1,160
71,325,39363,1,0,0:0:0:0:
162,275,39563,1,0,0:0:0:0:
211,183,39763,1,0,0:0:0:0:
380,44,40163,6,0,B|454:78|454:78|471:166,1,160
261,176,40963,1,0,0:0:0:0:
205,263,41163,1,0,0:0:0:0:
274,341,41363,1,0,0:0:0:0:
391,169,41763,5,0,0:0:0:0:
191,49,41963,1,0,0:0:0:0:
157,288,42163,1,0,0:0:0:0:
411,258,42363,1,0,0:0:0:0:
312,43,42563,1,0,0:0:0:0:
127,196,42763,1,0,0:0:0:0:
240,306,42963,6,0,B|334:314|334:314|372:224,1,160
349,84,43763,1,0,0:0:0:0:
244,47,43963,1,0,0:0:0:0:
152,92,44163,2,0,B|99:124|99:124|100:162,1,80
124,241,44563,1,0,0:0:0:0:
413,82,44963,6,0,B|454:184|454:184|422:254,1,160
208,312,45763,1,0,0:0:0:0:
156,203,45963,1,0,0:0:0:0:
189,87,46163,1,0,0:0:0:0:
332,179,46563,6,0,B|294:258|294:258|216:298,1,160
37,146,47363,1,0,0:0:0:0:
129,69,47563,1,0,0:0:0:0:
248,78,47763,1,0,0:0:0:0:
470,167,48163,6,0,B|489:227|489:227|466:256,1,80
441,305,48563,2,0,B|401:255|401:255|414:203,1,80
402,172,48963,2,0,B|357:121|357:121|338:127,1,80
204,103,49363,1,0,0:0:0:0:
124,208,49563,1,0,0:0:0:0:
171,330,49763,1,0,0:0:0:0:
227,99,49963,5,0,0:0:0:0:
138,194,50163,1,0,0:0:0:0:
177,309,50363,1,0,0:0:0:0:
285,278,50563,2,0,B|317:226|317:226|268:123,1,160
136,52,51363,6,0,B|71:105|71:105|53:186,1,160
223,350,52163,1,0,0:0:0:0:
299,257,52363,1,0,0:0:0:0:
299,137,52563,1,0,0:0:0:0:
174,187,52963,6,0,B|178:272|178:272|258:308,1,160
469,213,53763,1,0,0:0:0:0:
411,107,53963,1,0,0:0:0:0:
297,68,54163,1,0,0:0:0:0:
298,165,54563,5,0,0:0:0:0:
241,207,54763,2,0,B|211:247|211:247|229:275,1,80
364,258,55163,2,0,B|390:207|390:207|381:185,1,80
310,132,55563,2,0,B|257:123|257:123|213:165,1,80
173,196,55963,1,0,0:0:0:0:
98,241,56163,6,0,B|36:302|36:302|45:385,1,160
281,326,56963,1,0,0:0:0:0:
372,248,57163,1,0,0:0:0:0:
417,136,57363,1,0,0:0:0:0:
358,85,57763,6,0,B|282:34|282:34|209:72,1,160
56,240,58563,1,0,0:0:0:0:
151,167,58763,1,0,0:0:0:0:
216,267,58963,1,0,0:0:0:0:
129,247,59363,6,0,B|160:344|160:344|226:363,1,160
434,197,60163,1,0,0:0:0:0:
413,78,60363,1,0,0:0:0:0:
294,99,60563,1,0,0:0:0:0:
344,152,60963,6,0,B|336:203|336:203|292:241,2,80
239,56,61763,1,0,0:0:0:0:
121,158,62163,2,0,B|136:214|136:214|169:226,2,80
187,151,62763,2,0,B|181:100|181:100|145:83,1,80
98,51,63163,1,0,0:0:0:0:
49,110,63363,2,0,B|42:208|42:208|56:281,1,160
147,336,63963,5,0,0:0:0:0:
180,347,64063,1,0,0:0:0:0:
215,338,64163,2,0,B|277:307|277:307|289:276,2,80
179,279,64763,2,0,B|163:231|163:231|190:206,1,80
377,201,65363,6,0,B|459:144|459:144|476:83,1,160
339,48,65963,1,0,0:0:0:0:
198,130,66163,1,0,0:0:0:0:
314,142,66363,1,0,0:0:0:0:
189,233,66563,1,0,0:0:0:0:
301,272,66763,1,0,0:0:0:0:
301,272,66963,2,0,L|296:232,1,40
323,92,67363,5,0,0:0:0:0:
394,121,67563,1,0,0:0:0:0:
450,170,67763,1,0,0:0:0:0:
476,242,67963,1,0,0:0:0:0:
471,312,68163,1,0,0:0:0:0:
400,337,68363,2,0,B|342:361|342:361|313:346,1,80
335,288,68763,2,0,B|355:239|355:239|315:213,1,80
274,269,69163,2,0,B|238:293|238:293|254:355,1,80
280,383,69563,1,0,0:0:0:0:
265,204,69763,1,0,0:0:0:0:
257,67,69963,1,0,0:0:0:0:
257,67,70163,2,0,L|258:20,1,40
403,41,70563,6,0,B|454:38|454:38|477:83,1,80
414,111,70963,1,0,0:0:0:0:
353,146,71163,2,0,B|375:199|375:199|403:218,1,80
451,177,71563,2,0,B|484:218|484:218|467:267,1,80
427,306,71963,1,0,0:0:0:0:
360,326,72163,2,0,B|307:313|307:313|300:276,1,80
286,223,72563,2,0,B|242:226|242:226|233:270,1,80
230,336,72963,2,0,B|174:329|174:329|154:285,1,80
120,131,73363,5,0,0:0:0:0:
284,198,73763,5,0,0:0:0:0:
358,199,73963,1,0,0:0:0:0:
418,149,74163,2,0,B|433:115|433:115|417:76,1,80
336,39,74563,1,0,0:0:0:0:
257,36,74763,1,0,0:0:0:0:
184,65,74963,2,0,B|162:119|162:119|192:153,1,80
250,126,75363,2,0,B|268:166|268:166|239:191,1,80
169,192,75763,2,0,B|148:247|148:247|178:273,1,80
223,301,76163,1,0,0:0:0:0:
289,276,76363,1,0,0:0:0:0:
289,276,76563,2,0,L|309:223,1,40
461,323,76963,5,0,0:0:0:0:
500,184,77163,1,0,0:0:0:0:
454,61,77363,2,0,B|433:20|433:20|373:39,1,80
189,217,77763,1,0,0:0:0:0:
326,67,77963,1,0,0:0:0:0:
305,235,78163,1,0,0:0:0:0:
189,68,78363,2,0,B|155:34|155:34|108:53,1,80
143,120,78763,2,0,B|171:168|171:168|220:146,1,80
284,110,79163,1,0,0:0:0:0:
400,76,79363,1,0,0:0:0:0:
454,205,79563,1,0,0:0:0:0:
329,268,79763,1,0,0:0:0:0:
338,159,79963,5,0,0:0:0:0:
338,159,80163,2,0,L|261:225,1,80
212,224,80563,2,0,B|181:263|181:263|208:291,1,80
250,334,80963,2,0,B|217:365|217:365|179:358,1,80
125,316,81363,2,0,B|87:263|87:263|104:228,1,80
117,190,81763,1,0,0:0:0:0:
202,68,81963,1,0,0:0:0:0:
210,161,82163,1,0,0:0:0:0:
57,36,82363,1,0,0:0:0:0:
106,84,82563,2,0,B|136:124|136:124|176:104,1,80
275,55,82963,1,0,0:0:0:0:
442,109,83363,5,0,0:0:0:0:
480,201,83563,1,0,0:0:0:0:
452,221,83663,1,0,0:0:0:0:
289,200,84163,5,0,0:0:0:0:
357,296,84363,1,0,0:0:0:0:
328,319,84463,1,0,0:0:0:0:
208,326,84963,5,0,0:0:0:0:
113,229,85163,1,0,0:0:0:0:
146,209,85263,1,0,0:0:0:0:
195,134,85563,5,0,0:0:0:0:
175,109,85663,1,0,0:0:0:0:
161,81,85763,2,0,B|141:21|141:21|153:-21,1,80
277,28,86163,2,0,L|355:65,1,80
462,120,86563,1,0,0:0:0:0:
275,221,86763,1,0,0:0:0:0:
468,276,86963,1,0,0:0:0:0:
305,358,87163,1,0,0:0:0:0:
213,345,87363,6,0,B|156:314|156:314|149:285,1,80
211,265,87763,2,0,B|204:219|204:219|151:212,1,80
53,212,88163,1,0,0:0:0:0:
120,105,88363,1,0,0:0:0:0:
225,44,88563,1,0,0:0:0:0:
368,41,88763,1,0,0:0:0:0:
468,58,88963,2,0,B|504:103|504:103|499:156,1,80
427,128,89363,2,0,B|402:163|402:163|418:203,1,80
471,303,89763,6,0,B|364:342|364:342|282:331,1,160
82,323,90563,1,0,0:0:0:0:
169,240,90763,1,0,0:0:0:0:
83,156,90963,1,0,0:0:0:0:
291,36,91363,6,0,B|388:72|388:72|424:130,1,160
421,360,92163,1,0,0:0:0:0:
357,258,92363,1,0,0:0:0:0:
277,347,92563,1,0,0:0:0:0:
32,344,92963,6,0,L|32:240,1,80
32,184,93363,2,0,B|53:81|53:81|112:72,1,160
120,152,93963,2,0,B|160:184|160:184|200:152,1,80
176,96,94363,2,0,B|208:64|208:64|240:88,1,80
312,142,94763,1,0,0:0:0:0:
381,92,94963,1,0,0:0:0:0:
424,168,95163,1,0,0:0:0:0:
424,168,95363,2,0,B|472:232|472:232|440:320,1,160
301,351,95963,5,0,0:0:0:0:
272,359,96063,1,0,0:0:0:0:
235,361,96163,2,0,B|140:325|140:325|102:257,1,160
122,34,96963,1,0,0:0:0:0:
234,76,97163,1,0,0:0:0:0:
153,165,97363,1,0,0:0:0:0:
82,105,97563,5,0,0:0:0:0:
159,70,97763,2,0,B|250:29|250:29|317:59,1,160
447,97,98563,1,0,0:0:0:0:
504,180,98763,1,0,0:0:0:0:
455,261,98963,1,0,0:0:0:0:
380,190,99163,5,0,0:0:0:0:
299,170,99363,2,0,B|272:214|272:214|291:258,1,80
359,268,99763,2,0,B|336:319|336:319|278:330,1,80
235,320,100163,2,0,L|189:234,1,80
125,268,100563,2,0,L|104:358,1,80
30,356,100963,2,0,L|42:181,1,160
67,100,101563,6,0,L|175:87,1,80
248,72,102163,1,0,0:0:0:0:
336,53,102363,5,0,0:0:0:0:
364,39,102463,1,0,0:0:0:0:
394,40,102563,2,0,B|443:108|443:108|442:188,1,160
347,147,103163,1,0,0:0:0:0:
283,213,103363,2,0,B|322:246|322:246|368:241,1,80
444,285,103763,1,0,0:0:0:0:
371,345,103963,5,0,0:0:0:0:
282,345,104163,2,0,B|190:319|190:319|161:233,1,160
253,265,104763,2,0,B|228:195|228:195|198:186,1,80
91,197,105363,1,0,0:0:0:0:
77,86,105763,6,0,B|109:44|109:44|142:54,1,80
133,128,106163,2,0,B|176:136|176:136|206:87,1,80
200,37,106563,2,0,B|236:11|236:11|280:36,1,80
265,100,106963,2,0,B|308:129|308:129|350:95,1,80
396,41,107363,5,0,0:0:0:0:
469,181,107563,1,0,0:0:0:0:
471,56,107763,1,0,0:0:0:0:
380,162,107963,1,0,0:0:0:0:
346,238,108163,2,0,B|362:291|362:291|469:353,1,160
448,230,108763,5,0,0:0:0:0:
415,194,108863,1,0,0:0:0:0:
383,163,108963,2,0,B|312:116|312:116|218:159,1,160
191,231,109763,1,0,0:0:0:0:
85,341,109963,1,0,0:0:0:0:
28,216,110163,1,0,0:0:0:0:
114,212,110363,5,0,0:0:0:0:
92,141,110563,2,0,B|27:51|27:51|86:39,1,160
138,85,111163,2,0,L|200:26,1,80
221,101,111563,2,0,L|280:47,1,80
363,33,111963,5,0,0:0:0:0:
469,53,112163,2,0,L|489:140,1,80
409,125,112563,2,0,L|434:218,1,80
506,219,112963,2,0,L|511:323,1,80
453,357,113363,2,0,L|372:313,1,80
312,289,113763,2,0,L|255:383,1,80
222,292,114163,2,0,L|171:385,1,80
134,301,114563,2,0,L|92:386,1,80
33,314,114963,2,0,L|32:208,1,80
100,79,115363,6,0,B|200:105|200:105|274:51|274:51|336:67,1,240
364,112,116163,1,0,0:0:0:0:
463,235,116563,2,0,B|474:341|474:341|397:317,1,160
294,280,117363,2,0,B|240:234|240:234|223:344,1,160
131,325,118163,6,0,B|91:193|91:193|48:175|48:175|69:96|69:96|136:36,1,320
161,150,119163,1,0,0:0:0:0:
215,38,119363,1,0,0:0:0:0:
282,148,119563,1,0,0:0:0:0:
355,36,119763,1,0,0:0:0:0:
458,152,119963,1,0,0:0:0:0:
433,72,120163,2,0,B|344:126|344:126|357:204,1,160
422,221,120763,2,0,B|382:270|382:270|334:270,1,80
222,225,121363,5,0,0:0:0:0:
27,361,121763,6,0,B|59:262|59:262|28:165|28:165|62:100|62:100|129:72,1,320
188,103,122763,1,0,0:0:0:0:
142,179,122963,2,0,B|182:194|182:194|211:240|211:240|289:200,1,160
265,120,123563,1,0,0:0:0:0:
330,42,123763,2,0,B|409:70|409:70|464:157,1,160
368,194,124363,2,0,L|312:271,1,80
462,249,124763,1,0,0:0:0:0:
484,358,124963,2,0,L|301:371,1,160
205,352,125563,2,0,L|193:260,1,80
118,303,125963,1,0,0:0:0:0:
42,353,126163,6,0,B|20:242|20:242|49:171,1,160
40,104,126763,1,0,0:0:0:0:
95,36,126963,2,0,B|186:32|186:32|239:99,1,160
314,172,127763,2,0,L|353:212,1,40
361,223,127963,1,0,0:0:0:0:
382,251,128063,1,0,0:0:0:0:
256,192,128163,12,0,129763,0:0:0:0:
