osu file format v14

[General]
AudioFilename: audio.mp3
AudioLeadIn: 0
PreviewTime: 38387
Countdown: 1
SampleSet: None
StackLeniency: 0.2
Mode: 0
LetterboxInBreaks: 0
WidescreenStoryboard: 1
SamplesMatchPlaybackRate: 1

[Editor]
DistanceSpacing: 1.5
BeatDivisor: 4
GridSize: 16
TimelineZoom: 1.4

[Metadata]
Title:bitch lasagna
TitleUnicode:bitch lasagna
Artist:PewDiePie
ArtistUnicode:PewDiePie
Creator:Tarrasky
Version:K4L1's Expert
Source:
Tags:
BeatmapID:1874238
BeatmapSetID:893589

[Difficulty]
HPDrainRate:6
CircleSize:4
OverallDifficulty:8.5
ApproachRate:8.2
SliderMultiplier:1.5
SliderTickRate:1

[Events]
//Background and Video events
0,0,"SUBSCRIBE TO PEWDIEPIE.jpg",0,0
//Break Periods
2,36788,37637
//Storyboard Layer 0 (Background)
//Storyboard Layer 1 (Fail)
//Storyboard Layer 2 (Pass)
//Storyboard Layer 3 (Foreground)
//Storyboard Sound Samples

[TimingPoints]
10.3669587360913,399.76,4,3,1,70,1,0
12402,-100,4,3,1,40,0,0
12802,-100,4,3,1,70,0,0
15800,-100,4,3,1,35,0,0
16000,-100,4,3,1,70,0,0
18998,-100,4,3,1,35,0,0
19198,-100,4,3,1,70,0,0
22197,-100,4,3,1,35,0,0
22396,-100,4,3,1,70,0,0
25395,-100,4,3,1,35,0,0
25595,-100,4,3,1,70,0,0
28593,-100,4,3,1,35,0,0
28793,-100,4,3,1,70,0,0
30791,-100,4,3,1,70,0,0
30891,-100,4,3,1,5,0,0
30991,-100,4,3,1,70,0,0
31091,-100,4,3,1,5,0,0
31191,-100,4,3,1,70,0,0
31791,-100,4,3,1,35,0,0
31991,-100,4,3,1,70,0,0
34989,-100,4,3,1,35,0,0
35189,-100,4,3,1,70,0,0
36588,-100,4,3,1,35,0,0
36788,-100,4,3,1,70,0,0
38387,-66.6666666666667,4,3,1,100,0,1
39186,-66.6666666666667,4,3,1,100,0,1
39586,-66.6666666666667,4,3,2,100,0,1
40785,-66.6666666666667,4,3,2,100,0,1
41385,-66.6666666666667,4,3,1,50,0,1
41585,-66.6666666666667,4,3,3,100,0,1
42784,-66.6666666666667,4,3,3,100,0,1
44583,-66.6666666666667,4,3,1,50,0,1
44783,-66.6666666666667,4,3,1,100,0,1
45583,-66.6666666666667,4,3,1,100,0,1
45982,-66.6666666666667,4,3,2,100,0,1
47182,-66.6666666666667,4,3,2,100,0,1
47781,-66.6666666666667,4,3,1,50,0,1
47981,-66.6666666666667,4,3,3,100,0,1
49180,-66.6666666666667,4,3,3,100,0,1
50979,-66.6666666666667,4,3,1,50,0,1
51179,-66.6666666666667,4,3,1,100,0,1
51979,-66.6666666666667,4,3,1,100,0,1
52378,-66.6666666666667,4,3,2,100,0,1
53578,-66.6666666666667,4,3,2,100,0,1
54177,-66.6666666666667,4,3,1,50,0,1
54377,-66.6666666666667,4,3,3,100,0,1
55577,-66.6666666666667,4,3,3,100,0,1
57375,-66.6666666666667,4,3,1,50,0,1
57575,-66.6666666666667,4,3,1,100,0,1
58375,-66.6666666666667,4,3,1,100,0,1
58775,-66.6666666666667,4,3,2,100,0,1
59974,-66.6666666666667,4,3,2,100,0,1
60574,-66.6666666666667,4,3,1,50,0,1
60773,-133.333333333333,4,3,3,70,0,0
61973,-133.333333333333,4,3,3,70,0,0
63971,-66.6666666666667,4,3,1,100,0,1
64771,-66.6666666666667,4,3,1,100,0,1
65171,-66.6666666666667,4,3,2,100,0,1
66370,-66.6666666666667,4,3,2,100,0,1
66970,-66.6666666666667,4,3,1,50,0,1
67170,-66.6666666666667,4,3,3,100,0,1
68369,-66.6666666666667,4,3,3,100,0,1
70168,-66.6666666666667,4,3,1,50,0,1
70368,-66.6666666666667,4,3,1,100,0,1
71167,-66.6666666666667,4,3,1,100,0,1
71567,-66.6666666666667,4,3,2,100,0,1
72766,-66.6666666666667,4,3,2,100,0,1
73366,-66.6666666666667,4,3,1,50,0,1
73566,-66.6666666666667,4,3,3,100,0,1
74765,-66.6666666666667,4,3,3,100,0,1
76564,-66.6666666666667,4,3,1,50,0,1
76764,-100,4,3,1,100,0,0

[Colours]
Combo1 : 255,128,192
Combo2 : 255,128,64
Combo3 : 255,0,255
Combo4 : 255,179,102

[HitObjects]
155,252,12802,6,0,P|214:229|258:231,1,75,4|0,0:0|0:0,0:0:0:0:
378,241,13202,1,0,0:0:0:0:
213,310,13402,1,0,0:0:0:0:
277,45,13602,2,0,P|303:102|303:191,1,150,8|0,0:0|0:0,0:0:0:0:
116,97,14201,5,4,0:0:0:0:
292,275,14401,1,0,0:0:0:0:
373,44,14601,1,0,0:0:0:0:
164,170,14801,1,4,0:0:0:0:
395,251,15001,1,0,0:0:0:0:
54,282,15201,2,0,P|111:256|200:256,1,150,8|0,0:0|0:0,0:0:0:0:
367,333,15800,5,4,0:0:0:0:
70,176,16000,1,4,0:0:0:0:
53,169,16400,5,0,0:0:0:0:
373,44,16800,6,0,P|396:103|394:147,1,75,8|0,0:0|0:0,0:0:0:0:
395,251,17200,5,0,0:0:0:0:
240,53,17399,1,4,0:0:0:0:
485,183,17599,1,0,0:0:0:0:
287,176,17799,1,0,0:0:0:0:
492,285,17999,1,4,0:0:0:0:
330,86,18199,1,0,0:0:0:0:
240,358,18399,2,0,P|222:324|216:287,1,75,8|0,0:0|0:0,0:0:0:0:
190,136,18799,5,0,0:0:0:0:
5,279,18998,1,4,0:0:0:0:
5,279,19098,1,4,0:0:0:0:
5,279,19198,2,0,P|78:267|144:231,1,150,4|0,0:0|0:0,0:0:0:0:
247,75,19798,5,0,0:0:0:0:
297,293,19998,2,0,P|331:275|368:269,1,75,8|0,0:0|0:0,0:0:0:0:
512,334,20398,5,0,0:0:0:0:
322,373,20598,1,4,0:0:0:0:
496,208,20797,2,0,P|489:171|472:138,1,75
431,384,21197,5,4,0:0:0:0:
419,197,21397,1,0,0:0:0:0:
225,359,21597,1,8,0:0:0:0:
209,368,21997,5,0,0:0:0:0:
297,293,22197,1,4,0:0:0:0:
13,356,22396,2,0,P|3:318|5:281,1,75,4|0,0:0|0:0,0:0:0:0:
84,127,22796,5,0,0:0:0:0:
80,307,22996,1,0,0:0:0:0:
22,57,23196,2,0,P|91:33|158:64,1,150,8|0,0:0|0:0,0:0:0:0:
0,139,23796,5,4,0:0:0:0:
166,149,23995,2,0,P|202:140|229:114,1,75
59,231,24395,5,4,0:0:0:0:
235,23,24595,1,0,0:0:0:0:
297,293,24795,1,8,0:0:0:0:
304,311,25195,5,0,0:0:0:0:
333,110,25395,1,4,0:0:0:0:
333,110,25495,1,4,0:0:0:0:
333,110,25595,2,0,P|370:170|379:260,1,150,4|0,0:0|0:0,0:0:0:0:
387,348,26194,5,0,0:0:0:0:
433,64,26394,1,8,0:0:0:0:
281,209,26594,1,0,0:0:0:0:
447,142,26794,1,0,0:0:0:0:
200,200,26994,1,4,0:0:0:0:
461,220,27194,5,0,0:0:0:0:
119,191,27393,1,0,0:0:0:0:
475,298,27593,1,4,0:0:0:0:
38,182,27793,1,0,0:0:0:0:
433,64,27993,1,8,0:0:0:0:
450,58,28393,5,0,0:0:0:0:
343,8,28593,1,4,0:0:0:0:
392,319,28793,2,0,P|382:280|382:227,1,75,4|0,0:0|0:0,0:0:0:0:
362,90,29192,5,0,0:0:0:0:
237,184,29392,1,0,0:0:0:0:
492,161,29592,1,8,0:0:0:0:
512,160,29992,5,0,0:0:0:0:
450,58,30192,1,4,0:0:0:0:
291,258,30392,2,0,P|273:291|265:327,1,75
184,60,30791,6,0,P|193:47|193:62,1,37.5,2|0,0:0|0:0,0:0:0:0:
397,191,30991,2,0,P|410:182|395:182,1,37.5,2|0,0:0|0:0,0:0:0:0:
140,139,31191,2,0,P|105:101|96:45,1,75,8|0,0:0|0:0,0:0:0:0:
318,0,31591,5,0,0:0:0:0:
125,221,31791,1,4,0:0:0:0:
125,221,31891,1,4,0:0:0:0:
125,221,31991,2,0,P|195:203|229:138,1,150,4|0,0:0|0:0,0:0:0:0:
82,51,32590,5,0,0:0:0:0:
344,284,32790,2,0,P|293:232|221:236,1,150,8|0,0:0|0:0,0:0:0:0:
233,384,33390,5,4,0:0:0:0:
291,60,33590,2,0,P|271:130|311:192,1,150,0|4,0:0|0:0,0:0:0:0:
453,105,34189,5,0,0:0:0:0:
125,221,34389,2,0,P|127:259|142:295,1,75,8|0,0:0|0:0,0:0:0:0:
233,384,34789,5,0,0:0:0:0:
39,282,34989,1,4,0:0:0:0:
310,191,35189,2,0,P|352:208|302:201,1,150,4|0,0:0|0:0,0:0:0:0:
91,117,35988,6,0,P|48:134|98:127,1,150,8|0,0:0|0:0,0:0:0:0:
291,60,36588,5,4,0:0:0:0:
381,37,38387,6,0,L|400:157,1,112.500004291535,6|0,0:1|0:0,0:0:0:0:
423,315,38787,1,0,0:0:0:0:
493,162,38986,1,2,0:0:0:0:
155,258,39186,6,0,L|275:239,1,112.500004291535,10|0,0:2|0:0,0:0:0:0:
433,216,39586,1,2,0:1:0:0:
317,339,39786,1,4,0:0:0:0:
404,30,39986,6,0,L|412:151,1,112.500004291535,0|2,0:0|0:0,0:0:0:0:
421,310,40386,1,6,0:0:0:0:
504,164,40585,1,0,0:0:0:0:
159,230,40785,6,0,L|280:221,1,112.500004291535,10|0,0:2|0:0,0:0:0:0:
440,212,41185,1,0,0:0:0:0:
313,325,41385,1,6,0:0:0:0:
281,48,41585,5,6,0:1:0:0:
218,309,41785,1,0,0:0:0:0:
305,133,41985,5,0,0:0:0:0:
119,327,42185,1,2,0:0:0:0:
383,123,42384,5,10,0:0:0:0:
155,256,42584,1,0,0:0:0:0:
345,202,42784,5,2,0:2:0:0:
69,206,42984,1,4,0:0:0:0:
424,184,43184,6,0,L|437:73,1,112.500004291535,0|2,0:0|0:0,0:0:0:0:
404,351,43584,1,6,0:0:0:0:
512,222,43783,1,0,0:0:0:0:
160,227,43983,6,0,L|280:239,1,112.500004291535,10|0,0:0|0:0,0:0:0:0:
440,258,44383,1,0,0:0:0:0:
183,335,44583,1,6,0:0:0:0:
183,335,44683,1,6,0:0:0:0:
183,335,44783,6,0,L|295:347,1,112.500004291535,6|0,0:1|0:0,0:0:0:0:
340,183,45183,1,0,0:0:0:0:
400,340,45383,1,2,0:0:0:0:
128,139,45583,6,0,L|239:127,1,112.500004291535,10|0,0:2|0:0,0:0:0:0:
341,262,45982,1,2,0:1:0:0:
321,94,46182,1,4,0:0:0:0:
82,350,46382,6,0,L|192:371,1,112.500004291535,0|2,0:0|0:0,0:0:0:0:
251,212,46782,1,6,0:0:0:0:
297,373,46982,1,0,0:0:0:0:
44,149,47182,6,0,L|156:147,1,112.500004291535,10|0,0:2|0:0,0:0:0:0:
245,291,47581,1,0,0:0:0:0:
239,127,47781,1,6,0:0:0:0:
54,344,47981,5,6,0:1:0:0:
101,101,48181,1,0,0:0:0:0:
210,318,48381,5,0,0:0:0:0:
171,73,48581,1,2,0:0:0:0:
362,262,48781,5,10,0:0:0:0:
241,45,48981,1,0,0:0:0:0:
498,177,49180,5,2,0:2:0:0:
310,15,49380,1,4,0:0:0:0:
209,317,49580,6,0,L|99:296,1,112.500004291535,0|2,0:0|0:0,0:0:0:0:
268,158,49980,1,6,0:0:0:0:
314,319,50180,1,0,0:0:0:0:
61,95,50380,6,0,L|173:93,1,112.500004291535,10|0,0:0|0:0,0:0:0:0:
262,237,50779,1,0,0:0:0:0:
368,75,50979,1,6,0:0:0:0:
368,75,51079,1,6,0:0:0:0:
368,75,51179,6,0,L|256:73,1,112.500004291535,6|0,0:1|0:0,0:0:0:0:
118,173,51579,1,0,0:0:0:0:
198,24,51779,1,2,0:0:0:0:
260,355,51979,6,0,L|262:243,1,112.500004291535,10|0,0:2|0:0,0:0:0:0:
178,100,52378,1,2,0:1:0:0:
164,268,52578,1,4,0:0:0:0:
392,85,52778,6,0,L|280:73,1,112.500004291535,0|2,0:0|0:0,0:0:0:0:
134,161,53178,1,6,0:0:0:0:
230,11,53378,1,0,0:0:0:0:
260,355,53578,6,0,L|271:243,1,112.500004291535,10|0,0:2|0:0,0:0:0:0:
201,93,53977,1,0,0:0:0:0:
172,259,54177,1,6,0:0:0:0:
207,85,54377,5,6,0:1:0:0:
67,178,54577,1,0,0:0:0:0:
214,172,54777,5,0,0:0:0:0:
74,79,54977,1,2,0:0:0:0:
227,71,55177,5,10,0:0:0:0:
44,193,55377,1,0,0:0:0:0:
236,185,55577,5,2,0:2:0:0:
53,63,55777,1,4,0:0:0:0:
367,105,55976,6,0,L|259:74,1,112.500004291535,0|2,0:0|0:0,0:0:0:0:
100,134,56376,1,6,0:0:0:0:
215,11,56576,1,0,0:0:0:0:
190,347,56776,6,0,L|220:239,1,112.500004291535,10|0,0:0|0:0,0:0:0:0:
177,79,57175,1,0,0:0:0:0:
286,346,57375,1,6,0:0:0:0:
286,346,57475,1,6,0:0:0:0:
286,346,57575,6,0,L|316:238,1,112.500004291535,6|0,0:1|0:0,0:0:0:0:
360,73,57975,1,0,0:0:0:0:
480,191,58175,1,2,0:0:0:0:
153,278,58375,6,0,L|122:170,1,112.500004291535,10|0,0:2|0:0,0:0:0:0:
262,74,58775,1,2,0:1:0:0:
94,86,58974,1,4,0:0:0:0:
286,346,59174,6,0,L|326:241,1,112.500004291535,0|2,0:0|0:0,0:0:0:0:
383,80,59574,1,6,0:0:0:0:
492,208,59774,1,0,0:0:0:0:
159,266,59974,6,0,L|137:156,1,112.500004291535,10|0,0:2|0:0,0:0:0:0:
285,72,60374,1,0,0:0:0:0:
117,70,60573,1,6,0:0:0:0:
383,80,60773,5,6,0:1:0:0:
383,80,63971,5,6,0:1:0:0:
298,226,64171,1,0,0:0:0:0:
439,167,64371,5,0,0:0:0:0:
293,82,64571,1,2,0:0:0:0:
317,338,64771,5,10,0:2:0:0:
218,168,64971,1,0,0:0:0:0:
381,237,65171,5,2,0:1:0:0:
212,335,65371,1,4,0:0:0:0:
293,82,65571,5,0,0:0:0:0:
146,165,65771,1,2,0:0:0:0:
296,184,65971,5,6,0:0:0:0:
213,38,66171,1,0,0:0:0:0:
71,251,66370,5,10,0:2:0:0:
218,168,66570,1,0,0:0:0:0:
68,149,66770,5,0,0:0:0:0:
151,295,66970,1,6,0:0:0:0:
123,50,67170,5,6,0:1:0:0:
235,263,67369,1,0,0:0:0:0:
272,0,67569,5,0,0:0:0:0:
160,213,67768,1,2,0:0:0:0:
73,87,67969,5,10,0:0:0:0:
235,263,68168,1,0,0:0:0:0:
203,0,68368,5,2,0:2:0:0:
150,234,68567,1,4,0:0:0:0:
33,135,68769,5,0,0:0:0:0:
235,263,68968,1,2,0:0:0:0:
136,17,69168,5,6,0:0:0:0:
145,257,69367,1,0,0:0:0:0:
272,0,69568,6,0,B|303:50|303:50|303:108,1,112.500004291535,10|0,0:0|0:0,0:0:0:0:
235,263,69968,1,0,0:0:0:0:
362,152,70168,2,0,B|378:126|378:126|377:94,1,56.2500021457673,6|6,0:0|0:0,0:0:0:0:
405,268,70368,5,6,0:1:0:0:
239,160,70568,1,0,0:0:0:0:
196,374,70767,5,0,0:0:0:0:
304,208,70967,1,2,0:0:0:0:
54,144,71167,5,10,0:2:0:0:
235,263,71367,1,0,0:0:0:0:
283,28,71566,5,2,0:1:0:0:
164,210,71766,1,4,0:0:0:0:
196,42,71967,5,0,0:0:0:0:
304,208,72167,1,2,0:0:0:0:
90,251,72366,5,6,0:0:0:0:
256,143,72566,1,0,0:0:0:0:
159,319,72766,5,10,0:2:0:0:
174,127,72966,1,0,0:0:0:0:
270,284,73166,5,0,0:0:0:0:
94,163,73366,1,6,0:0:0:0:
379,286,73566,5,6,0:1:0:0:
319,86,73766,1,0,0:0:0:0:
324,347,73965,5,0,0:0:0:0:
384,147,74165,1,2,0:0:0:0:
401,361,74365,5,10,0:0:0:0:
201,301,74565,1,0,0:0:0:0:
458,215,74765,5,2,0:2:0:0:
233,378,74965,1,4,0:0:0:0:
461,131,75165,5,0,0:0:0:0:
173,226,75365,1,2,0:0:0:0:
464,47,75565,5,6,0:0:0:0:
113,74,75764,1,0,0:0:0:0:
452,297,75964,5,10,0:0:0:0:
257,29,76164,1,0,0:0:0:0:
145,328,76364,1,0,0:0:0:0:
392,87,76564,6,0,L|340:113,1,56.2500021457673,6|6,0:0|0:0,0:0:0:0:
44,264,76764,1,6,0:0:0:0:
