osu file format v14

[General]
AudioFilename: audio.mp3
AudioLeadIn: 0
PreviewTime: 36567
Countdown: 0
SampleSet: Soft
StackLeniency: 0.7
Mode: 0
LetterboxInBreaks: 0
WidescreenStoryboard: 0

[Editor]
Bookmarks: 13767,14167
DistanceSpacing: 1.5
BeatDivisor: 4
GridSize: 4
TimelineZoom: 2.6

[Metadata]
Title:bitch lasagna
TitleUnicode:bitch lasagna
Artist:PewDiePie
ArtistUnicode:PewDiePie
Creator:Gordon123
Version:Collab Insane
Source:
Tags:danielexus Nyantiaz Terton riffy Bakari party in the backyard indian t-series tseries diss track nine 9 year old Felix Kjellberg techno parody pewds pewdie
BeatmapID:1928085
BeatmapSetID:923292

[Difficulty]
HPDrainRate:7
CircleSize:4
OverallDifficulty:7
ApproachRate:8.5
SliderMultiplier:1.4
SliderTickRate:1

[Events]
//Background and Video events
0,0,"bg.jpg",0,0
//Break Periods
2,37067,37992
2,88267,89192
//Storyboard Layer 0 (Background)
//Storyboard Layer 1 (Fail)
//Storyboard Layer 2 (Pass)
//Storyboard Layer 3 (Foreground)
//Storyboard Sound Samples

[TimingPoints]
267,400,4,2,1,40,1,0
13067,-100,4,2,1,60,0,0
35767,-100,4,2,1,10,0,0
35867,-100,4,2,1,60,0,0
38667,-52.6315789473684,4,2,1,70,0,1
39067,-76.9230769230769,4,2,1,70,0,1
40267,-52.6315789473684,4,2,1,70,0,1
40667,-76.9230769230769,4,2,1,70,0,1
43467,-52.6315789473684,4,2,1,70,0,1
43867,-76.9230769230769,4,2,1,70,0,1
45067,-52.6315789473684,4,2,1,70,0,1
45467,-76.9230769230769,4,2,1,70,0,1
46667,-52.6315789473684,4,2,1,70,0,1
47067,-76.9230769230769,4,2,1,70,0,1
51467,-52.6315789473684,4,2,1,70,0,1
51867,-76.9230769230769,4,2,1,70,0,1
53067,-52.6315789473684,4,2,1,70,0,1
53467,-76.9230769230769,4,2,1,70,0,1
56267,-52.6315789473684,4,2,1,70,0,1
56667,-76.9230769230769,4,2,1,70,0,1
57867,-52.6315789473684,4,2,1,70,0,1
58267,-76.9230769230769,4,2,1,70,0,1
59467,-52.6315789473684,4,2,1,70,0,1
59867,-76.9230769230769,4,2,1,70,0,1
64267,-100,4,2,1,60,0,0
89867,-52.6315789473684,4,2,1,70,0,1
90267,-76.9230769230769,4,2,1,70,0,1
91467,-52.6315789473684,4,2,1,70,0,1
91867,-76.9230769230769,4,2,1,70,0,1
96267,-52.6315789473684,4,2,1,70,0,1
96667,-76.9230769230769,4,2,1,70,0,1
97867,-52.6315789473684,4,2,1,70,0,1
98267,-76.9230769230769,4,2,1,70,0,1
101067,-52.6315789473684,4,2,1,70,0,1
101467,-76.9230769230769,4,2,1,70,0,1
102667,-52.6315789473684,4,2,1,70,0,1
103067,-76.9230769230769,4,2,1,70,0,1
104267,-52.6315789473684,4,2,1,70,0,1
104667,-76.9230769230769,4,2,1,70,0,1
109067,-52.6315789473684,4,2,1,70,0,1
109467,-76.9230769230769,4,2,1,70,0,1
110667,-52.6315789473684,4,2,1,70,0,1
111067,-76.9230769230769,4,2,1,70,0,1
112267,-100,4,2,1,60,0,0
115467,-100,4,2,1,50,0,1
115492,-100,4,2,1,50,0,0
121867,-100,4,2,1,50,0,1
121892,-100,4,2,1,50,0,0
128267,-100,4,2,1,50,0,1
128292,-100,4,2,1,50,0,0

[Colours]
Combo1 : 86,169,92
Combo2 : 111,117,85
Combo3 : 182,172,208
Combo4 : 64,51,113

[HitObjects]
362,251,13067,6,0,P|415:254|457:259,1,70,4|0,3:0|0:0,0:0:0:0:
272,198,13467,1,0,0:0:0:0:
287,318,13667,1,0,0:0:0:0:
124,274,13867,2,0,P|171:267|225:268,1,70,8|0,0:0|0:0,0:0:0:0:
46,347,14267,1,0,0:0:0:0:
46,347,14367,1,0,0:0:0:0:
46,347,14467,1,4,3:0:0:0:
8,158,14667,5,0,0:0:0:0:
17,251,14867,1,0,0:0:0:0:
137,112,15067,1,4,3:0:0:0:
119,201,15267,1,0,0:0:0:0:
242,291,15467,2,0,P|239:238|234:204,1,70,8|0,0:0|0:0,0:0:0:0:
181,358,15867,1,0,0:0:0:0:
316,268,16067,1,4,3:0:0:0:
488,357,16267,6,0,P|451:353|403:351,1,70,4|0,3:0|0:0,0:0:0:0:
510,238,16667,2,0,P|460:242|433:248,1,70
255,371,17067,1,8,0:0:0:0:
317,268,17267,1,0,0:0:0:0:
227,283,17467,1,0,0:0:0:0:
201,153,17667,1,4,3:0:0:0:
37,280,17867,6,0,P|66:279|115:272,1,70
32,122,18267,1,4,3:0:0:0:
5,209,18467,1,0,0:0:0:0:
125,56,18667,2,0,P|128:98|125:157,1,70,8|0,0:0|0:0,0:0:0:0:
90,260,19067,1,0,0:0:0:0:
254,169,19267,1,4,3:0:0:0:
266,226,19367,1,4,3:0:0:0:
268,282,19467,6,0,P|263:318|262:360,1,70,4|0,3:0|0:0,0:0:0:0:
356,273,19867,2,0,L|352:198,1,70
455,339,20267,1,8,0:0:0:0:
507,238,20467,1,0,0:0:0:0:
445,155,20667,1,0,0:0:0:0:
469,67,20867,1,4,3:0:0:0:
350,184,21067,5,0,0:0:0:0:
387,267,21267,1,0,0:0:0:0:
294,355,21467,2,0,P|245:359|221:360,1,70,4|0,3:0|0:0,0:0:0:0:
73,282,21867,2,0,P|126:283|161:285,2,70,8|0|0,0:0|0:0|0:0,0:0:0:0:
188,160,22467,1,4,3:0:0:0:
80,24,22667,5,4,3:0:0:0:
108,124,22867,1,0,0:0:0:0:
216,72,23067,1,0,0:0:0:0:
284,144,23267,1,0,0:0:0:0:
428,88,23467,2,0,P|456:88|504:92,1,70,8|0,0:0|0:0,0:0:0:0:
444,216,23867,1,0,0:0:0:0:
368,164,24067,1,4,3:0:0:0:
320,276,24267,6,0,P|320:312|328:352,1,70
176,332,24667,2,0,P|208:360|260:384,1,70,4|0,3:0|0:0,0:0:0:0:
212,204,25067,1,8,0:0:0:0:
224,212,25267,2,0,L|232:168,2,35
120,192,25667,1,4,3:0:0:0:
112,236,25767,1,4,3:0:0:0:
112,280,25867,6,0,P|116:320|128:360,1,70,4|0,3:0|0:0,0:0:0:0:
20,224,26267,1,0,0:0:0:0:
208,300,26467,1,0,0:0:0:0:
168,72,26667,2,0,P|160:124|160:164,1,70,8|0,0:0|0:0,0:0:0:0:
260,16,27067,1,2,0:0:0:0:
300,40,27167,1,0,0:0:0:0:
344,44,27267,1,4,3:0:0:0:
464,156,27467,6,0,P|424:160|380:172,1,70
260,304,27867,2,0,P|296:316|336:332,1,70,4|0,3:0|0:0,0:0:0:0:
81,342,28267,1,8,0:0:0:0:
72,360,28667,5,0,0:0:0:0:
8,192,28867,1,4,3:0:0:0:
168,240,29067,2,0,P|128:244|80:240,1,70,4|0,3:0|0:0,0:0:0:0:
296,260,29467,2,0,P|288:292|272:344,1,70
232,164,29867,1,8,0:0:0:0:
224,148,30267,5,0,0:0:0:0:
344,224,30467,1,4,3:0:0:0:
312,48,30667,2,0,P|316:88|304:140,1,70
228,288,31067,5,8,0:0:0:0:
228,288,31267,1,8,0:0:0:0:
344,224,31467,6,0,P|352:280|352:308,1,70
448,184,31867,1,0,0:0:0:0:
360,108,32067,1,4,3:0:0:0:
344,64,32167,1,4,3:0:0:0:
344,20,32267,1,4,3:0:0:0:
440,92,32467,1,0,0:0:0:0:
328,188,32667,5,0,0:0:0:0:
284,304,32867,1,0,0:0:0:0:
208,148,33067,2,0,P|212:200|220:232,1,70,8|0,0:0|0:0,0:0:0:0:
132,352,33467,2,0,P|120:320|112:280,1,70,2|4,0:0|3:0,0:0:0:0:
24,136,33867,6,0,P|8:216|0:296,1,140,2|4,0:0|3:0,0:0:0:0:
104,184,34467,1,0,0:0:0:0:
64,16,34667,1,8,0:0:0:0:
0,76,34867,1,0,0:0:0:0:
140,64,35067,1,0,0:0:0:0:
104,184,35267,1,4,3:0:0:0:
260,120,35467,6,0,P|288:160|336:200,1,105,4|0,3:0|0:0,0:0:0:0:
399,224,35867,2,0,P|438:247|480:282,1,70
493,364,36267,1,8,0:0:0:0:
406,137,38667,6,0,B|385:176|393:224|393:224|368:244|368:244|377:274|366:322,1,199.499994672775,4|0,1:1|0:1,0:1:0:0:
277,361,39067,1,0,0:0:0:0:
279,113,39267,6,0,P|294:139|309:171,1,45.4999979171754,2|0,0:0|0:0,0:0:0:0:
205,227,39467,2,0,P|205:144|212:104,1,90.9999958343508,8|0,0:0|0:0,0:0:0:0:
41,132,39867,1,0,0:0:0:0:
70,99,39967,1,0,0:0:0:0:
104,71,40067,1,4,3:0:0:0:
296,296,40267,6,0,B|263:295|230:276|230:276|206:312|206:312|161:292|111:293,1,199.499994672775,4|0,1:1|0:1,0:1:0:0:
64,360,40667,5,4,3:0:0:0:
116,216,40867,2,0,P|144:216|176:224,1,45.4999979171754,2|0,0:0|0:0,0:0:0:0:
332,216,41067,2,0,P|276:204|236:188,1,90.9999958343508,8|0,0:0|0:0,0:0:0:0:
408,72,41467,2,0,P|408:120|400:180,1,90.9999958343508,0|4,0:0|3:0,0:0:0:0:
440,368,41867,5,4,3:0:0:0:
400,256,42067,1,0,0:0:0:0:
448,360,42267,1,2,0:0:0:0:
332,340,42467,1,0,0:0:0:0:
184,368,42667,2,0,P|128:368|88:360,1,90.9999958343508,8|0,0:0|0:0,0:0:0:0:
172,172,43067,1,2,0:0:0:0:
216,272,43267,1,4,3:0:0:0:
56,268,43467,6,0,B|50:228|76:194|76:194|54:171|54:171|80:136|72:81,1,199.499994672775,4|0,1:1|0:1,0:1:0:0:
8,28,43867,5,4,3:0:0:0:
176,80,44067,2,0,P|156:120|144:144,1,45.4999979171754,2|0,0:0|0:0,0:0:0:0:
224,252,44267,2,0,P|216:188|216:152,1,90.9999958343508,8|0,0:0|0:0,0:0:0:0:
336,40,44667,1,2,0:0:0:0:
436,157,44867,1,4,3:0:0:0:
452,204,44967,1,4,3:0:0:0:
456,252,45067,6,0,B|443:214|462:176|462:176|436:157|436:157|454:117|436:65,1,199.499994672775,4|0,1:1|0:1,0:1:0:0:
378,14,45467,5,0,0:0:0:0:
352,235,45667,2,0,P|357:277|364:305,1,45.4999979171754,2|0,0:0|0:0,0:0:0:0:
270,258,45867,2,0,P|276:210|277:166,1,90.9999958343508,8|0,0:0|0:0,0:0:0:0:
109,309,46267,2,0,P|170:322|211:326,1,90.9999958343508,0|4,0:0|3:0,0:0:0:0:
42,127,46667,6,0,B|44:166|14:197|14:197|35:222|35:222|6:256|9:311,1,199.499994672775,4|0,1:1|0:1,0:1:0:0:
50,378,47067,5,4,3:0:0:0:
132,171,47267,2,0,P|140:213|141:244,1,45.4999979171754,2|0,0:0|0:0,0:0:0:0:
249,204,47467,2,0,P|238:250|219:312,1,90.9999958343508,8|0,0:0|0:0,0:0:0:0:
435,309,47867,2,0,P|395:349|367:372,1,90.9999958343508,0|4,0:0|3:0,0:0:0:0:
392,102,48267,5,4,3:0:0:0:
380,216,48467,1,0,0:0:0:0:
247,22,48667,2,0,P|265:67|277:117,1,90.9999958343508,2|0,0:0|0:0,0:0:0:0:
131,237,49067,2,0,P|152:190|179:150,1,90.9999958343508,8|0,0:0|0:0,0:0:0:0:
285,288,49467,1,2,0:0:0:0:
307,331,49567,1,0,0:0:0:0:
320,384,49667,1,4,3:0:0:0:
493,228,49867,6,0,P|463:260|413:295,1,90.9999958343508
412,80,50267,1,0,3:0:0:0:
392,196,50467,1,0,0:0:0:0:
224,108,50667,2,0,P|212:64|204:8,1,90.9999958343508,8|0,0:0|0:0,0:0:0:0:
124,220,51067,2,0,P|127:197|137:167,1,45.4999979171754,2|0,0:0|0:0,0:0:0:0:
212,276,51267,1,4,3:0:0:0:
248,324,51367,1,4,3:0:0:0:
264,372,51467,6,0,B|225:374|194:344|194:344|169:365|169:365|135:336|80:339,1,199.499994672775,4|0,1:1|0:1,0:1:0:0:
8,372,51867,5,0,0:0:0:0:
29,166,52067,2,0,P|37:206|41:242,1,45.4999979171754,2|0,0:0|0:0,0:0:0:0:
131,175,52267,2,0,P|119:235|103:291,1,90.9999958343508,8|0,0:0|0:0,0:0:0:0:
68,60,52667,1,0,0:0:0:0:
68,60,52767,1,0,0:0:0:0:
68,60,52867,1,4,3:0:0:0:
272,60,53067,6,0,B|284:96|264:135|264:135|291:153|291:153|272:193|290:245,1,199.499994672775,4|0,1:1|0:1,0:1:0:0:
320,320,53467,5,4,3:0:0:0:
416,152,53667,2,0,P|412:192|400:224,1,45.4999979171754,2|0,0:0|0:0,0:0:0:0:
488,260,53867,2,0,P|476:312|456:368,1,90.9999958343508,8|0,0:0|0:0,0:0:0:0:
289,240,54267,2,0,P|309:180|329:136,1,90.9999958343508,0|4,0:0|3:0,0:0:0:0:
190,329,54667,5,4,3:0:0:0:
36,364,54867,1,0,0:0:0:0:
196,315,55067,1,2,0:0:0:0:
88,228,55267,1,0,0:0:0:0:
125,29,55467,2,0,P|134:74|134:137,1,90.9999958343508,8|0,0:0|0:0,0:0:0:0:
268,232,55867,1,2,0:0:0:0:
232,100,56067,1,4,3:0:0:0:
402,51,56267,6,0,B|362:52|332:21|332:21|307:42|307:42|273:12|218:14,1,199.499994672775,4|0,1:1|0:1,0:1:0:0:
145,48,56667,5,4,3:0:0:0:
208,184,56867,1,2,0:0:0:0:
112,340,57067,2,0,P|112:296|120:248,1,90.9999958343508,8|0,0:0|0:0,0:0:0:0:
304,199,57467,1,2,0:0:0:0:
400,335,57667,1,4,3:0:0:0:
400,335,57767,1,4,3:0:0:0:
400,335,57867,6,0,B|418:295|418:259|418:259|453:255|453:255|451:213|476:168,1,199.499994672775,4|0,1:1|0:1,0:1:0:0:
509,100,58267,1,0,0:0:0:0:
312,42,58467,2,0,P|313:77|317:113,1,45.4999979171754,2|0,0:0|0:0,0:0:0:0:
219,119,58667,2,0,P|245:170|279:220,1,90.9999958343508,8|0,0:0|0:0,0:0:0:0:
137,300,59067,2,0,P|198:303|257:296,1,90.9999958343508,0|4,0:0|3:0,0:0:0:0:
35,328,59467,6,0,B|28:293|56:244|56:244|22:231|22:231|48:195|43:134,1,199.499994672775,4|0,1:1|0:1,0:1:0:0:
16,80,59867,5,4,3:0:0:0:
194,144,60067,2,0,P|183:178|174:206,1,45.4999979171754,2|0,0:0|0:0,0:0:0:0:
279,247,60267,2,0,P|248:277|203:309,1,90.9999958343508,8|0,0:0|0:0,0:0:0:0:
443,257,60667,2,0,P|443:302|435:359,1,90.9999958343508,0|4,0:0|3:0,0:0:0:0:
371,168,61067,5,4,3:0:0:0:
424,24,61267,1,0,0:0:0:0:
388,188,61467,2,0,P|384:136|372:88,1,90.9999958343508,2|0,0:0|0:0,0:0:0:0:
244,243,61867,2,0,P|235:295|234:360,1,90.9999958343508,8|0,0:0|0:0,0:0:0:0:
146,155,62267,1,2,0:0:0:0:
146,155,62367,1,0,0:0:0:0:
146,155,62467,1,4,3:0:0:0:
15,231,62667,5,0,0:0:0:0:
123,272,62867,1,0,0:0:0:0:
250,181,63067,1,4,3:0:0:0:
352,216,63267,1,0,0:0:0:0:
502,69,63467,5,8,0:0:0:0:
488,108,63567,1,0,0:0:0:0:
481,153,63667,1,2,0:0:0:0:
481,199,63767,1,0,0:0:0:0:
491,247,63867,1,2,0:0:0:0:
372,364,64067,1,4,3:0:0:0:
376,328,64167,1,4,3:0:0:0:
380,292,64267,6,0,P|332:290|293:282,1,70,4|0,3:0|0:0,0:0:0:0:
232,216,64667,1,0,0:0:0:0:
232,216,64867,1,0,0:0:0:0:
151,283,65067,2,0,P|118:295|83:297,1,70,8|0,0:0|0:0,0:0:0:0:
24,212,65467,1,0,0:0:0:0:
24,212,65567,1,0,0:0:0:0:
24,212,65667,1,4,3:0:0:0:
80,124,65867,6,0,P|88:88|88:36,1,70
172,116,66267,2,0,P|164:156|165:185,1,70,4|0,3:0|0:0,0:0:0:0:
260,140,66667,1,8,0:0:0:0:
352,188,66867,1,0,0:0:0:0:
216,352,67067,1,2,0:0:0:0:
228,336,67467,6,0,P|240:288|240:252,1,70,4|0,3:0|0:0,0:0:0:0:
167,111,67867,2,0,P|170:146|180:180,1,70
248,96,68267,1,8,0:0:0:0:
80,216,68467,1,0,0:0:0:0:
128,308,68667,1,0,0:0:0:0:
52,380,68867,1,4,3:0:0:0:
96,212,69067,6,0,P|104:176|104:132,1,70
187,18,69467,2,0,P|188:53|196:88,1,70,4|0,3:0|0:0,0:0:0:0:
256,176,69867,1,8,0:0:0:0:
228,276,70067,1,0,0:0:0:0:
76,192,70267,1,2,0:0:0:0:
88,208,70667,6,0,L|160:216,1,70,4|0,3:0|0:0,0:0:0:0:
236,284,71067,2,0,L|308:292,1,70
276,192,71467,1,8,0:0:0:0:
312,92,71667,1,0,0:0:0:0:
300,196,71867,1,0,0:0:0:0:
332,296,72067,1,0,3:0:0:0:
416,224,72267,6,0,P|464:212|496:212,1,70
343,144,72667,2,0,P|378:141|412:132,1,70,4|0,3:0|0:0,0:0:0:0:
328,68,73067,1,8,0:0:0:0:
472,220,73267,1,0,0:0:0:0:
372,252,73467,1,0,0:0:0:0:
300,328,73667,1,4,3:0:0:0:
200,292,73867,6,0,P|156:300|112:324,1,70,4|0,3:0|0:0,0:0:0:0:
152,204,74267,1,0,0:0:0:0:
64,61,74467,2,0,P|65:96|80:128,1,70,0|8,0:0|0:0,0:0:0:0:
164,188,74867,1,0,0:0:0:0:
268,176,75067,2,0,L|352:184,1,70,0|4,0:0|3:0,0:0:0:0:
489,122,75467,6,0,L|420:116,1,70
368,24,75867,1,4,3:0:0:0:
400,124,76067,1,0,0:0:0:0:
332,204,76267,1,8,0:0:0:0:
376,300,76467,1,0,0:0:0:0:
183,264,76667,1,2,0:0:0:0:
120,347,76867,1,4,3:0:0:0:
98,299,76967,1,4,3:0:0:0:
55,268,77067,6,0,B|44:236|44:236|44:192,1,70,4|0,3:0|0:0,0:0:0:0:
48,96,77467,2,0,B|48:59|48:59|59:27,1,70
140,96,77867,1,8,0:0:0:0:
240,68,78067,1,0,0:0:0:0:
368,124,78267,1,0,0:0:0:0:
368,124,78367,1,0,0:0:0:0:
368,124,78467,1,4,3:0:0:0:
269,258,78667,6,0,P|273:223|288:192,1,70
373,253,79067,1,4,3:0:0:0:
213,117,79267,1,0,0:0:0:0:
272,276,79467,1,8,0:0:0:0:
180,324,79667,2,0,P|132:320|92:329,1,70
56,232,80067,1,4,3:0:0:0:
137,165,80267,5,4,3:0:0:0:
126,25,80467,1,0,0:0:0:0:
36,76,80667,2,0,P|76:92|108:96,1,70,2|0,0:0|0:0,0:0:0:0:
256,72,81067,1,8,0:0:0:0:
352,116,81267,1,0,0:0:0:0:
268,172,81467,1,0,0:0:0:0:
248,220,81567,1,0,0:0:0:0:
232,268,81667,1,4,3:0:0:0:
103,317,81867,6,0,L|128:252,1,70
172,156,82267,2,0,L|196:90,1,70,4|0,3:0|0:0,0:0:0:0:
256,176,82667,1,8,0:0:0:0:
124,64,82867,1,0,0:0:0:0:
228,80,83067,1,0,0:0:0:0:
324,36,83267,1,0,3:0:0:0:
324,36,83367,1,0,3:0:0:0:
324,36,83467,6,0,P|331:69|364:107,1,70,4|0,3:0|0:0,0:0:0:0:
394,129,83767,1,0,0:0:0:0:
446,134,83867,1,0,0:0:0:0:
281,264,84267,2,0,P|273:230|253:201,1,70,4|0,3:0|0:0,0:0:0:0:
211,171,84567,1,0,0:0:0:0:
160,176,84667,1,0,0:0:0:0:
250,354,85067,6,0,L|334:350,1,70,4|0,3:0|0:0,0:0:0:0:
366,330,85367,1,0,0:0:0:0:
390,282,85467,1,4,3:0:0:0:
340,188,85667,1,0,0:0:0:0:
392,96,85867,2,0,L|304:92,1,70,8|0,0:0|0:0,0:0:0:0:
272,108,86167,1,0,0:0:0:0:
224,132,86267,2,0,L|154:128,1,70,2|4,0:0|3:0,0:0:0:0:
220,244,86667,5,4,3:0:0:0:
164,332,86867,1,0,0:0:0:0:
256,380,87067,2,0,P|300:368|332:368,1,70,2|0,0:0|0:0,0:0:0:0:
428,380,87467,1,8,0:0:0:0:
436,312,89867,6,0,B|432:268|412:240|412:240|436:188|436:188|416:152|440:104,1,199.499994672775,4|0,1:1|0:1,0:1:0:0:
476,48,90267,5,0,0:0:0:0:
296,72,90467,2,0,P|284:100|276:128,1,45.4999979171754,2|0,0:0|0:0,0:0:0:0:
298,325,90667,2,0,P|326:263|324:196,1,136.499993751526,8|0,0:0|0:0,0:0:0:0:
216,240,91067,1,0,0:0:0:0:
172,228,91167,1,0,0:0:0:0:
128,216,91267,1,4,3:0:0:0:
44,80,91467,6,0,B|72:80|100:60|100:60|148:68|148:68|192:40|256:64,1,199.499994672775,4|0,1:1|0:1,0:1:0:0:
320,92,91867,5,4,3:0:0:0:
372,264,92067,2,0,P|392:248|412:212,1,45.4999979171754,2|0,0:0|0:0,0:0:0:0:
363,149,92267,2,0,P|339:193|291:223,1,90.9999958343508,8|0,0:0|0:0,0:0:0:0:
188,354,92667,2,0,P|223:326|244:286,1,90.9999958343508,0|4,0:0|3:0,0:0:0:0:
129,213,93067,5,4,3:0:0:0:
0,167,93267,1,0,0:0:0:0:
81,57,93467,2,0,L|195:49,1,90.9999958343508,2|0,0:0|0:0,0:0:0:0:
383,105,93867,2,0,L|293:112,1,90.9999958343508,8|0,0:0|0:0,0:0:0:0:
203,214,94267,1,2,0:0:0:0:
226,252,94367,1,0,0:0:0:0:
266,272,94467,1,4,3:0:0:0:
426,289,94667,6,0,P|390:315|346:328,1,90.9999958343508
426,124,95067,1,4,3:0:0:0:
344,209,95267,1,0,0:0:0:0:
306,96,95467,2,0,P|259:102|203:93,1,90.9999958343508,8|0,0:0|0:0,0:0:0:0:
78,93,95867,2,0,L|66:151,1,45.4999979171754,2|0,0:0|0:0,0:0:0:0:
41,200,96067,1,4,3:0:0:0:
65,263,96167,1,4,3:0:0:0:
32,321,96267,6,0,B|74:324|102:344|102:344|154:320|154:320|190:340|218:325,1,199.499994672775,4|0,1:1|0:1,0:1:0:0:
295,277,96667,5,0,0:0:0:0:
304,95,96867,2,0,P|316:69|341:46,1,45.4999979171754,2|0,0:0|0:0,0:0:0:0:
418,59,97067,2,0,P|406:120|353:175,1,136.499993751526,8|0,0:0|0:0,0:0:0:0:
445,245,97467,1,0,0:0:0:0:
420,283,97567,1,0,0:0:0:0:
417,328,97667,1,4,3:0:0:0:
226,267,97867,6,0,B|193:254|155:253|112:286|112:286|90:275|90:275|69:281|69:281|48:283|29:273,1,199.499994672775,4|0,1:1|0:1,0:1:0:0:
78,195,98267,5,4,3:0:0:0:
19,22,98467,2,0,P|41:33|69:37,1,45.4999979171754,2|0,0:0|0:0,0:0:0:0:
153,31,98667,2,0,L|264:23,1,90.9999958343508,8|0,0:0|0:0,0:0:0:0:
374,63,99067,2,0,L|485:55,1,90.9999958343508,0|4,0:0|3:0,0:0:0:0:
398,175,99467,5,4,3:0:0:0:
317,285,99667,1,0,0:0:0:0:
409,184,99867,1,2,0:0:0:0:
468,306,100067,1,0,0:0:0:0:
333,280,100267,1,8,0:0:0:0:
202,240,100467,1,0,0:0:0:0:
69,274,100667,2,0,P|92:230|80:159,1,90.9999958343508,2|4,0:0|3:0,0:0:0:0:
223,37,101067,6,0,B|250:52|286:32|286:32|338:56|338:56|369:31|409:32,1,199.499994672775,4|0,1:1|0:1,0:1:0:0:
497,54,101467,5,4,3:0:0:0:
376,190,101667,2,0,P|344:201|325:218,1,45.4999979171754,2|0,0:0|0:0,0:0:0:0:
281,281,101867,2,0,L|182:299,1,90.9999958343508,8|0,0:0|0:0,0:0:0:0:
189,160,102267,1,2,0:0:0:0:
100,56,102467,1,4,3:0:0:0:
56,108,102567,1,4,3:0:0:0:
77,173,102667,6,0,B|75:221|105:243|105:243|51:252|27:291|30:335,1,199.499994672775,4|0,1:1|0:1,0:1:0:0:
120,334,103067,5,0,0:0:0:0:
283,345,103267,2,0,P|308:343|332:328,1,45.4999979171754,2|0,0:0|0:0,0:0:0:0:
413,232,103467,2,0,L|410:369,1,136.499993751526,8|0,0:0|0:0,0:0:0:0:
499,298,103867,1,0,0:0:0:0:
502,229,103967,1,0,0:0:0:0:
505,160,104067,1,4,3:0:0:0:
345,40,104267,6,0,B|317:25|281:45|281:45|229:21|229:21|201:41|155:40,1,199.499994672775,4|0,1:1|0:1,0:1:0:0:
65,41,104667,5,4,3:0:0:0:
216,141,104867,2,0,L|234:198,1,45.4999979171754,2|0,0:0|0:0,0:0:0:0:
330,285,105067,2,0,P|285:289|243:274,1,90.9999958343508,8|0,0:0|0:0,0:0:0:0:
75,201,105467,2,0,P|110:228|154:238,1,90.9999958343508,0|4,0:0|3:0,0:0:0:0:
269,164,105867,5,4,3:0:0:0:
226,34,106067,1,0,0:0:0:0:
349,92,106267,2,0,P|404:93|458:76,1,90.9999958343508,2|0,0:0|0:0,0:0:0:0:
378,206,106667,2,0,P|355:256|356:308,1,90.9999958343508,8|0,0:0|0:0,0:0:0:0:
219,318,107067,1,2,0:0:0:0:
183,289,107167,1,0,0:0:0:0:
138,278,107267,1,4,3:0:0:0:
8,320,107467,6,0,L|29:203,1,90.9999958343508
137,45,107867,2,0,L|121:135,1,90.9999958343508,4|0,3:0|0:0,0:0:0:0:
66,9,108267,1,8,0:0:0:0:
219,40,108467,1,0,0:0:0:0:
352,16,108667,2,0,P|354:40|371:77,1,45.4999979171754,2|0,0:0|0:0,0:0:0:0:
406,111,108867,1,4,3:0:0:0:
393,178,108967,1,4,3:0:0:0:
422,237,109067,6,0,B|389:224|351:223|308:256|308:256|286:245|286:245|265:251|265:251|244:253|225:243,1,199.499994672775,4|0,1:1|0:1,0:1:0:0:
160,191,109467,5,0,0:0:0:0:
108,16,109667,2,0,P|96:44|88:72,1,45.4999979171754,2|0,0:0|0:0,0:0:0:0:
110,269,109867,2,0,P|138:207|136:140,1,136.499993751526,8|0,0:0|0:0,0:0:0:0:
244,103,110267,1,0,0:0:0:0:
284,82,110367,1,0,0:0:0:0:
324,61,110467,1,4,3:0:0:0:
394,247,110667,6,0,B|397:205|417:177|417:177|393:125|393:125|420:98|415:47,1,199.499994672775,4|0,1:1|0:1,0:1:0:0:
343,6,111067,5,4,3:0:0:0:
245,159,111267,2,0,L|241:212,1,45.4999979171754,2|0,0:0|0:0,0:0:0:0:
184,275,111467,2,0,P|127:291|63:275,1,90.9999958343508,8|0,0:0|0:0,0:0:0:0:
275,320,111867,2,0,P|317:334|362:332,1,90.9999958343508,0|4,0:0|3:0,0:0:0:0:
496,287,112267,5,4,3:0:0:0:
256,192,112367,12,0,115067,0:0:0:0:
120,320,115467,5,4,0:0:0:0:
180,252,115667,1,0,0:0:0:0:
104,168,115867,2,0,P|96:128|96:92,1,70,2|0,0:0|0:0,0:0:0:0:
240,20,116267,2,0,P|240:56|236:104,1,70,8|0,0:0|0:0,0:0:0:0:
360,192,116667,1,0,0:0:0:0:
360,192,116767,1,0,0:0:0:0:
360,192,116867,1,4,3:0:0:0:
460,32,117067,6,0,P|468:80|472:196,2,140,0|4|8,0:0|3:0|0:0,0:0:0:0:
384,224,118067,2,0,L|380:280,2,35,2|0|2,0:0|0:0|0:0,0:0:0:0:
284,144,118467,1,4,3:0:0:0:
180,248,118667,6,0,P|188:292|204:336,1,70,4|0,3:0|0:0,0:0:0:0:
320,360,119067,2,0,P|328:320|332:288,1,70,2|0,0:0|0:0,0:0:0:0:
260,128,119467,2,0,L|268:48,1,70,8|0,0:0|0:0,0:0:0:0:
316,200,119867,1,2,0:0:0:0:
316,200,119967,1,0,0:0:0:0:
316,200,120067,1,4,3:0:0:0:
144,184,120267,6,0,P|124:232|96:348,2,140,0|4|8,0:0|3:0|0:0,0:0:0:0:
72,100,121267,2,0,P|72:116|76:140,2,35,2|0|2,0:0|0:0|0:0,0:0:0:0:
228,48,121667,1,4,3:0:0:0:
228,48,121767,1,4,3:0:0:0:
228,48,121867,6,0,P|232:100|231:144,1,70,4|0,3:0|0:0,0:0:0:0:
340,200,122267,2,0,P|340:152|344:104,1,70,2|0,0:0|0:0,0:0:0:0:
461,46,122667,2,0,L|470:134,1,70,8|0,0:0|0:0,0:0:0:0:
420,208,123067,2,0,L|427:292,1,70,2|4,0:0|3:0,0:0:0:0:
347,378,123467,5,0,0:0:0:0:
347,378,123867,2,0,P|344:328|344:304,1,70,4|0,3:0|0:0,0:0:0:0:
226,335,124267,2,0,P|203:293|194:266,1,70,8|0,0:0|0:0,0:0:0:0:
86,358,124667,2,0,P|39:364|6:365,1,70,2|4,0:0|3:0,0:0:0:0:
196,371,125067,6,0,P|256:366|341:368,2,140,4|2|8,3:0|0:0|0:0,0:0:0:0:
124,277,126067,1,0,0:0:0:0:
190,166,126267,1,2,0:0:0:0:
190,166,126367,1,0,0:0:0:0:
190,166,126467,1,4,3:0:0:0:
65,48,126667,6,0,P|112:40|237:35,2,140,0|4|8,0:0|3:0|0:0,0:0:0:0:
12,184,127667,2,0,L|56:188,2,35,2|0|2,0:0|0:0|0:0,0:0:0:0:
84,304,128067,1,4,3:0:0:0:
124,284,128167,1,4,3:0:0:0:
168,280,128267,5,4,3:0:0:0:
