osu file format v14

[General]
AudioFilename: audio.mp3
AudioLeadIn: 0
PreviewTime: 36567
Countdown: 0
SampleSet: Soft
StackLeniency: 0.7
Mode: 0
LetterboxInBreaks: 0
WidescreenStoryboard: 0

[Editor]
Bookmarks: 27067
DistanceSpacing: 1.15
BeatDivisor: 4
GridSize: 4
TimelineZoom: 2.6

[Metadata]
Title:bitch lasagna
TitleUnicode:bitch lasagna
Artist:PewDiePie
ArtistUnicode:PewDiePie
Creator:Gordon123
Version:Collab Advanced
Source:
Tags:danielexus Nyantiaz Terton riffy Bakari party in the backyard indian t-series tseries diss track nine 9 year old Felix Kjellberg techno parody pewds pewdie
BeatmapID:1930775
BeatmapSetID:923292

[Difficulty]
HPDrainRate:4.5
CircleSize:3.4
OverallDifficulty:5.2
ApproachRate:6.5
SliderMultiplier:1.32
SliderTickRate:1

[Events]
//Background and Video events
0,0,"bg.jpg",0,0
//Break Periods
2,36867,37692
2,88066,88892
//Storyboard Layer 0 (Background)
//Storyboard Layer 1 (Fail)
//Storyboard Layer 2 (Pass)
//Storyboard Layer 3 (Foreground)
//Storyboard Sound Samples

[TimingPoints]
267,400,4,2,1,40,1,0
13067,-100,4,2,1,60,0,0
35467,-111.111111111111,4,2,1,60,0,0
38667,-90.9090909090909,4,2,1,70,0,1
64267,-100,4,2,1,60,0,0
89867,-90.9090909090909,4,2,1,70,0,1
112267,-105.263157894737,4,2,1,60,0,0
115467,-100,4,2,1,50,0,1
115492,-100,4,2,1,50,0,0
121867,-100,4,2,1,50,0,1
121892,-100,4,2,1,50,0,0
128267,-100,4,2,1,50,0,1
128292,-100,4,2,1,50,0,0

[Colours]
Combo1 : 86,169,92
Combo2 : 111,117,85
Combo3 : 182,172,208
Combo4 : 64,51,113

[HitObjects]
90,311,13067,6,0,L|86:236,1,66,4|0,3:0|0:0,0:0:0:0:
28,195,13467,2,0,L|32:120,1,66,0|0,0:0|0:0,0:0:0:0:
87,77,13867,2,0,P|153:62|220:91,1,132,8|0,0:0|0:0,0:0:0:0:
274,125,14467,1,4,3:0:0:0:
274,125,14667,6,0,L|357:121,2,66,0|0|4,0:0|0:0|3:0,0:0:0:0:
211,84,15267,1,0,0:0:0:0:
211,84,15467,1,8,0:0:0:0:
142,219,15867,2,0,L|156:311,1,66,0|4,0:0|3:0,0:0:0:0:
213,328,16267,6,0,B|279:308|264:360|348:330,1,132,4|0,3:0|0:0,0:0:0:0:
441,218,17067,2,0,P|443:179|433:143,2,66,8|0|0,0:0|0:0|0:0,0:0:0:0:
377,259,17667,1,4,3:0:0:0:
377,259,17867,2,0,L|308:256,1,66,0|0,0:0|0:0,0:0:0:0:
247,214,18267,2,0,P|239:180|246:136,1,66,4|0,3:0|0:0,0:0:0:0:
262,76,18667,2,0,L|327:70,2,66,8|0|0,0:0|0:0|0:0,0:0:0:0:
193,41,19267,1,4,3:0:0:0:
193,41,19367,1,4,3:0:0:0:
193,41,19467,6,0,L|133:69,1,66,4|0,3:0|0:0,0:0:0:0:
67,107,19867,2,0,L|63:187,1,66,0|0,0:0|0:0,0:0:0:0:
71,248,20267,2,0,P|104:253|147:243,1,66,8|0,0:0|0:0,0:0:0:0:
196,202,20667,1,0,0:0:0:0:
196,202,20867,1,4,3:0:0:0:
253,251,21067,6,0,L|241:324,2,66,0|0|4,0:0|0:0|3:0,0:0:0:0:
326,220,21667,1,0,0:0:0:0:
326,220,21867,2,0,B|333:170|333:170|343:154|343:154|349:90,1,132,8|0,0:0|0:0,0:0:0:0:
203,48,22667,6,0,P|168:43|125:57,1,66,4|0,3:0|0:0,0:0:0:0:
93,111,23067,2,0,L|97:182,1,66,0|0,0:0|0:0,0:0:0:0:
143,236,23467,1,8,0:0:0:0:
255,338,23867,2,0,P|287:343|319:336,1,66,0|4,0:0|3:0,0:0:0:0:
365,275,24267,2,0,L|361:209,1,66,0|0,0:0|0:0,0:0:0:0:
315,150,24667,2,0,L|233:164,2,66,4|0|8,3:0|0:0|0:0,0:0:0:0:
407,29,25467,2,0,L|472:36,1,66,0|4,0:0|3:0,0:0:0:0:
496,65,25767,1,4,3:0:0:0:
496,65,25867,5,4,3:0:0:0:
445,121,26067,1,0,0:0:0:0:
445,121,26267,2,0,L|451:194,1,66,0|0,0:0|0:0,0:0:0:0:
434,261,26667,2,0,P|399:268|362:252,1,66,8|0,0:0|0:0,0:0:0:0:
303,223,27067,2,0,P|268:216|231:232,1,66,2|4,0:0|3:0,0:0:0:0:
180,272,27467,5,0,0:0:0:0:
180,272,27667,1,0,0:0:0:0:
117,228,27867,2,0,P|126:187|119:156,1,66,4|0,3:0|0:0,0:0:0:0:
95,92,28267,1,8,0:0:0:0:
230,24,28667,1,0,0:0:0:0:
230,24,28867,1,4,3:0:0:0:
296,59,29067,6,0,L|304:129,1,66,4|0,3:0|0:0,0:0:0:0:
249,177,29467,2,0,L|241:247,1,66,0|0,0:0|0:0,0:0:0:0:
292,298,29867,2,0,P|326:314|418:296,1,132,8|0,0:0|0:0,0:0:0:0:
467,241,30467,1,4,3:0:0:0:
467,241,30667,2,0,L|461:168,1,66,0|0,0:0|0:0,0:0:0:0:
415,114,31067,5,8,0:0:0:0:
415,114,31267,1,8,0:0:0:0:
349,74,31467,6,0,L|269:86,1,66,0|0,0:0|0:0,0:0:0:0:
208,94,31867,1,0,0:0:0:0:
162,157,32067,1,4,3:0:0:0:
162,157,32167,1,4,3:0:0:0:
162,157,32267,6,0,P|172:206|159:243,1,66,4|0,3:0|0:0,0:0:0:0:
193,292,32667,2,0,L|268:290,1,66,0|0,0:0|0:0,0:0:0:0:
329,260,33067,2,0,P|318:203|365:138,1,132,8|2,0:0|0:0,0:0:0:0:
413,93,33667,1,4,3:0:0:0:
413,93,33867,2,0,L|349:77,1,66,2|0,0:0|0:0,0:0:0:0:
285,34,34267,2,0,L|218:45,2,66,4|0|8,3:0|0:0|0:0,0:0:0:0:
319,181,35067,2,0,P|324:217|316:251,1,66,0|4,0:0|3:0,0:0:0:0:
262,285,35467,6,0,B|202:263|213:314|140:277,1,118.799996374512,4|0,3:0|0:0,0:0:0:0:
319,178,36267,2,0,B|384:211|373:160|433:182,1,118.799996374512,8|0,0:0|0:0,0:0:0:0:
42,301,38667,6,0,P|84:326|192:300,1,145.200004431152,4|0,1:1|0:0,0:0:0:0:
245,267,39267,1,2,0:0:0:0:
245,267,39467,2,0,L|240:190,1,72.6000022155762,8|0,0:0|0:0,0:0:0:0:
168,150,39867,2,0,L|173:73,1,72.6000022155762,0|4,0:0|3:0,0:0:0:0:
245,35,40267,6,0,B|318:22|310:71|398:49,1,145.200004431152,4|4,1:1|3:0,0:0:0:0:
464,23,40867,1,2,0:0:0:0:
464,23,41067,2,0,P|449:69|460:103,1,72.6000022155762,8|0,0:0|0:0,0:0:0:0:
395,150,41467,2,0,P|410:196|399:230,1,72.6000022155762,0|4,0:0|3:0,0:0:0:0:
327,249,41867,6,0,L|246:238,1,72.6000022155762,4|0,3:0|0:0,0:0:0:0:
176,268,42267,2,0,L|191:352,2,72.6000022155762,2|0|8,0:0|0:0|0:0,0:0:0:0:
112,214,42867,1,0,0:0:0:0:
112,214,43067,2,0,L|99:142,1,72.6000022155762,2|4,0:0|3:0,0:0:0:0:
125,62,43467,6,0,B|190:41|190:41|195:50|195:50|267:28,1,145.200004431152,4|4,1:1|3:0,0:0:0:0:
293,107,44067,1,2,0:0:0:0:
293,107,44267,2,0,B|228:128|228:128|223:119|223:119|159:138,1,145.200004431152,8|2,0:0|0:0,0:0:0:0:
147,220,44867,1,4,3:0:0:0:
147,220,44967,1,4,3:0:0:0:
147,220,45067,6,0,L|298:240,1,145.200004431152,4|0,1:1|0:0,0:0:0:0:
366,203,45667,1,2,0:0:0:0:
366,203,45867,2,0,P|373:161|366:123,1,72.6000022155762,8|0,0:0|0:0,0:0:0:0:
291,99,46267,2,0,P|284:57|291:19,1,72.6000022155762,0|4,0:0|3:0,0:0:0:0:
365,58,46667,6,0,L|511:88,1,145.200004431152,4|4,1:1|3:0,0:0:0:0:
469,161,47267,1,2,0:0:0:0:
469,161,47467,2,0,L|391:145,1,72.6000022155762,8|0,0:0|0:0,0:0:0:0:
334,200,47867,2,0,P|325:237|330:286,1,72.6000022155762,0|4,0:0|3:0,0:0:0:0:
275,337,48267,6,0,L|195:325,1,72.6000022155762,4|0,3:0|0:0,0:0:0:0:
161,253,48667,2,0,P|175:215|142:115,1,145.200004431152,2|8,0:0|0:0,0:0:0:0:
87,59,49267,1,0,0:0:0:0:
87,59,49467,2,0,P|137:61|183:43,1,72.6000022155762,2|4,0:0|3:0,0:0:0:0:
228,101,49867,6,0,L|211:182,2,72.6000022155762,0|0|0,0:0|0:0|3:0,0:0:0:0:
298,56,50467,1,0,0:0:0:0:
298,56,50667,2,0,B|319:91|319:91|431:77,1,145.200004431152,8|2,0:0|0:0,0:0:0:0:
480,138,51267,1,4,3:0:0:0:
480,138,51367,1,4,3:0:0:0:
480,138,51467,6,0,P|446:194|469:283,1,145.200004431152,4|0,1:1|0:0,0:0:0:0:
397,326,52067,1,2,0:0:0:0:
397,326,52267,2,0,L|320:321,1,72.6000022155762,8|0,0:0|0:0,0:0:0:0:
257,270,52667,2,0,B|269:247|269:247|260:185,1,72.6000022155762,0|4,0:0|3:0,0:0:0:0:
220,128,53067,6,0,B|140:112|163:171|67:153,1,145.200004431152,4|4,1:1|3:0,0:0:0:0:
9,112,53667,1,2,0:0:0:0:
9,112,53867,2,0,P|28:70|27:30,1,72.6000022155762,8|0,0:0|0:0,0:0:0:0:
105,10,54267,2,0,P|108:45|125:77,1,72.6000022155762,0|4,0:0|3:0,0:0:0:0:
195,123,54667,6,0,L|281:116,2,72.6000022155762,4|0|2,3:0|0:0|0:0,0:0:0:0:
125,170,55267,1,0,0:0:0:0:
125,170,55467,2,0,L|123:243,1,72.6000022155762,8|0,0:0|0:0,0:0:0:0:
206,253,55867,2,0,L|208:326,1,72.6000022155762,2|4,0:0|3:0,0:0:0:0:
280,367,56267,6,0,B|316:351|363:374|363:374|419:351|420:348,1,145.200004431152,4|4,1:1|3:0,0:0:0:0:
452,274,56867,1,2,0:0:0:0:
452,274,57067,2,0,B|416:258|369:281|369:281|313:258|314:257,1,145.200004431152,8|2,0:0|0:0,0:0:0:0:
257,196,57667,1,4,3:0:0:0:
257,196,57767,1,4,3:0:0:0:
257,196,57867,6,0,P|245:149|286:63,1,145.200004431152,4|0,1:1|0:0,0:0:0:0:
217,13,58467,1,2,0:0:0:0:
217,13,58667,2,0,L|137:22,1,72.6000022155762,8|0,0:0|0:0,0:0:0:0:
66,50,59067,2,0,P|75:91|69:138,1,72.6000022155762,0|4,0:0|3:0,0:0:0:0:
52,202,59467,6,0,P|102:199|157:125,1,145.200004431152,4|4,1:1|3:0,0:0:0:0:
233,161,60067,1,2,0:0:0:0:
233,161,60267,2,0,L|312:183,1,72.6000022155762,8|0,0:0|0:0,0:0:0:0:
357,243,60667,2,0,P|355:278|335:323,1,72.6000022155762,0|4,0:0|3:0,0:0:0:0:
262,338,61067,6,0,L|178:329,1,72.6000022155762,4|0,3:0|0:0,0:0:0:0:
132,269,61467,2,0,P|145:231|144:176,1,72.6000022155762,2|0,0:0|0:0,0:0:0:0:
114,121,61867,1,8,0:0:0:0:
263,46,62267,2,0,L|344:43,1,72.6000022155762,2|4,0:0|3:0,0:0:0:0:
395,101,62667,6,0,L|396:179,1,72.6000022155762,0|0,0:0|0:0,0:0:0:0:
312,180,63067,2,0,L|311:258,1,72.6000022155762,4|0,3:0|0:0,0:0:0:0:
368,312,63467,2,0,P|303:333|234:290,1,145.200004431152,8|2,0:0|0:0,0:0:0:0:
175,243,64067,1,4,3:0:0:0:
175,243,64167,1,4,3:0:0:0:
175,243,64267,6,0,L|172:157,1,66,4|0,3:0|0:0,0:0:0:0:
111,132,64667,2,0,L|108:46,1,66,0|0,0:0|0:0,0:0:0:0:
176,32,65067,2,0,P|229:52|306:43,1,132,8|0,0:0|0:0,0:0:0:0:
375,20,65667,1,4,3:0:0:0:
362,94,65867,6,0,L|366:164,1,66,0|0,0:0|0:0,0:0:0:0:
333,228,66267,2,0,L|337:298,1,66,4|0,3:0|0:0,0:0:0:0:
411,307,66667,1,8,0:0:0:0:
477,342,66867,1,0,0:0:0:0:
474,266,67067,5,2,0:0:0:0:
506,117,67467,5,4,3:0:0:0:
506,117,67667,1,0,0:0:0:0:
432,135,67867,2,0,P|401:142|351:126,1,66,0|0,0:0|0:0,0:0:0:0:
304,93,68267,2,0,P|273:86|223:102,1,66,8|0,0:0|0:0,0:0:0:0:
173,130,68667,1,0,0:0:0:0:
99,109,68867,1,4,3:0:0:0:
99,109,69067,6,0,L|88:192,1,66,0|0,0:0|0:0,0:0:0:0:
37,229,69467,2,0,L|26:312,1,66,4|0,3:0|0:0,0:0:0:0:
103,302,69867,1,8,0:0:0:0:
163,347,70067,1,0,0:0:0:0:
175,272,70267,5,2,0:0:0:0:
317,324,70667,6,0,P|355:331|400:327,2,66,4|0|0,3:0|0:0|0:0,0:0:0:0:
261,271,71267,1,0,0:0:0:0:
188,292,71467,2,0,L|182:204,1,66,8|0,0:0|0:0,0:0:0:0:
118,186,71867,2,0,L|112:98,1,66,0|0,0:0|3:0,0:0:0:0:
148,52,72267,5,0,0:0:0:0:
148,52,72467,1,0,0:0:0:0:
219,77,72667,1,4,3:0:0:0:
294,65,72867,2,0,P|329:75|378:74,2,66,0|8|0,0:0|0:0|0:0,0:0:0:0:
219,77,73467,1,0,0:0:0:0:
136,204,73867,5,4,3:0:0:0:
175,273,74067,2,0,L|170:353,1,66,0|0,0:0|0:0,0:0:0:0:
244,357,74467,2,0,L|248:291,1,66,0|8,0:0|0:0,0:0:0:0:
316,258,74867,1,0,0:0:0:0:
316,258,75067,1,0,0:0:0:0:
374,209,75267,2,0,P|360:166|361:125,1,66,4|0,3:0|0:0,0:0:0:0:
404,84,75667,5,0,0:0:0:0:
328,75,75867,2,0,L|235:68,1,66,4|0,3:0|0:0,0:0:0:0:
199,112,76267,2,0,L|106:105,1,66,8|0,0:0|0:0,0:0:0:0:
80,52,76667,1,2,0:0:0:0:
31,110,76867,1,4,3:0:0:0:
31,110,76967,1,4,3:0:0:0:
31,110,77067,6,0,P|44:162|37:198,1,66,4|0,3:0|0:0,0:0:0:0:
20,246,77467,1,0,0:0:0:0:
20,246,77667,1,0,0:0:0:0:
52,314,77867,2,0,L|42:399,2,66,8|0|0,0:0|0:0|0:0,0:0:0:0:
120,280,78467,1,4,3:0:0:0:
184,320,78667,6,0,P|228:329|275:328,1,66,0|0,0:0|0:0,0:0:0:0:
319,302,79067,1,4,3:0:0:0:
389,330,79267,1,0,0:0:0:0:
389,330,79467,2,0,L|395:233,2,66,8|0|0,0:0|0:0|0:0,0:0:0:0:
319,302,80067,1,4,3:0:0:0:
260,253,80267,6,0,L|266:156,1,66,4|0,3:0|0:0,0:0:0:0:
213,129,80667,2,0,L|219:32,1,66,2|0,0:0|0:0,0:0:0:0:
283,25,81067,2,0,P|319:42|375:42,1,66,8|0,0:0|0:0,0:0:0:0:
420,36,81467,1,0,0:0:0:0:
420,36,81667,1,4,3:0:0:0:
393,107,81867,6,0,L|393:198,1,66,0|0,0:0|0:0,0:0:0:0:
432,237,82267,1,4,3:0:0:0:
410,309,82467,1,0,0:0:0:0:
340,284,82667,2,0,B|264:264|288:308|200:280,1,132,8|0,0:0|0:0,0:0:0:0:
168,220,83267,1,0,3:0:0:0:
168,220,83367,1,0,3:0:0:0:
168,220,83467,6,0,L|168:76,1,132,4|0,3:0|0:0,0:0:0:0:
40,8,84267,2,0,L|40:140,1,132,4|0,3:0|0:0,0:0:0:0:
72,208,84867,1,0,0:0:0:0:
33,273,85067,6,0,P|60:316|141:332,1,132,4|4,3:0|3:0,0:0:0:0:
206,306,85667,1,0,0:0:0:0:
276,335,85867,2,0,L|356:338,1,66,8|0,0:0|0:0,0:0:0:0:
455,236,86467,1,4,3:0:0:0:
379,233,86667,6,0,L|313:230,1,66,4|0,3:0|0:0,0:0:0:0:
249,189,87067,2,0,L|183:186,1,66,2|0,0:0|0:0,0:0:0:0:
120,142,87467,2,0,P|111:101|118:58,2,66,8|0|0,0:0|0:0|0:0,0:0:0:0:
376,47,89867,6,0,P|400:92|364:196,1,145.200004431152,4|0,1:1|0:0,0:0:0:0:
307,221,90467,1,2,0:0:0:0:
307,221,90667,2,0,L|311:307,1,72.6000022155762,8|0,0:0|0:0,0:0:0:0:
236,332,91067,2,0,L|232:259,1,72.6000022155762,0|4,0:0|3:0,0:0:0:0:
193,185,91467,6,0,B|146:197|146:197|41:174,1,145.200004431152,4|4,1:1|3:0,0:0:0:0:
48,92,92067,1,2,0:0:0:0:
48,92,92267,2,0,L|140:113,1,72.6000022155762,8|0,0:0|0:0,0:0:0:0:
186,59,92667,1,0,0:0:0:0:
267,77,92867,1,4,3:0:0:0:
337,33,93067,6,0,P|349:78|337:123,1,72.6000022155762,4|0,3:0|0:0,0:0:0:0:
282,157,93467,2,0,B|290:205|290:205|261:320,1,145.200004431152,2|8,0:0|0:0,0:0:0:0:
349,300,94067,1,0,0:0:0:0:
421,341,94267,2,0,L|505:330,2,72.6000022155762,2|4|0,0:0|3:0|0:0,0:0:0:0:
349,300,94867,5,0,0:0:0:0:
271,329,95067,1,4,3:0:0:0:
271,329,95267,1,0,0:0:0:0:
201,283,95467,2,0,P|146:259|44:297,1,145.200004431152,8|2,0:0|0:0,0:0:0:0:
64,194,96067,1,4,3:0:0:0:
64,194,96167,1,4,3:0:0:0:
64,194,96267,6,0,B|86:154|86:154|79:43,1,145.200004431152,4|0,1:1|0:0,0:0:0:0:
161,72,96867,1,2,0:0:0:0:
234,32,97067,2,0,P|276:23|319:31,2,72.6000022155762,8|0|0,0:0|0:0|0:0,0:0:0:0:
161,72,97667,1,4,3:0:0:0:
225,124,97867,6,0,P|260:165|240:274,1,145.200004431152,4|4,1:1|3:0,0:0:0:0:
181,290,98467,1,2,0:0:0:0:
126,353,98667,2,0,L|20:359,1,72.6000022155762,8|0,0:0|0:0,0:0:0:0:
16,282,99067,2,0,L|88:277,1,72.6000022155762,0|4,0:0|3:0,0:0:0:0:
130,205,99467,5,4,3:0:0:0:
130,205,99667,1,0,0:0:0:0:
100,126,99867,1,2,0:0:0:0:
100,126,100067,1,0,0:0:0:0:
181,142,100267,2,0,L|269:138,1,72.6000022155762,8|0,0:0|0:0,0:0:0:0:
331,107,100667,1,2,0:0:0:0:
301,28,100867,1,4,3:0:0:0:
217,23,101067,6,0,B|171:45|171:45|50:49,1,145.200004431152,4|4,1:1|3:0,0:0:0:0:
105,126,101667,1,2,0:0:0:0:
105,126,101867,2,0,P|128:181|124:215,1,72.6000022155762,8|0,0:0|0:0,0:0:0:0:
84,264,102267,1,2,0:0:0:0:
97,346,102467,1,4,3:0:0:0:
136,331,102567,1,4,3:0:0:0:
173,313,102667,6,0,P|234:289|340:302,1,145.200004431152,4|0,1:1|0:0,0:0:0:0:
388,327,103267,1,2,0:0:0:0:
448,269,103467,2,0,L|461:168,2,72.6000022155762,8|0|0,0:0|0:0|0:0,0:0:0:0:
388,327,104067,1,4,3:0:0:0:
312,292,104267,6,0,B|337:249|337:249|356:122,1,145.200004431152,4|4,1:1|3:0,0:0:0:0:
404,90,104867,1,2,0:0:0:0:
330,49,105067,2,0,P|300:58|240:47,1,72.6000022155762,8|0,0:0|0:0,0:0:0:0:
180,28,105467,2,0,P|144:24|109:34,1,72.6000022155762,0|4,0:0|3:0,0:0:0:0:
50,93,105867,5,4,3:0:0:0:
87,167,106067,1,0,0:0:0:0:
63,247,106267,2,0,L|214:251,1,145.200004431152,2|8,0:0|0:0,0:0:0:0:
272,303,106867,1,0,0:0:0:0:
272,303,107067,2,0,L|365:306,1,72.6000022155762,2|4,0:0|3:0,0:0:0:0:
409,252,107467,6,0,P|385:202|386:156,1,72.6000022155762,0|0,0:0|0:0,0:0:0:0:
416,109,107867,1,4,3:0:0:0:
383,31,108067,1,0,0:0:0:0:
383,31,108267,2,0,P|293:67|216:54,1,145.200004431152,8|2,0:0|0:0,0:0:0:0:
168,35,108867,1,4,3:0:0:0:
156,75,108967,1,4,3:0:0:0:
138,112,109067,6,0,B|126:149|126:149|140:289,1,145.200004431152,4|0,1:1|0:0,0:0:0:0:
218,271,109667,1,2,0:0:0:0:
218,271,109867,2,0,L|207:168,2,72.6000022155762,8|0|0,0:0|0:0|0:0,0:0:0:0:
300,282,110467,1,4,3:0:0:0:
361,226,110667,6,0,P|406:180|493:199,1,145.200004431152,4|4,1:1|3:0,0:0:0:0:
437,260,111267,1,2,0:0:0:0:
433,343,111467,2,0,L|344:347,1,72.6000022155762,8|0,0:0|0:0,0:0:0:0:
282,377,111867,2,0,L|193:381,1,72.6000022155762,0|4,0:0|3:0,0:0:0:0:
256,192,112267,12,0,115067,0:0:0:0:
56,117,115467,6,0,L|140:114,1,66,4|0,0:0|0:0,0:0:0:0:
163,51,115867,2,0,L|228:53,1,66,2|0,0:0|0:0,0:0:0:0:
283,106,116267,2,0,P|297:155|272:244,1,132,8|0,0:0|0:0,0:0:0:0:
226,286,116867,1,4,3:0:0:0:
288,329,117067,6,0,L|365:325,1,66,0|0,0:0|0:0,0:0:0:0:
413,278,117467,2,0,P|419:239|412:201,1,66,4|0,3:0|0:0,0:0:0:0:
356,165,117867,2,0,L|209:157,1,132,8|2,0:0|0:0,0:0:0:0:
165,109,118467,1,4,3:0:0:0:
165,109,118667,6,0,L|156:32,1,66,4|0,3:0|0:0,0:0:0:0:
83,24,119067,2,0,L|75:89,1,66,2|0,0:0|0:0,0:0:0:0:
104,159,119467,2,0,L|246:148,1,132,8|2,0:0|0:0,0:0:0:0:
300,109,120067,1,4,3:0:0:0:
349,166,120267,6,0,P|359:205|353:235,1,66,0|0,0:0|0:0,0:0:0:0:
282,251,120667,2,0,P|272:290|278:320,1,66,4|0,3:0|0:0,0:0:0:0:
337,360,121067,1,8,0:0:0:0:
185,354,121467,1,2,0:0:0:0:
126,305,121667,1,4,3:0:0:0:
126,305,121767,1,4,3:0:0:0:
126,305,121867,6,0,L|111:154,1,132,4|2,3:0|0:0,0:0:0:0:
150,106,122467,1,0,0:0:0:0:
150,106,122667,2,0,B|171:120|171:120|228:110,1,66,8|0,0:0|0:0,0:0:0:0:
264,59,123067,2,0,B|304:51|304:51|325:65,1,66,2|4,0:0|3:0,0:0:0:0:
383,114,123467,6,0,P|404:178|386:249,1,132,0|4,0:0|3:0,0:0:0:0:
347,302,124067,1,0,0:0:0:0:
347,302,124267,2,0,P|389:318|478:303,1,132,8|2,0:0|0:0,0:0:0:0:
351,214,125067,6,0,P|287:199|224:217,1,132,4|2,3:0|0:0,0:0:0:0:
159,256,125667,1,0,0:0:0:0:
159,256,125867,2,0,L|72:254,1,66,8|0,0:0|0:0,0:0:0:0:
37,202,126267,2,0,P|49:167|47:117,1,66,2|4,0:0|3:0,0:0:0:0:
45,62,126667,2,0,B|108:44|114:88|185:74,1,132,0|4,0:0|3:0,0:0:0:0:
319,33,127467,2,0,P|383:75|305:86,1,198,8|4,0:0|3:0,0:0:0:0:
268,90,128167,1,4,3:0:0:0:
268,90,128267,5,4,3:0:0:0:
