osu file format v14

[General]
AudioFilename: audio.mp3
AudioLeadIn: 0
PreviewTime: 54710
Countdown: 1
SampleSet: Normal
StackLeniency: 0.7
Mode: 0
LetterboxInBreaks: 0
WidescreenStoryboard: 1

[Editor]
DistanceSpacing: 0.5
BeatDivisor: 4
GridSize: 16
TimelineZoom: 1

[Metadata]
Title:Hej Monika (Remix by Party In Backyard)
TitleUnicode:Hej Monika (Remix by Party In Backyard)
Artist:PewDiePie
ArtistUnicode:PewDiePie
Creator:X4D
Version:Normal
Source:
Tags:pewdiepie hej monika remix partyinbackyard
BeatmapID:1525986
BeatmapSetID:722365

[Difficulty]
HPDrainRate:5
CircleSize:3.7
OverallDifficulty:5
ApproachRate:6.7
SliderMultiplier:1.4
SliderTickRate:1

[Events]
//Background and Video events
0,0,"maxresdefault.jpg",0,0
//Break Periods
2,41669,47145
//Storyboard Layer 0 (Background)
//Storyboard Layer 1 (Fail)
//Storyboard Layer 2 (Pass)
//Storyboard Layer 3 (Foreground)
//Storyboard Sound Samples

[TimingPoints]
90,413.793103448276,4,1,0,100,1,0
14986,-133.333333333333,4,1,0,72,0,0
28227,-111.111111111111,4,1,0,100,0,0
31331,-66.6666666666667,4,1,0,20,0,0
31538,-111.111111111111,4,1,0,100,0,0
34641,-66.6666666666667,4,1,0,20,0,0
34848,-111.111111111111,4,1,0,100,0,0
37952,-66.6666666666667,4,1,0,20,0,0
38158,-111.111111111111,4,1,0,100,0,0
41469,-100,4,1,0,100,0,0
54710,-83.3333333333333,4,1,0,100,0,1
64641,-133.333333333333,4,1,0,100,0,1
66090,-83.3333333333333,4,1,0,100,0,1
67952,-133.333333333333,4,1,0,42,0,0
68779,-133.333333333333,4,1,0,25,0,0
69607,-133.333333333333,4,1,0,13,0,0
70434,-133.333333333333,4,1,0,6,0,0
71262,-133.333333333333,4,1,0,32,0,0

[HitObjects]
256,192,90,12,0,1331,0:0:0:0:
192,112,1745,6,0,L|176:256,1,140
288,208,2572,2,0,L|368:213,2,70
256,240,3193,6,0,P|208:272|128:224,2,140
240,208,4227,2,0,L|246:128,1,70
288,128,4641,2,0,L|294:48,1,70
256,64,5055,6,0,P|224:96|144:64,1,140
80,176,5883,2,0,L|64:256,2,70
112,160,6503,2,0,P|176:192|256:160,1,140
272,192,7124,2,0,L|288:288,1,70
320,272,7538,2,0,P|368:288|416:224,1,140
384,208,8158,1,0,0:0:0:0:
384,208,8365,6,0,P|320:192|272:240,1,140
176,288,9193,2,0,L|192:208,2,70
144,304,9814,2,0,P|176:256|128:192,2,140
112,272,10848,2,0,L|192:288,1,70
208,256,11262,2,0,L|288:240,1,70
304,272,11676,5,0,0:0:0:0:
304,272,12090,2,0,L|288:192,1,70
256,176,12503,2,0,P|208:144|144:192,1,140
64,224,13124,6,0,L|48:304,1,70
80,320,13538,2,0,P|128:288|208:320,1,140
240,288,14158,2,0,L|320:272,1,70
336,304,14572,2,0,L|416:320,1,70
432,288,14986,5,0,0:0:0:0:
464,144,15400,2,0,L|400:176,1,52.5000020027161
384,160,15814,1,0,0:0:0:0:
384,160,16021,2,0,P|336:128|288:160,1,105.000004005432
304,176,16641,5,0,0:0:0:0:
304,176,16848,2,0,B|320:224|320:224|304:288,1,105.000004005432
272,256,17469,2,0,L|208:272,3,52.5000020027161
176,256,18296,6,0,L|160:192,1,52.5000020027161
192,160,18710,2,0,L|256:144,1,52.5000020027161
288,176,19124,1,0,0:0:0:0:
288,176,19331,2,0,L|304:240,1,52.5000020027161
336,240,19745,6,0,P|384:256|432:224,2,105.000004005432
304,256,20779,2,0,L|240:240,1,52.5000020027161
208,272,21193,2,0,L|144:288,1,52.5000020027161
112,256,21607,6,0,L|96:192,1,52.5000020027161
128,160,22021,2,0,L|112:96,1,52.5000020027161
144,80,22434,2,0,P|176:128|144:176,1,105.000004005432
128,144,23055,1,0,0:0:0:0:
128,144,23262,2,0,L|192:128,2,52.5000020027161
112,176,23883,2,0,P|96:224|128:288,2,105.000004005432
144,192,24917,6,0,L|208:208,1,52.5000020027161
208,240,25331,2,0,L|272:256,1,52.5000020027161
288,224,25745,2,0,P|336:192|384:224,1,105.000004005432
352,240,26365,1,0,0:0:0:0:
352,240,26572,2,0,L|288:256,1,52.5000020027161
272,224,26986,2,0,L|208:208,1,52.5000020027161
160,144,27400,2,0,L|176:80,1,52.5000020027161
272,64,27814,2,0,L|256:128,1,52.5000020027161
160,144,28227,6,0,P|128:128|64:176,1,125.999996154785
96,192,28848,1,0,0:0:0:0:
96,192,29055,2,0,L|112:256,1,62.9999980773926
208,272,29469,2,0,L|192:208,1,62.9999980773926
224,176,29883,2,0,L|288:160,2,62.9999980773926
208,208,30503,2,0,B|240:224|240:224|336:208,1,125.999996154785
352,176,31124,1,0,0:0:0:0:
352,176,31331,1,0,0:0:0:0:
352,176,31538,6,0,P|368:224|304:272,1,125.999996154785
288,240,32158,1,0,0:0:0:0:
288,240,32365,2,0,L|224:256,2,62.9999980773926
320,224,32986,2,0,P|336:176|288:128,2,125.999996154785
288,208,34021,2,0,L|224:192,1,62.9999980773926
160,256,34434,2,0,L|224:272,1,62.9999980773926
256,240,34848,6,0,P|288:208|272:128,1,125.999996154785
240,144,35469,1,0,0:0:0:0:
240,144,35676,2,0,L|368:160,1,125.999996154785
384,192,36296,1,0,0:0:0:0:
384,192,36503,2,0,L|400:256,2,62.9999980773926
336,176,37124,2,0,L|320:112,2,62.9999980773926
320,208,37745,2,0,L|256:224,1,62.9999980773926
256,192,38158,12,0,41469,0:0:0:0:
256,192,48090,12,0,54296,0:0:0:0:
304,288,54710,6,0,L|323:116,1,167.999994873047
189,173,55537,2,0,L|93:167,2,83.9999974365235
256,112,56158,6,0,P|313:73|408:131,2,167.999994873047
304,176,57192,2,0,L|296:271,1,83.9999974365235
208,224,57606,2,0,L|200:319,1,83.9999974365235
224,336,58020,6,0,P|262:297|357:336,1,167.999994873047
437,211,58848,2,0,L|456:115,2,83.9999974365235
368,256,59468,2,0,P|291:217|196:256,1,167.999994873047
144,208,60089,2,0,L|124:93,1,83.9999974365235
172,59,60503,2,0,P|114:39|57:116,1,167.999994873047
128,160,61123,1,0,0:0:0:0:
128,160,61330,6,0,P|204:179|256:112,1,167.999994873047
368,64,62158,2,0,L|348:159,2,83.9999974365235
432,32,62779,2,0,P|393:89|451:165,2,167.999994873047
464,96,63813,2,0,L|368:76,1,83.9999974365235
320,144,64227,2,0,L|224:163,1,83.9999974365235
170,97,64641,5,0,0:0:0:0:
170,97,65055,2,0,L|186:161,4,52.5000020027161
192,80,66089,6,0,L|256:112,1,52.5000020027161
304,160,66503,2,0,P|246:198|151:160,1,167.999994873047
80,192,67123,2,0,L|48:272,1,83.9999974365235
112,336,67537,2,0,L|144:256,1,83.9999974365235
256,192,67952,12,0,71262,0:0:0:0:
