osu file format v14

[General]
AudioFilename: audio.mp3
AudioLeadIn: 0
PreviewTime: 38376
Countdown: 0
SampleSet: Normal
StackLeniency: 0.2
Mode: 0
LetterboxInBreaks: 0
WidescreenStoryboard: 1

[Editor]
DistanceSpacing: 1
BeatDivisor: 4
GridSize: 4
TimelineZoom: 1.3

[Metadata]
Title:Bitch Lasagna
TitleUnicode:Bitch Lasagna
Artist:PewDiePie & Party In Backyard
ArtistUnicode:PewDiePie & Party In Backyard
Creator:Incomp
Version:bobs or vagene
Source:
Tags:pewds 2018 rap t-series india hip hop pop youtube fakemarzia marzia single hip-hop diss track yt
BeatmapID:1801110
BeatmapSetID:860862

[Difficulty]
HPDrainRate:6
CircleSize:3.5
OverallDifficulty:8
ApproachRate:9
SliderMultiplier:1.76
SliderTickRate:1

[Events]
//Background and Video events
0,0,"bg.jpg",0,0
//Break Periods
//Storyboard Layer 0 (Background)
//Storyboard Layer 1 (Fail)
//Storyboard Layer 2 (Pass)
//Storyboard Layer 3 (Foreground)
//Storyboard Sound Samples

[TimingPoints]
176,400,4,2,1,35,1,0
176,-200,4,2,1,35,0,0
12976,-100,4,1,1,60,0,0
14476,-100,4,1,1,5,0,0
14576,-100,4,1,1,60,0,0
15626,-100,4,2,1,60,0,0
15776,-100,4,2,1,60,0,0
15826,-100,4,1,1,60,0,0
15976,-100,4,1,1,60,0,0
16026,-100,4,2,1,60,0,0
16176,-100,4,1,1,60,0,0
17676,-100,4,1,1,5,0,0
17776,-100,4,1,1,60,0,0
19076,-100,4,1,1,5,0,0
19176,-100,4,1,1,60,0,0
20876,-100,4,1,1,5,0,0
20976,-100,4,1,1,60,0,0
21826,-100,4,2,1,60,0,0
21976,-100,4,1,1,60,0,0
22026,-100,4,2,1,60,0,0
22176,-100,4,1,1,60,0,0
22226,-100,4,2,1,60,0,0
22376,-100,4,1,1,60,0,0
22426,-100,4,2,1,60,0,0
22576,-100,4,1,1,60,0,0
22676,-100,4,1,1,5,0,0
22776,-100,4,1,1,60,0,0
22876,-100,4,1,1,5,0,0
22976,-100,4,1,1,60,0,0
25476,-100,4,1,1,5,0,0
25576,-100,4,1,1,60,0,0
28226,-100,4,2,1,60,0,0
28376,-100,4,1,1,60,0,0
28426,-100,4,2,1,60,0,0
28576,-100,4,1,1,60,0,0
28626,-100,4,2,1,60,0,0
28776,-100,4,1,1,60,0,0
28826,-100,4,2,1,60,0,0
28976,-100,4,1,1,60,0,0
30476,-100,4,1,1,5,0,0
30576,-100,4,1,1,60,0,0
31876,-100,4,1,1,5,0,0
31976,-100,4,1,1,60,0,0
34626,-100,4,2,1,60,0,0
34776,-100,4,1,1,60,0,0
34826,-100,4,2,1,60,0,0
34976,-100,4,1,1,60,0,0
35026,-100,4,2,1,60,0,0
35176,-100,4,1,1,60,0,0
35226,-100,4,2,1,60,0,0
35376,-100,4,1,1,60,0,0
36976,-200,4,1,1,60,0,0
37976,-200,4,1,1,5,0,0
38176,-200,4,1,1,60,0,0
38376,-200,4,1,1,5,0,0
38576,-83.3333333333333,4,1,1,60,0,1
44576,-83.3333333333333,4,1,1,60,0,0
44676,-83.3333333333333,4,1,1,5,0,0
44776,-83.3333333333333,4,1,1,60,0,0
44976,-83.3333333333333,4,1,1,60,0,1
50976,-83.3333333333333,4,1,1,60,0,0
51076,-83.3333333333333,4,1,1,5,0,0
51176,-83.3333333333333,4,1,1,60,0,0
51376,-83.3333333333333,4,1,1,60,0,1
57376,-83.3333333333333,4,1,1,60,0,0
57476,-83.3333333333333,4,1,1,5,0,0
57576,-83.3333333333333,4,1,1,60,0,0
57776,-83.3333333333333,4,1,1,60,0,1
63876,-83.3333333333333,4,1,1,5,0,1
63976,-83.3333333333333,4,1,1,60,0,1
64176,-142.857142857143,4,1,1,60,0,0
64976,-100,4,1,1,60,0,0
66976,-66.6666666666667,4,1,1,60,0,0
67176,-66.6666666666667,4,1,1,5,0,0
67376,-100,4,1,1,60,0,0
70176,-58.8235294117647,4,1,1,60,0,0
70376,-100,4,1,1,5,0,0
70576,-100,4,1,1,60,0,0
73426,-100,4,2,1,60,0,0
73576,-100,4,1,1,60,0,0
73626,-100,4,2,1,60,0,0
73776,-100,4,1,1,60,0,0
76676,-100,4,1,1,5,0,0
76776,-100,4,1,1,60,0,0
79826,-100,4,2,1,60,0,0
79976,-100,4,1,1,60,0,0
80026,-100,4,2,1,60,0,0
80176,-100,4,1,1,60,0,0
83476,-100,4,1,1,5,0,0
83576,-100,4,1,1,60,0,0
84276,-100,4,1,1,5,0,0
84376,-100,4,1,1,60,0,0
85076,-100,4,1,1,5,0,0
85176,-100,4,1,1,60,0,0
86226,-100,4,2,1,60,0,0
86376,-100,4,1,1,60,0,0
86426,-100,4,2,1,60,0,0
86576,-100,4,1,1,60,0,0
89776,-74.0740740740741,4,1,1,60,0,1
95776,-74.0740740740741,4,1,1,60,0,0
96176,-74.0740740740741,4,1,1,60,0,1
102176,-74.0740740740741,4,1,1,60,0,0
102576,-74.0740740740741,4,1,1,60,0,1
108576,-74.0740740740741,4,1,1,60,0,0
108976,-74.0740740740741,4,1,1,60,0,1
112176,-142.857142857143,4,1,1,60,0,0
114976,-142.857142857143,4,1,1,60,0,0
115376,-100,4,1,1,60,0,1
118226,-100,4,2,1,60,0,1
118376,-100,4,1,1,60,0,1
118426,-100,4,2,1,60,0,1
118576,-100,4,1,1,60,0,1
121376,-100,4,1,1,60,0,0
121776,-100,4,1,1,60,0,1
124626,-100,4,2,1,60,0,1
124776,-100,4,1,1,60,0,1
124826,-100,4,2,1,60,0,1
124976,-100,4,1,1,60,0,1
128176,-100,4,1,1,60,0,0

[Colours]
Combo1 : 104,46,13
Combo2 : 205,121,2
Combo3 : 165,85,2

[HitObjects]
256,192,176,6,0,P|289:221|338:229,3,88,2|0|0|0,0:0|0:0|0:0|0:0,0:0:0:0:
327,141,1576,1,2,0:0:0:0:
177,155,1776,6,0,P|135:169|103:207,1,88
114,294,2576,2,0,P|147:323|196:331,1,88
335,229,3376,6,0,B|363:220|363:220|388:162,3,88,2|0|0|0,0:0|0:0|0:0|0:0,0:0:0:0:
378,78,4776,1,2,0:0:0:0:
256,192,4976,6,0,P|211:184|178:157,3,88
256,192,6576,6,0,P|301:200|334:227,3,88,2|0|0|0,0:0|0:0|0:0|0:0,0:0:0:0:
264,280,7976,1,2,0:0:0:0:
248,104,8176,6,0,L|240:17,1,88
177,155,8976,2,0,L|184:241,1,88,2|0,0:0|0:0,0:0:0:0:
343,317,9776,6,0,P|390:299|416:263,3,88,2|0|0|0,0:0|0:0|0:0|0:0,0:0:0:0:
406,178,11176,1,2,0:0:0:0:
264,280,11376,6,0,P|220:273|185:245,3,88
256,192,12976,6,0,P|264:148|251:108,1,88,6|0,0:0|0:0,0:0:0:0:
98,118,13376,1,0,0:0:0:0:
185,243,13576,1,0,0:0:0:0:
248,104,13776,2,0,P|275:70|320:54,1,88,8|0,0:0|0:0,0:0:0:0:
335,229,14176,1,0,0:0:0:0:
299,254,14276,1,0,0:0:0:0:
264,280,14376,2,0,L|228:305,1,44,2|0,0:0|0:0,0:0:0:0:
177,155,14576,5,0,0:0:0:0:
327,141,14776,1,0,0:0:0:0:
185,243,14976,5,2,0:0:0:0:
248,104,15176,1,0,0:0:0:0:
106,206,15376,5,8,0:0:0:0:
106,206,15576,2,0,L|84:208,2,22
264,280,15776,2,0,L|276:297,3,22
299,254,15976,2,0,L|286:236,3,22,2|0|0|0,0:0|0:0|0:0|0:0,0:0:0:0:
335,229,16176,6,0,P|343:185|330:145,1,88,2|0,0:0|0:0,0:0:0:0:
185,243,16576,2,0,L|113:294,1,88
113,294,16976,5,8,0:0:0:0:
26,169,17176,1,0,0:0:0:0:
185,243,17376,1,0,0:0:0:0:
224,261,17476,1,0,0:0:0:0:
264,280,17576,2,0,L|303:297,1,44,2|0,0:0|0:0,0:0:0:0:
248,104,17776,5,0,0:0:0:0:
193,331,17976,1,0,0:0:0:0:
327,141,18176,5,2,0:0:0:0:
114,294,18376,1,0,0:0:0:0:
335,229,18576,5,8,0:0:0:0:
375,214,18676,1,0,0:0:0:0:
404,181,18776,1,0,0:0:0:0:
414,139,18876,1,0,0:0:0:0:
403,97,18976,2,0,L|366:120,1,44
256,192,19176,5,2,0:0:0:0:
177,155,19276,1,2,0:0:0:0:
169,67,19376,1,2,0:0:0:0:
240,16,19576,5,0,0:0:0:0:
106,206,19776,1,0,0:0:0:0:
169,67,19976,1,0,0:0:0:0:
185,243,20176,5,8,0:0:0:0:
98,118,20376,1,0,0:0:0:0:
248,104,20576,1,0,0:0:0:0:
287,122,20676,1,0,0:0:0:0:
327,141,20776,2,0,L|366:158,1,44,2|0,0:0|0:0,0:0:0:0:
343,317,20976,5,0,0:0:0:0:
335,229,21176,1,0,0:0:0:0:
422,354,21376,5,2,0:0:0:0:
406,178,21576,1,0,0:0:0:0:
264,280,21776,6,0,L|245:293,2,22,8|0|0,0:0|0:0|0:0,0:0:0:0:
343,317,21976,2,0,L|345:340,2,22
326,133,22176,2,0,L|323:109,7,22,0|0|0|0|2|0|0|0,0:0|0:0|0:0|0:0|0:0|0:0|0:0|0:0,0:0:0:0:
327,141,22576,6,0,P|317:159|296:176,1,44,2|0,0:0|0:0,0:0:0:0:
177,155,22776,2,0,P|166:137|162:110,1,44
319,53,22976,2,0,P|361:59|398:90,2,88,0|0|8,0:0|0:0|0:0,0:0:0:0:
319,53,23776,5,0,0:0:0:0:
335,229,23976,1,2,0:0:0:0:
177,155,24176,5,0,0:0:0:0:
327,141,24376,1,0,0:0:0:0:
264,280,24576,5,2,0:0:0:0:
248,104,24776,1,0,0:0:0:0:
406,178,24976,1,8,0:0:0:0:
421,218,25076,1,0,0:0:0:0:
415,261,25176,1,0,0:0:0:0:
389,296,25276,1,0,0:0:0:0:
350,314,25376,2,0,P|326:316|303:310,1,44
335,229,25576,2,0,P|359:227|382:233,1,44,2|2,0:0|0:0,0:0:0:0:
193,331,25776,5,2,0:0:0:0:
185,243,25976,1,0,0:0:0:0:
264,280,26176,1,0,0:0:0:0:
114,294,26376,1,0,0:0:0:0:
256,192,26576,5,8,0:0:0:0:
272,368,26776,1,0,0:0:0:0:
185,243,26976,1,0,0:0:0:0:
343,317,27176,1,2,0:0:0:0:
114,294,27376,5,2,0:0:0:0:
327,141,27576,1,0,0:0:0:0:
193,331,27776,1,2,0:0:0:0:
319,53,27976,1,0,0:0:0:0:
272,368,28176,6,0,L|245:355,2,22,8|0|0,0:0|0:0|0:0,0:0:0:0:
343,317,28376,2,0,L|370:329,2,22
252,188,28576,2,0,L|225:175,7,22,0|0|0|0|2|0|0|0,0:0|0:0|0:0|0:0|0:0|0:0|0:0|0:0,0:0:0:0:
256,192,28976,5,2,0:0:0:0:
327,141,29176,1,0,0:0:0:0:
264,280,29376,1,0,0:0:0:0:
248,104,29576,1,2,0:0:0:0:
343,317,29776,2,0,P|382:348|426:353,1,88,8|0,0:0|0:0,0:0:0:0:
335,229,30176,1,0,0:0:0:0:
296,211,30276,1,0,0:0:0:0:
256,192,30376,2,0,L|215:173,1,44,2|0,0:0|0:0,0:0:0:0:
94,114,30576,5,2,0:0:0:0:
98,118,30776,1,0,0:0:0:0:
319,53,30976,5,8,0:0:0:0:
114,294,31176,1,8,0:0:0:0:
256,192,31376,5,8,0:0:0:0:
298,198,31476,1,0,0:0:0:0:
333,225,31576,1,0,0:0:0:0:
350,265,31676,1,0,0:0:0:0:
345,308,31776,2,0,L|304:291,1,44
185,243,31976,5,2,0:0:0:0:
177,155,32076,1,2,0:0:0:0:
248,104,32176,2,0,B|276:88|276:88|333:101,1,88,2|0,0:0|0:0,0:0:0:0:
185,243,32576,5,0,0:0:0:0:
169,67,32776,1,0,0:0:0:0:
256,192,32976,2,0,P|272:232|265:278,1,88,8|0,0:0|0:0,0:0:0:0:
194,326,33376,2,0,P|178:286|185:240,1,88,0|2,0:0|0:0,0:0:0:0:
327,141,33776,6,0,L|413:132,1,88
493,169,34176,1,2,0:0:0:0:
485,81,34376,1,0,0:0:0:0:
335,229,34576,6,0,L|309:217,2,22,8|0|0,0:0|0:0|0:0,0:0:0:0:
343,317,34776,2,0,L|368:328,2,22
187,328,34976,2,0,L|161:316,7,22,0|0|0|0|2|0|0|0,0:0|0:0|0:0|0:0|0:0|0:0|0:0|0:0,0:0:0:0:
193,331,35376,6,0,P|177:286|185:243,1,88,2|0,0:0|0:0,0:0:0:0:
254,196,35776,2,0,P|270:241|262:284,1,88
176,154,36176,2,0,B|200:125|200:125|250:111,1,88,8|0,0:0|0:0,0:0:0:0:
394,86,36576,5,0,0:0:0:0:
398,90,36776,1,0,0:0:0:0:
335,229,36976,5,0,0:0:0:0:
256,192,37176,1,0,0:0:0:0:
327,141,37376,1,0,0:0:0:0:
264,280,37576,1,0,0:0:0:0:
248,104,37776,2,0,P|259:83|280:66,1,44
327,141,38176,2,0,P|316:162|295:179,1,44
106,206,38576,6,0,P|59:225|29:274,2,105.599996777344,6|0|0,0:0|0:0|0:0,0:0:0:0:
114,293,39176,1,0,0:0:0:0:
247,104,39376,2,0,P|254:52|223:0,1,105.599996777344,8|0,0:0|0:0,0:0:0:0:
256,191,39776,2,0,P|296:222|358:222,1,105.599996777344,0|2,0:0|0:0,0:0:0:0:
168,67,40176,6,0,P|128:36|66:36,2,105.599996777344,0|0|2,0:0|0:0|0:0,0:0:0:0:
97,117,40776,1,0,0:0:0:0:
319,54,40976,2,0,P|371:66|406:105,1,105.599996777344,8|0,0:0|0:0,0:0:0:0:
184,241,41376,2,0,P|132:229|97:190,1,105.599996777344,0|2,0:0|0:0,0:0:0:0:
327,141,41776,5,2,0:0:0:0:
176,154,41976,1,0,0:0:0:0:
319,54,42176,1,0,0:0:0:0:
255,191,42376,1,0,0:0:0:0:
168,67,42576,5,8,0:0:0:0:
184,241,42776,1,0,0:0:0:0:
239,17,42976,1,0,0:0:0:0:
105,204,43176,1,2,0:0:0:0:
327,141,43376,6,0,P|358:138|322:144,1,211.199993554688,0|2,0:0|0:0,0:0:0:0:
327,141,43976,1,0,0:0:0:0:
185,241,44176,1,8,0:0:0:0:
134,229,44276,1,0,0:0:0:0:
98,191,44376,1,0,0:0:0:0:
91,140,44476,1,0,0:0:0:0:
114,93,44576,2,0,L|158:123,1,52.7999983886719
256,191,44776,5,2,0:0:0:0:
264,278,44876,1,2,0:0:0:0:
193,328,44976,2,0,P|139:317|106:277,2,105.599996777344,6|0|0,0:0|0:0|0:0,0:0:0:0:
272,365,45576,1,0,0:0:0:0:
177,154,45776,2,0,P|159:101|177:53,1,105.599996777344,8|0,0:0|0:0,0:0:0:0:
335,228,46176,2,0,P|352:280|334:328,1,105.599996777344,0|2,0:0|0:0,0:0:0:0:
106,204,46576,6,0,P|61:222|29:270,2,105.599996777344,0|0|2,0:0|0:0|0:0,0:0:0:0:
114,291,47176,1,0,0:0:0:0:
248,104,47376,2,0,P|254:48|231:6,1,105.599996777344,8|0,0:0|0:0,0:0:0:0:
264,278,47776,2,0,P|258:334|281:376,1,105.599996777344,0|2,0:0|0:0,0:0:0:0:
398,91,48176,5,2,0:0:0:0:
343,315,48376,1,0,0:0:0:0:
248,104,48576,2,0,P|202:70|154:69,1,105.599996777344
185,241,48976,1,8,0:0:0:0:
335,228,49176,1,0,0:0:0:0:
177,154,49376,1,0,0:0:0:0:
343,315,49576,1,2,0:0:0:0:
106,204,49776,6,0,P|90:152|108:101,1,105.599996777344
240,17,50176,1,2,0:0:0:0:
26,67,50376,1,0,0:0:0:0:
248,104,50576,5,8,0:0:0:0:
286,139,50676,1,0,0:0:0:0:
298,189,50776,1,0,0:0:0:0:
279,237,50876,1,0,0:0:0:0:
235,266,50976,2,0,B|221:249|221:249|220:217,1,52.7999983886719
248,104,51176,5,2,0:0:0:0:
319,54,51276,1,2,0:0:0:0:
398,91,51376,2,0,P|414:143|396:194,2,105.599996777344,6|0|0,0:0|0:0|0:0,0:0:0:0:
319,54,51976,1,0,0:0:0:0:
264,278,52176,2,0,P|257:334|280:376,1,105.599996777344,8|0,0:0|0:0,0:0:0:0:
177,154,52576,2,0,P|130:120|82:119,1,105.599996777344,0|2,0:0|0:0,0:0:0:0:
335,228,52976,6,0,P|387:205|412:164,2,105.599996777344,0|0|2,0:0|0:0|0:0,0:0:0:0:
327,141,53576,1,0,0:0:0:0:
193,328,53776,2,0,P|141:344|90:326,1,105.599996777344,8|0,0:0|0:0,0:0:0:0:
327,141,54176,2,0,P|379:124|429:142,1,105.599996777344,0|2,0:0|0:0,0:0:0:0:
185,241,54576,5,2,0:0:0:0:
256,191,54776,1,0,0:0:0:0:
264,278,54976,1,0,0:0:0:0:
177,154,55176,1,0,0:0:0:0:
335,228,55376,5,8,0:0:0:0:
106,204,55576,1,0,0:0:0:0:
327,141,55776,1,0,0:0:0:0:
193,328,55976,1,2,0:0:0:0:
248,104,56176,6,0,P|285:64|338:54,2,105.599996777344,2|0|2,0:0|0:0|0:0,0:0:0:0:
335,228,56776,1,0,0:0:0:0:
169,67,56976,5,8,0:0:0:0:
127,35,57076,1,0,0:0:0:0:
76,31,57176,1,0,0:0:0:0:
31,58,57276,1,0,0:0:0:0:
10,106,57376,2,0,L|61:120,1,52.7999983886719
177,154,57576,5,2,0:0:0:0:
256,191,57676,1,2,0:0:0:0:
264,278,57776,2,0,P|310:312|358:313,2,105.599996777344,6|0|0,0:0|0:0|0:0,0:0:0:0:
177,154,58376,1,0,0:0:0:0:
398,91,58576,2,0,P|450:75|501:93,1,105.599996777344,8|0,0:0|0:0,0:0:0:0:
264,278,58976,2,0,P|212:294|161:276,1,105.599996777344,0|2,0:0|0:0,0:0:0:0:
248,104,59376,6,0,P|283:66|336:55,2,105.599996777344,0|0|2,0:0|0:0|0:0,0:0:0:0:
264,278,59976,1,0,0:0:0:0:
169,67,60176,2,0,P|126:36|73:35,1,105.599996777344,8|0,0:0|0:0,0:0:0:0:
335,228,60576,2,0,P|378:259|431:260,1,105.599996777344,0|2,0:0|0:0,0:0:0:0:
319,54,60976,5,0,0:0:0:0:
406,178,61176,1,0,0:0:0:0:
248,104,61376,2,0,B|221:91|221:91|150:121,1,105.599996777344,0|2,0:0|0:0,0:0:0:0:
35,254,61776,2,0,B|62:267|62:267|133:237,1,105.599996777344,8|0,0:0|0:0,0:0:0:0:
256,191,62176,5,0,0:0:0:0:
177,154,62376,1,2,0:0:0:0:
264,278,62576,5,0,0:0:0:0:
327,141,62776,1,0,0:0:0:0:
185,241,62976,5,2,0:0:0:0:
406,178,63176,1,0,0:0:0:0:
177,154,63376,5,8,0:0:0:0:
129,174,63476,1,0,0:0:0:0:
101,217,63576,1,0,0:0:0:0:
103,269,63676,1,0,0:0:0:0:
134,311,63776,2,0,L|173:272,1,52.7999983886719
256,191,63976,5,2,0:0:0:0:
248,104,64076,1,2,0:0:0:0:
169,67,64176,2,0,L|107:72,1,61.5999981201172,2|0,0:0|0:0,0:0:0:0:
248,104,64576,2,0,L|309:98,1,61.5999981201172
185,241,64976,6,0,P|155:276|117:290,1,88,12|0,0:0|0:0,0:0:0:0:
177,154,65376,1,0,0:0:0:0:
219,161,65476,1,0,0:0:0:0:
253,188,65576,1,2,0:0:0:0:
114,291,65776,5,0,0:0:0:0:
98,117,65976,1,0,0:0:0:0:
193,328,66176,5,2,0:0:0:0:
35,254,66376,1,0,0:0:0:0:
264,278,66576,5,8,0:0:0:0:
122,378,66776,1,0,0:0:0:0:
122,378,66976,6,0,B|136:328|114:291|114:291|92:316|96:350,1,132.000005035401
35,254,67376,6,0,P|68:217|110:205,1,88,4|0,0:0|0:0,0:0:0:0:
172,156,67776,2,0,P|139:193|97:205,1,88
114,291,68176,1,8,0:0:0:0:
93,119,68376,1,0,0:0:0:0:
256,191,68576,1,0,0:0:0:0:
289,218,68676,1,0,0:0:0:0:
304,259,68776,1,2,0:0:0:0:
193,328,68976,5,0,0:0:0:0:
185,241,69176,1,0,0:0:0:0:
264,278,69376,1,2,0:0:0:0:
114,291,69576,1,0,0:0:0:0:
256,191,69776,1,8,0:0:0:0:
298,198,69876,1,0,0:0:0:0:
332,226,69976,1,0,0:0:0:0:
349,266,70076,1,0,0:0:0:0:
343,309,70176,6,0,B|321:321|286:309|264:278|264:278|285:308|278:344,1,149.600002853394
193,328,70576,6,0,B|171:303|171:303|175:249,1,88,6|0,0:0|0:0,0:0:0:0:
248,104,70976,2,0,B|273:82|273:82|327:86,1,88
264,278,71376,1,8,0:0:0:0:
177,154,71576,1,0,0:0:0:0:
335,228,71776,1,0,0:0:0:0:
349,268,71876,1,0,0:0:0:0:
344,312,71976,1,2,0:0:0:0:
185,241,72176,5,0,0:0:0:0:
256,191,72376,1,0,0:0:0:0:
193,328,72576,5,2,0:0:0:0:
177,154,72776,1,0,0:0:0:0:
272,365,72976,5,8,0:0:0:0:
106,204,73176,1,0,0:0:0:0:
260,195,73376,2,0,L|283:206,7,22,0|0|0|2|0|0|0|0,0:0|0:0|0:0|0:0|0:0|0:0|0:0|0:0,0:0:0:0:
256,191,73776,6,0,P|248:106|322:54,1,176,2|0,0:0|0:0,0:0:0:0:
406,178,74376,1,0,0:0:0:0:
248,104,74576,1,8,0:0:0:0:
319,54,74776,1,0,0:0:0:0:
335,228,74976,1,0,0:0:0:0:
308,262,75076,1,0,0:0:0:0:
267,277,75176,1,2,0:0:0:0:
177,154,75376,5,0,0:0:0:0:
327,141,75576,1,0,0:0:0:0:
185,241,75776,5,2,0:0:0:0:
248,104,75976,1,0,0:0:0:0:
264,278,76176,1,8,0:0:0:0:
236,311,76276,1,0,0:0:0:0:
195,327,76376,1,0,0:0:0:0:
152,322,76476,1,0,0:0:0:0:
117,297,76576,2,0,L|157:266,1,44
256,191,76776,5,2,0:0:0:0:
327,141,76876,1,2,0:0:0:0:
406,178,76976,1,6,0:0:0:0:
264,278,77176,1,0,0:0:0:0:
398,91,77376,5,0,0:0:0:0:
477,128,77576,1,0,0:0:0:0:
256,191,77776,5,8,0:0:0:0:
327,141,77976,1,2,0:0:0:0:
272,365,78176,5,0,0:0:0:0:
193,328,78376,1,2,0:0:0:0:
335,228,78576,6,0,P|378:236|415:267,2,88,0|0|2,0:0|0:0|0:0,0:0:0:0:
343,315,79176,1,0,0:0:0:0:
256,191,79376,5,8,0:0:0:0:
406,178,79576,1,0,0:0:0:0:
259,282,79776,2,0,L|239:295,7,22,0|0|0|0|2|0|0|0,0:0|0:0|0:0|0:0|0:0|0:0|0:0|0:0,0:0:0:0:
264,278,80176,6,0,P|220:271|182:240,1,88,2|0,0:0|0:0,0:0:0:0:
406,178,80576,2,0,P|450:185|488:216,1,88
256,191,80976,1,8,0:0:0:0:
414,265,81176,1,0,0:0:0:0:
327,141,81376,1,0,0:0:0:0:
293,113,81476,1,0,0:0:0:0:
250,104,81576,1,2,0:0:0:0:
264,278,81776,5,0,0:0:0:0:
185,241,81976,1,0,0:0:0:0:
335,228,82176,5,2,0:0:0:0:
343,315,82376,1,0,0:0:0:0:
177,154,82576,5,8,0:0:0:0:
162,112,82676,1,0,0:0:0:0:
169,69,82776,1,0,0:0:0:0:
196,35,82876,1,0,0:0:0:0:
235,18,82976,1,0,0:0:0:0:
256,191,83176,5,2,0:0:0:0:
185,241,83276,1,2,0:0:0:0:
106,204,83376,2,0,L|64:184,1,44,2|0,0:0|0:0,0:0:0:0:
114,291,83576,1,0,0:0:0:0:
118,295,83776,1,0,0:0:0:0:
193,328,84176,6,0,L|231:300,1,44,8|0,0:0|0:0,0:0:0:0:
335,228,84376,1,0,0:0:0:0:
339,232,84576,1,0,0:0:0:0:
327,141,84976,6,0,L|287:122,1,44
169,67,85176,1,0,0:0:0:0:
173,71,85376,1,2,0:0:0:0:
177,154,85776,5,8,0:0:0:0:
319,54,85976,1,0,0:0:0:0:
185,241,86176,2,0,L|159:229,7,22,0|0|0|0|2|0|0|0,0:0|0:0|0:0|0:0|0:0|0:0|0:0|0:0,0:0:0:0:
189,245,86576,6,0,P|222:271|276:275,1,88,2|0,0:0|0:0,0:0:0:0:
181,158,86976,2,0,P|139:173|110:210,1,88
193,328,87376,1,8,0:0:0:0:
114,291,87576,1,0,0:0:0:0:
264,278,87776,1,0,0:0:0:0:
305,263,87876,1,0,0:0:0:0:
334,230,87976,1,2,0:0:0:0:
248,104,88176,5,0,0:0:0:0:
256,191,88376,1,0,0:0:0:0:
319,54,88576,5,0,0:0:0:0:
177,154,88776,1,0,0:0:0:0:
327,141,88976,5,0,0:0:0:0:
169,67,89176,1,0,0:0:0:0:
335,228,89376,5,0,0:0:0:0:
339,232,89576,1,0,0:0:0:0:
114,291,89776,6,0,P|25:235|66:127,1,237.600000906372,6|0,0:0|0:0,0:0:0:0:
185,241,90376,1,0,0:0:0:0:
248,104,90576,2,0,P|252:43|220:-2,1,118.800000453186,8|0,0:0|0:0,0:0:0:0:
264,278,90976,2,0,P|260:339|292:384,1,118.800000453186,0|2,0:0|0:0,0:0:0:0:
177,154,91376,6,0,P|92:119|24:234,1,237.600000906372,0|2,0:0|0:0,0:0:0:0:
185,241,91976,1,0,0:0:0:0:
327,141,92176,2,0,B|358:119|358:119|336:211,1,118.800000453186,8|0,0:0|0:0,0:0:0:0:
272,365,92576,2,0,B|234:357|234:357|315:309,1,118.800000453186,0|2,0:0|0:0,0:0:0:0:
485,215,92976,5,2,0:0:0:0:
422,352,93176,1,0,0:0:0:0:
327,141,93376,2,0,P|284:109|220:112,1,118.800000453186
106,204,93776,1,8,0:0:0:0:
256,191,93976,1,0,0:0:0:0:
98,117,94176,1,0,0:0:0:0:
45,141,94276,1,0,0:0:0:0:
19,193,94376,1,2,0:0:0:0:
264,278,94576,6,0,P|313:256|342:199,1,118.800000453186
177,154,94976,1,2,0:0:0:0:
193,328,95176,1,0,0:0:0:0:
327,141,95376,1,8,0:0:0:0:
367,99,95476,1,0,0:0:0:0:
425,92,95576,1,0,0:0:0:0:
474,123,95676,1,0,0:0:0:0:
493,178,95776,1,0,0:0:0:0:
256,191,95976,5,2,0:0:0:0:
177,154,96076,1,2,0:0:0:0:
185,241,96176,2,0,P|270:276|338:161,1,237.600000906372,6|0,0:0|0:0,0:0:0:0:
248,104,96776,1,0,0:0:0:0:
106,204,96976,2,0,B|89:240|89:240|130:322,1,118.800000453186,8|0,0:0|0:0,0:0:0:0:
256,191,97376,2,0,B|273:155|273:155|232:73,1,118.800000453186,0|2,0:0|0:0,0:0:0:0:
264,278,97776,6,0,P|349:313|417:198,1,237.600000906372,0|2,0:0|0:0,0:0:0:0:
256,191,98376,1,0,0:0:0:0:
98,117,98576,2,0,P|84:54|108:7,1,118.800000453186,8|0,0:0|0:0,0:0:0:0:
185,241,98976,2,0,P|199:304|175:351,1,118.800000453186,0|2,0:0|0:0,0:0:0:0:
177,154,99376,5,2,0:0:0:0:
256,191,99576,1,0,0:0:0:0:
185,241,99776,1,0,0:0:0:0:
248,104,99976,1,0,0:0:0:0:
264,278,100176,5,8,0:0:0:0:
169,67,100376,1,0,0:0:0:0:
335,228,100576,1,0,0:0:0:0:
106,204,100776,1,2,0:0:0:0:
319,54,100976,6,0,B|352:52|381:68|398:91|398:91|360:97|325:120|310:165|324:206,1,237.600000906372,0|2,0:0|0:0,0:0:0:0:
414,265,101576,1,0,0:0:0:0:
248,104,101776,1,8,0:0:0:0:
200,70,101876,1,0,0:0:0:0:
142,74,101976,1,0,0:0:0:0:
99,114,102076,1,0,0:0:0:0:
92,172,102176,1,0,0:0:0:0:
327,141,102376,5,2,0:0:0:0:
406,178,102476,1,2,0:0:0:0:
335,228,102576,2,0,B|306:231|274:216|256:191|256:191|233:159|196:145|152:151|126:178,1,237.600000906372,6|0,0:0|0:0,0:0:0:0:
114,291,103176,1,0,0:0:0:0:
327,141,103376,2,0,P|331:80|299:35,1,118.800000453186,8|0,0:0|0:0,0:0:0:0:
185,241,103776,2,0,P|181:302|213:347,1,118.800000453186,0|2,0:0|0:0,0:0:0:0:
248,104,104176,6,0,P|186:88|251:142,1,237.600000906372,0|2,0:0|0:0,0:0:0:0:
319,54,104776,1,0,0:0:0:0:
335,228,104976,2,0,P|287:271|234:274,1,118.800000453186,8|0,0:0|0:0,0:0:0:0:
97,117,105376,2,0,P|145:73|198:70,1,118.800000453186,0|2,0:0|0:0,0:0:0:0:
327,141,105776,5,2,0:0:0:0:
113,291,105976,1,0,0:0:0:0:
247,104,106176,2,0,P|294:60|347:57,1,118.800000453186
263,278,106576,1,8,0:0:0:0:
105,204,106776,1,0,0:0:0:0:
335,228,106976,1,0,0:0:0:0:
391,243,107076,1,0,0:0:0:0:
426,289,107176,1,2,0:0:0:0:
192,328,107376,6,0,P|129:308|101:265,1,118.800000453186
256,191,107776,1,2,0:0:0:0:
271,365,107976,1,0,0:0:0:0:
177,154,108176,1,8,0:0:0:0:
161,97,108276,1,0,0:0:0:0:
185,44,108376,1,0,0:0:0:0:
236,17,108476,1,0,0:0:0:0:
293,29,108576,1,0,0:0:0:0:
185,241,108776,5,2,0:0:0:0:
114,291,108876,1,2,0:0:0:0:
193,328,108976,2,0,P|273:251|211:158,1,237.600000906372,6|0,0:0|0:0,0:0:0:0:
185,241,109576,1,0,0:0:0:0:
406,178,109776,2,0,P|461:151|484:101,1,118.800000453186,8|0,0:0|0:0,0:0:0:0:
177,154,110176,2,0,P|122:181|99:231,1,118.800000453186,0|2,0:0|0:0,0:0:0:0:
414,265,110576,6,0,P|492:193|426:93,1,237.600000906372,0|2,0:0|0:0,0:0:0:0:
343,315,111176,1,0,0:0:0:0:
177,154,111376,2,0,P|162:91|186:43,1,118.800000453186,8|0,0:0|0:0,0:0:0:0:
414,265,111776,2,0,P|428:327|404:375,1,118.800000453186,0|2,0:0|0:0,0:0:0:0:
185,241,112176,5,0,0:0:0:0:
106,204,112376,1,0,0:0:0:0:
98,117,112576,1,0,0:0:0:0:
256,191,112776,5,0,0:0:0:0:
114,291,112976,5,0,0:0:0:0:
193,328,113176,1,0,0:0:0:0:
106,204,113376,5,0,0:0:0:0:
35,254,113576,1,0,0:0:0:0:
264,278,113776,2,0,P|315:255|343:195,1,123.199996240234
342,196,114376,5,0,0:0:0:0:
185,241,114576,2,0,L|128:214,1,61.5999981201172
264,278,114976,2,0,L|319:303,1,61.5999981201172
256,191,115376,6,0,P|241:146|249:105,1,88,6|0,0:0|0:0,0:0:0:0:
335,228,115776,2,0,P|303:263|264:277,1,88
177,154,116176,2,0,P|208:118|247:104,1,88,8|0,0:0|0:0,0:0:0:0:
264,278,116576,1,0,0:0:0:0:
268,282,116676,1,0,0:0:0:0:
272,286,116776,1,2,0:0:0:0:
106,204,116976,6,0,P|91:159|99:118,1,88
185,241,117376,2,0,L|194:342,2,88,2|0|8,0:0|0:0|0:0,0:0:0:0:
177,154,117976,1,0,0:0:0:0:
252,100,118176,2,0,L|274:83,7,22,0|0|0|0|2|0|0|0,0:0|0:0|0:0|0:0|0:0|0:0|0:0|0:0,0:0:0:0:
248,104,118576,6,0,P|240:147|256:192,1,88,2|0,0:0|0:0,0:0:0:0:
335,228,118976,2,0,P|351:273|344:313,1,88
193,328,119376,2,0,P|177:283|184:243,1,88,8|0,0:0|0:0,0:0:0:0:
327,141,119776,1,0,0:0:0:0:
331,145,119876,1,0,0:0:0:0:
335,149,119976,1,2,0:0:0:0:
185,241,120176,6,0,P|133:230|106:204,1,88
264,278,120576,2,0,P|316:289|343:315,1,88,2|0,0:0|0:0,0:0:0:0:
177,154,120976,1,8,0:0:0:0:
161,113,121076,1,0,0:0:0:0:
168,70,121176,1,0,0:0:0:0:
195,35,121276,1,0,0:0:0:0:
235,18,121376,1,0,0:0:0:0:
256,191,121576,5,2,0:0:0:0:
220,216,121676,1,2,0:0:0:0:
185,241,121776,2,0,P|178:278|193:326,1,88,2|0,0:0|0:0,0:0:0:0:
264,278,122176,2,0,P|271:241|256:193,1,88
169,69,122576,2,0,P|140:44|91:33,1,88,8|0,0:0|0:0,0:0:0:0:
177,156,122976,1,0,0:0:0:0:
181,160,123076,1,0,0:0:0:0:
185,164,123176,1,2,0:0:0:0:
327,141,123376,6,0,P|370:149|407:180,1,88
411,263,123776,2,0,P|368:255|331:224,1,88,2|0,0:0|0:0,0:0:0:0:
248,104,124176,2,0,B|226:94|226:94|214:75|214:75|192:78|192:78|171:68,1,88,8|0,0:0|0:0,0:0:0:0:
260,187,124576,2,0,L|286:199,7,22,0|0|0|0|2|0|0|0,0:0|0:0|0:0|0:0|0:0|0:0|0:0|0:0,0:0:0:0:
256,191,124976,6,0,P|216:205|186:239,1,88,2|0,0:0|0:0,0:0:0:0:
194,325,125376,2,0,P|234:311|264:277,1,88
327,141,125776,2,0,P|355:107|395:92,1,88,8|0,0:0|0:0,0:0:0:0:
335,228,126176,1,0,0:0:0:0:
339,232,126276,1,0,0:0:0:0:
343,236,126376,1,2,0:0:0:0:
248,104,126576,6,0,P|210:73|166:67,1,88
101,116,126976,2,0,P|139:147|183:153,1,88,2|0,0:0|0:0,0:0:0:0:
327,141,127376,1,8,0:0:0:0:
369,149,127476,1,0,0:0:0:0:
403,176,127576,1,0,0:0:0:0:
420,216,127676,1,0,0:0:0:0:
415,259,127776,1,0,0:0:0:0:
256,191,127976,5,2,0:0:0:0:
216,172,128076,1,2,0:0:0:0:
177,154,128176,1,2,0:0:0:0:
