osu file format v14

[General]
AudioFilename: audio.mp3
AudioLeadIn: 0
PreviewTime: 350
Countdown: 0
SampleSet: Soft
StackLeniency: 0.7
Mode: 3
LetterboxInBreaks: 0
SpecialStyle: 0
WidescreenStoryboard: 1

[Editor]
Bookmarks: 17548
DistanceSpacing: 2
BeatDivisor: 4
GridSize: 4
TimelineZoom: 1

[Metadata]
Title:Vesjolyj budil'nik
TitleUnicode:Vesjolyj budil'nik
Artist:Petuhi zapeli
ArtistUnicode:Petuhi zapeli
Creator:Ensi
Version:BlockHead's NM alarm
Source:
Tags:Uselessful YaVOR zin Yooh Block Head m3gB3g [Heppy] Neptunee Baltika7 Flashtop makisokk Rise4ngel [PhobosX] Russian meme
BeatmapID:1419930
BeatmapSetID:592438

[Difficulty]
HPDrainRate:7
CircleSize:4
OverallDifficulty:8
ApproachRate:8
SliderMultiplier:2.3
SliderTickRate:2

[Events]
//Background and Video events
0,0,"loli.jpg",0,0
//Break Periods
//Storyboard Layer 0 (Background)
//Storyboard Layer 1 (Fail)
//Storyboard Layer 2 (Pass)
//Storyboard Layer 3 (Foreground)
//Storyboard Sound Samples

[Colours]
Combo1 : 255,192,0
Combo2 : 0,202,0
Combo3 : 18,124,255
Combo4 : 242,24,57

[TimingPoints]
281,500,4,2,0,6,1,0
594,500,4,2,0,50,1,0
20584,-66.6666666666667,4,2,0,50,0,1
26594,-66.6666666666667,4,2,0,24,0,0

[HitObjects]
64,192,594,128,0,844:0:0:0:0:
448,192,594,128,0,844:0:0:0:0:
192,192,594,1,0,0:0:0:0:
320,192,844,128,0,1094:0:0:0:0:
64,192,1094,1,0,0:0:0:0:
192,192,1094,128,0,1344:0:0:0:0:
448,192,1344,1,0,0:0:0:0:
64,192,1594,1,0,0:0:0:0:
320,192,1594,1,0,0:0:0:0:
448,192,1844,128,0,2344:0:0:0:0:
64,192,1844,128,0,2344:0:0:0:0:
320,192,1844,1,0,0:0:0:0:
192,192,2094,1,0,0:0:0:0:
192,192,2344,128,0,2594:0:0:0:0:
64,192,2594,1,0,0:0:0:0:
320,192,2594,128,0,2844:0:0:0:0:
64,192,2844,128,0,3094:0:0:0:0:
448,192,2844,1,0,0:0:0:0:
192,192,3094,128,0,3344:0:0:0:0:
448,192,3094,1,0,0:0:0:0:
448,192,3344,128,0,3594:0:0:0:0:
64,192,3344,1,0,0:0:0:0:
320,192,3594,128,0,4094:0:0:0:0:
192,192,3844,1,0,0:0:0:0:
64,192,4094,1,0,0:0:0:0:
192,192,4344,1,0,0:0:0:0:
448,192,4344,1,0,0:0:0:0:
64,192,4594,128,0,4844:0:0:0:0:
192,192,4594,128,0,4844:0:0:0:0:
448,192,4594,128,0,4844:0:0:0:0:
320,192,4844,128,0,5094:0:0:0:0:
64,192,5094,1,0,0:0:0:0:
448,192,5094,1,0,0:0:0:0:
448,192,5344,128,0,5594:0:0:0:0:
320,192,5344,1,0,0:0:0:0:
64,192,5594,1,0,0:0:0:0:
192,192,5594,1,0,0:0:0:0:
192,192,5844,1,0,0:0:0:0:
320,192,5844,1,0,0:0:0:0:
320,192,6094,128,0,6594:0:0:0:0:
448,192,6094,128,0,6594:0:0:0:0:
64,192,6594,128,0,6844:0:0:0:0:
192,192,6594,128,0,6844:0:0:0:0:
320,192,6844,128,0,7094:0:0:0:0:
192,192,7094,128,0,7344:0:0:0:0:
64,192,7344,128,0,7594:0:0:0:0:
320,192,7594,1,0,0:0:0:0:
448,192,7594,1,0,0:0:0:0:
64,192,7844,128,0,8344:0:0:0:0:
192,192,7844,128,0,8344:0:0:0:0:
320,192,8469,1,0,0:0:0:0:
448,192,8469,1,0,0:0:0:0:
64,192,8594,128,0,8844:0:0:0:0:
320,192,8594,128,0,8844:0:0:0:0:
192,192,8844,1,0,0:0:0:0:
64,192,9094,128,0,9469:0:0:0:0:
320,192,9469,1,0,0:0:0:0:
192,192,9594,128,0,9844:0:0:0:0:
448,192,9594,128,0,9844:0:0:0:0:
64,192,9844,1,0,0:0:0:0:
64,192,10094,128,0,10344:0:0:0:0:
448,192,10094,128,0,10344:0:0:0:0:
192,192,10469,1,0,0:0:0:0:
320,192,10594,1,0,0:0:0:0:
448,192,10594,128,0,11094:0:0:0:0:
192,192,10844,1,0,0:0:0:0:
320,192,11094,128,0,11594:0:0:0:0:
192,192,11094,1,0,0:0:0:0:
64,192,11344,1,0,0:0:0:0:
192,192,11594,128,0,12094:0:0:0:0:
448,192,11594,1,0,0:0:0:0:
320,192,11844,1,0,0:0:0:0:
64,192,12094,128,0,12594:0:0:0:0:
448,192,12094,1,0,0:0:0:0:
320,192,12344,128,0,12844:0:0:0:0:
448,192,12594,1,0,0:0:0:0:
448,192,12844,128,0,13344:0:0:0:0:
192,192,12844,1,0,0:0:0:0:
64,192,13094,1,0,0:0:0:0:
320,192,13344,128,0,13594:0:0:0:0:
192,192,13594,1,0,0:0:0:0:
448,192,13844,128,0,14094:0:0:0:0:
320,192,14094,128,0,14594:0:0:0:0:
448,192,14594,1,0,0:0:0:0:
64,192,14594,1,0,0:0:0:0:
192,192,14844,1,0,0:0:0:0:
448,192,14844,1,0,0:0:0:0:
64,192,15094,1,0,0:0:0:0:
192,192,15094,1,0,0:0:0:0:
192,192,15344,128,0,15594:0:0:0:0:
320,192,15344,128,0,15594:0:0:0:0:
448,192,15594,128,0,15844:0:0:0:0:
64,192,15844,128,0,16344:0:0:0:0:
320,192,16344,1,0,0:0:0:0:
192,192,16594,1,0,0:0:0:0:
448,192,16594,1,0,0:0:0:0:
320,192,16844,1,0,0:0:0:0:
192,192,16844,1,0,0:0:0:0:
64,192,17094,128,0,17344:0:0:0:0:
192,192,17094,128,0,17344:0:0:0:0:
320,192,17344,1,0,0:0:0:0:
192,192,17594,1,0,0:0:0:0:
320,192,17594,1,0,0:0:0:0:
448,192,17844,1,0,0:0:0:0:
320,192,17844,1,0,0:0:0:0:
192,192,18094,128,0,18594:0:0:0:0:
448,192,18094,128,0,18594:0:0:0:0:
64,192,18594,1,0,0:0:0:0:
320,192,18844,1,0,0:0:0:0:
64,192,19094,1,0,0:0:0:0:
192,192,19094,1,0,0:0:0:0:
448,192,19344,1,0,0:0:0:0:
64,192,19344,1,0,0:0:0:0:
192,192,19594,128,0,20094:0:0:0:0:
320,192,19594,1,0,0:0:0:0:
320,192,20094,128,0,20594:0:0:0:0:
64,192,20094,1,0,0:0:0:0:
448,192,20094,1,0,0:0:0:0:
64,192,20594,128,0,21344:0:0:0:0:
448,192,21094,1,0,0:0:0:0:
320,192,21344,1,0,0:0:0:0:
64,192,21594,1,0,0:0:0:0:
192,192,21719,1,0,0:0:0:0:
320,192,21844,1,0,0:0:0:0:
448,192,22094,1,0,0:0:0:0:
320,192,22219,1,0,0:0:0:0:
192,192,22344,1,0,0:0:0:0:
64,192,22594,128,0,22844:0:0:0:0:
320,192,22594,128,0,22844:0:0:0:0:
448,192,22844,128,0,23094:0:0:0:0:
192,192,23094,128,0,23344:0:0:0:0:
64,192,23094,128,0,23344:0:0:0:0:
320,192,23344,128,0,23594:0:0:0:0:
448,192,23594,128,0,24094:0:0:0:0:
192,192,23594,128,0,24094:0:0:0:0:
64,192,24094,1,0,0:0:0:0:
64,192,24594,128,0,25344:0:0:0:0:
320,192,25094,1,0,0:0:0:0:
192,192,25344,1,0,0:0:0:0:
448,192,25594,1,0,0:0:0:0:
64,192,25719,1,0,0:0:0:0:
192,192,25844,1,0,0:0:0:0:
320,192,26094,1,0,0:0:0:0:
448,192,26219,1,0,0:0:0:0:
64,192,26344,1,0,0:0:0:0:
64,192,26594,128,0,26844:0:0:0:0:
192,192,26594,128,0,26844:0:0:0:0:
448,192,26594,128,0,26844:0:0:0:0:
320,192,26844,1,0,0:0:0:0:
448,192,27094,128,0,27344:0:0:0:0:
192,192,27094,128,0,27344:0:0:0:0:
320,192,27094,1,0,0:0:0:0:
64,192,27344,128,0,27594:0:0:0:0:
192,192,27594,128,0,28094:0:0:0:0:
320,192,27594,128,0,28094:0:0:0:0:
