osu file format v14

[General]
AudioFilename: audio.mp3
AudioLeadIn: 0
PreviewTime: 350
Countdown: 0
SampleSet: Soft
StackLeniency: 0.7
Mode: 0
LetterboxInBreaks: 0
WidescreenStoryboard: 1

[Editor]
DistanceSpacing: 0.8
BeatDivisor: 4
GridSize: 16
TimelineZoom: 2.5

[Metadata]
Title:Vesjolyj budil'nik
TitleUnicode:Vesjolyj budil'nik
Artist:Petuhi zapeli
ArtistUnicode:Petuhi zapeli
Creator:Ensi
Version:Yooh's Cock-a-Doodle-doo
Source:
Tags:Uselessful YaVOR zin Yooh Block Head m3gB3g [Heppy] Neptunee Baltika7 Flashtop makisokk Rise4ngel [PhobosX] Russian meme
BeatmapID:1425169
BeatmapSetID:592438

[Difficulty]
HPDrainRate:6
CircleSize:4
OverallDifficulty:8
ApproachRate:9.3
SliderMultiplier:2.2
SliderTickRate:1

[Events]
//Background and Video events
0,0,"loli.jpg",0,0
//Break Periods
//Storyboard Layer 0 (Background)
//Storyboard Layer 1 (Fail)
//Storyboard Layer 2 (Pass)
//Storyboard Layer 3 (Foreground)
//Storyboard Layer 4 (Overlay)
//Storyboard Sound Samples

[TimingPoints]
281,500,4,2,0,6,1,0
594,500,4,2,1,50,1,0
20594,-57.1428571428571,4,2,1,50,0,1
28094,-100,4,2,1,50,0,0

[Colours]
Combo1 : 255,192,0
Combo2 : 0,202,0
Combo3 : 18,124,255
Combo4 : 242,24,57

[HitObjects]
39,171,594,6,0,P|39:240|79:321,1,110
281,205,1094,1,0,0:0:0:0:
74,86,1344,1,0,0:0:0:0:
131,316,1594,1,8,0:0:0:0:
208,91,1844,1,0,0:0:0:0:
51,280,2344,5,0,0:0:0:0:
279,362,2594,1,8,0:0:0:0:
122,260,2844,5,0,0:0:0:0:
205,33,3094,1,0,0:0:0:0:
0,162,3344,5,0,0:0:0:0:
227,244,3594,1,8,0:0:0:0:
322,21,3844,5,0,0:0:0:0:
303,326,4344,5,0,0:0:0:0:
303,326,4469,1,0,0:0:0:0:
303,326,4594,2,0,P|351:285|353:206,1,110,8|0,0:0|0:0,0:0:0:0:
147,190,5094,1,0,0:0:0:0:
366,169,5344,1,0,0:0:0:0:
234,345,5594,1,8,0:0:0:0:
301,135,5844,1,0,0:0:0:0:
117,256,6094,1,0,0:0:0:0:
55,176,6594,5,8,0:0:0:0:
248,50,6844,1,0,0:0:0:0:
266,280,7094,1,0,0:0:0:0:
44,213,7344,1,0,0:0:0:0:
237,87,7594,1,8,0:0:0:0:
138,295,7844,1,0,0:0:0:0:
256,32,8344,6,0,L|256:96,1,55
464,128,8594,2,0,L|438:205,1,55,2|0,0:0|0:0,0:0:0:0:
48,128,8844,2,0,L|74:205,1,55,2|0,0:0|0:0,0:0:0:0:
256,208,9094,2,0,L|256:272,1,55,2|0,0:0|0:0,0:0:0:0:
256,368,9469,5,0,0:0:0:0:
256,368,9594,2,0,L|256:304,1,55,2|0,0:0|0:0,0:0:0:0:
68,178,9844,2,0,L|132:152,1,55,2|0,0:0|0:0,0:0:0:0:
444,178,10094,2,0,L|380:152,1,55,2|0,0:0|0:0,0:0:0:0:
258,111,10344,5,0,0:0:0:0:
258,111,10469,1,0,0:0:0:0:
258,111,10594,2,0,P|179:118|153:148,1,110,8|0,0:0|0:0,0:0:0:0:
282,345,11094,1,0,0:0:0:0:
456,112,11344,1,0,0:0:0:0:
159,136,11594,2,0,P|203:166|257:161,1,110,8|0,0:0|0:0,0:0:0:0:
512,74,12094,1,0,0:0:0:0:
392,352,12344,5,0,0:0:0:0:
104,352,12594,1,2,0:0:0:0:
420,191,12844,5,0,0:0:0:0:
74,191,13094,1,0,0:0:0:0:
456,31,13344,5,0,0:0:0:0:
40,31,13594,1,2,0:0:0:0:
254,361,13844,5,0,0:0:0:0:
254,26,14094,1,2,0:0:0:0:
48,144,14594,6,0,B|29:202|29:202|62:273,1,110,8|0,0:0|0:0,0:0:0:0:
462,246,15094,2,0,B|483:202|483:202|464:144,1,110,8|0,0:0|0:0,0:0:0:0:
109,196,15594,1,2,0:0:0:0:
403,196,15844,1,2,0:0:0:0:
112,304,16344,5,0,0:0:0:0:
256,64,16594,1,2,0:0:0:0:
400,304,16844,1,0,0:0:0:0:
97,68,17094,5,2,0:0:0:0:
256,332,17344,1,0,0:0:0:0:
414,68,17594,1,2,0:0:0:0:
69,195,17844,1,0,0:0:0:0:
448,195,18094,1,2,0:0:0:0:
45,87,18594,6,0,L|70:202,1,110,8|0,0:0|0:0,0:0:0:0:
443,194,19094,2,0,L|467:87,1,110,8|0,0:0|0:0,0:0:0:0:
272,32,19594,5,2,0:0:0:0:
243,56,19719,1,0,0:0:0:0:
226,91,19844,1,2,0:0:0:0:
224,129,19969,1,0,0:0:0:0:
238,165,20094,1,2,0:0:0:0:
268,197,20219,1,0,0:0:0:0:
297,222,20344,1,2,0:0:0:0:
313,256,20469,1,0,0:0:0:0:
315,295,20594,6,0,B|255:365|139:379|60:323|60:323|111:283|111:283|67:214,1,385.000003671646,2|0,0:0|0:0,0:0:0:0:
84,178,21594,6,0,B|188:145|142:19|142:19|199:158|356:50,1,385.000003671646,2|0,0:0|0:0,0:0:0:0:
322,182,22594,2,0,B|385:140|395:72|395:72|401:48|376:23|376:23|402:45|433:41|433:41|527:166,1,385.000003671646,2|0,0:0|0:0,0:0:0:0:
476,268,23594,2,0,B|416:219|416:219|376:302|276:301|276:301|257:332|283:368|283:368|257:341|207:370,1,385.000003671646,2|0,0:0|0:0,0:0:0:0:
104,260,24594,2,0,B|16:245|-9:140|-9:140|61:166|61:166|107:105|195:144,1,385.000003671646,2|0,0:0|0:0,0:0:0:0:
281,221,25594,2,0,B|328:135|328:135|356:112|358:81|358:81|380:84|400:75|400:75|417:136|417:136|348:257,1,385.000003671646,2|0,0:0|0:0,0:0:0:0:
92,288,26594,2,0,B|136:241|112:181|112:181|154:141|154:141|134:112|158:77|158:77|102:103|66:78|66:78|30:141,1,385.000003671646,2|0,0:0|0:0,0:0:0:0:
245,236,27594,2,0,B|342:223|344:158|344:158|287:128|233:138|233:138|264:202|317:282,1,385.000003671646,2|0,0:0|0:0,0:0:0:0:
