osu file format v14

[General]
AudioFilename: audio.mp3
AudioLeadIn: 0
PreviewTime: 17366
Countdown: 0
SampleSet: None
StackLeniency: 0.7
Mode: 0
LetterboxInBreaks: 0
WidescreenStoryboard: 0

[Editor]
Bookmarks: 57366
DistanceSpacing: 2.5
BeatDivisor: 4
GridSize: 4
TimelineZoom: 1.98

[Metadata]
Title:The Fight is Over
TitleUnicode:The Fight is Over
Artist:Petrojvic Blasting Company
ArtistUnicode:Petrojvic Blasting Company
Creator:buhaha
Version:Hard
Source:Over the Garden Wall
Tags:cartoon network soundtrack showtunes vocal jazz classical crossover
BeatmapID:1258607
BeatmapSetID:595075

[Difficulty]
HPDrainRate:5.5
CircleSize:5
OverallDifficulty:7
ApproachRate:7
SliderMultiplier:1
SliderTickRate:1

[Events]
//Background and Video events
0,0,"kKuypG.png",0,0
//Break Periods
//Storyboard Layer 0 (Background)
//Storyboard Layer 1 (Fail)
//Storyboard Layer 2 (Pass)
//Storyboard Layer 3 (Foreground)
//Storyboard Sound Samples

[TimingPoints]
1900,533.333333333333,4,2,0,15,1,0
2699,-100,4,2,0,5,0,0
2966,-100,4,2,0,15,0,0
4833,-100,4,2,0,5,0,0
5099,-100,4,2,0,15,0,0
6966,-100,4,2,0,5,0,0
7233,-100,4,2,0,15,0,0
9633,-100,4,2,0,5,0,0
9899,-100,4,2,0,15,0,0
11233,-100,4,2,0,5,0,0
11499,-100,4,2,0,15,0,0
13366,-100,4,2,0,5,0,0
13633,-100,4,2,0,15,0,0
14433,-100,4,2,0,5,0,0
14699,-100,4,2,0,15,0,0
15499,-100,4,2,0,5,0,0
15766,-100,4,2,0,15,0,0
16299,-100,4,2,0,5,0,0
17099,-100,4,2,0,15,0,0
18699,-100,4,2,0,5,0,0
18966,-100,4,2,0,15,0,0
19766,-100,4,2,0,5,0,0
20033,-100,4,2,0,15,0,0
20833,-100,4,2,0,5,0,0
21099,-100,4,2,0,15,0,0
21899,-100,4,2,0,5,0,0
22166,-100,4,2,0,15,0,0
23766,-100,4,2,0,5,0,0
24833,-100,4,2,0,15,0,0
26699,-100,4,2,0,5,0,0
26966,-100,4,2,0,15,0,0
28033,-100,4,2,0,5,0,0
28299,-100,4,2,0,15,0,0
29099,-100,4,2,0,5,0,0
29366,-100,4,2,0,15,0,0
30433,-100,4,2,0,5,0,0
30699,-100,4,2,0,15,0,0
32566,-100,4,2,0,5,0,0
32833,-100,4,2,0,15,0,0
33899,-100,4,3,0,15,0,0
36566,-100,4,3,0,5,0,0
37099,-100,4,3,0,15,0,0
40566,-100,4,3,0,15,0,0
41633,-100,4,3,0,17,0,0
45099,-100,4,3,0,5,0,0
45633,-100,4,3,0,15,0,0
46166,-100,4,3,3,5,0,0
46699,-100,4,3,0,15,0,0
47233,-100,4,3,0,5,0,0
47766,-100,4,3,0,15,0,0
51766,-100,4,3,0,20,0,0
52833,-100,4,3,0,10,0,0

[Colours]
Combo1 : 255,255,255
Combo2 : 255,128,128
Combo3 : 255,255,128
Combo4 : 128,255,255

[HitObjects]
56,88,1900,6,4,B|112:96|112:96|208:88,1,150
328,68,2966,1,0,0:0:0:0:
148,244,3500,1,0,0:0:0:0:
252,312,3766,1,0,0:0:0:0:
324,208,4033,6,4,P|400:184|440:244,1,150
416,360,5100,1,0,0:0:0:0:
376,244,5366,1,0,0:0:0:0:
268,180,5633,1,0,0:0:0:0:
268,180,6166,6,4,B|212:172|212:172|116:180,1,150
32,272,7233,1,0,0:0:0:0:
220,108,7766,2,0,L|272:116,1,50
460,280,8566,1,0,0:0:0:0:
352,348,8833,1,0,0:0:0:0:
316,48,9633,5,4,0:0:0:0:
316,48,9900,2,0,L|266:40,1,50
188,164,10433,2,4,P|268:140|336:164,1,150
260,264,11500,1,0,0:0:0:0:
380,44,12033,6,0,L|430:52,1,50
329,159,12566,2,4,L|485:151,1,150
384,232,13633,1,0,0:0:0:0:
136,276,14166,1,0,0:0:0:0:
188,164,14433,1,4,0:0:0:0:
204,288,14700,6,4,L|360:280,1,150
448,196,15766,1,0,0:0:0:0:
448,196,16300,2,4,L|441:147,1,50
272,40,17099,1,0,0:0:0:0:
396,24,17366,1,0,0:0:0:0:
292,304,18166,6,4,P|248:324|184:312,1,100
288,232,18966,2,4,P|368:208|436:232,1,150
432,352,20033,1,0,0:0:0:0:
184,312,20566,1,0,0:0:0:0:
132,200,20833,1,4,0:0:0:0:
132,200,21099,6,4,P|199:152|219:209,1,150
184,312,22166,2,0,P|232:332|280:308,1,100
372,236,22966,1,0,0:0:0:0:
386,110,23233,2,4,P|338:90|290:114,1,100
340,352,24300,1,4,0:0:0:0:
436,120,24833,6,0,L|372:108,1,50
276,200,25366,2,0,L|336:212,1,50
292,88,25899,2,4,P|216:104|172:164,1,150
228,272,26966,2,0,L|168:284,1,50
296,332,27500,6,4,P|348:320|404:332,1,100
472,232,28299,1,0,0:0:0:0:
468,356,28566,1,0,0:0:0:0:
304,168,29100,1,4,0:0:0:0:
304,168,29366,2,4,P|336:80|428:36,1,200
428,164,30700,6,0,L|436:232,1,50
320,260,31233,1,0,0:0:0:0:
440,288,31499,1,0,0:0:0:0:
356,196,31766,2,4,P|292:156|216:196,1,150
227,180,32833,1,0,0:0:0:0:
448,60,33366,6,0,L|464:116,1,50
408,220,33900,1,8,0:0:0:0:
456,336,34166,1,8,0:0:0:0:
332,312,34433,2,8,L|264:324,1,50
96,156,35233,5,8,0:0:0:0:
212,200,35499,1,8,0:0:0:0:
180,80,35766,1,8,0:0:0:0:
180,80,36033,6,8,P|228:68|280:88,1,100
392,304,37100,1,8,0:0:0:0:
424,36,37633,2,0,L|484:40,1,50
372,128,38166,2,0,L|312:132,1,50
212,52,38699,2,8,P|180:88|176:144,1,100
256,236,39500,1,0,0:0:0:0:
112,188,39766,2,8,L|48:212,1,50
188,216,40299,5,0,0:0:0:0:
312,232,40566,1,8,0:0:0:0:
312,232,40700,1,8,0:0:0:0:
312,232,40833,1,8,0:0:0:0:
220,316,41099,1,8,0:0:0:0:
220,316,41233,1,8,0:0:0:0:
220,316,41366,1,8,0:0:0:0:
344,340,41633,1,8,0:0:0:0:
344,340,41766,1,8,0:0:0:0:
344,340,41900,2,8,P|380:344|408:340,1,50
468,244,42433,5,0,0:0:0:0:
344,244,42700,1,8,0:0:0:0:
344,244,42833,1,8,0:0:0:0:
344,244,42966,2,8,L|352:184,1,50
416,88,43500,5,0,0:0:0:0:
296,116,43766,1,8,0:0:0:0:
296,116,43900,1,8,0:0:0:0:
296,116,44033,1,8,0:0:0:0:
168,88,44300,1,0,0:0:0:0:
124,204,44566,6,8,P|180:212|224:200,1,100
440,320,45633,2,8,P|391:308|342:317,1,100
124,204,46699,2,8,P|148:156|192:136,1,100
348,320,47766,2,8,P|400:332|452:320,1,100
400,204,48566,1,0,0:0:0:0:
288,144,48833,2,8,P|296:96|320:64,1,75
348,72,49366,2,0,L|376:136,1,50
468,196,49900,6,8,P|430:208|384:192,1,75
360,208,50434,2,0,L|304:220,1,50
188,220,50966,1,8,0:0:0:0:
228,348,51233,1,8,0:0:0:0:
132,256,51499,1,8,0:0:0:0:
248,188,51766,1,8,0:0:0:0:
180,304,52033,1,8,0:0:0:0:
128,180,52299,1,8,0:0:0:0:
240,256,52566,1,8,0:0:0:0:
115,254,52833,1,8,0:0:0:0:
192,144,53099,5,8,0:0:0:0:
256,192,53233,12,0,57366,0:0:0:0:
