osu file format v14

[General]
AudioFilename: audio.mp3
AudioLeadIn: 0
PreviewTime: 17366
Countdown: 0
SampleSet: Soft
StackLeniency: 0.7
Mode: 0
LetterboxInBreaks: 0
WidescreenStoryboard: 1

[Editor]
DistanceSpacing: 2.8
BeatDivisor: 4
GridSize: 4
TimelineZoom: 2.28

[Metadata]
Title:The Fight is Over
TitleUnicode:The Fight is Over
Artist:Petrojvic Blasting Company
ArtistUnicode:Petrojvic Blasting Company
Creator:buhaha
Version:Advanced
Source:Over the Garden Wall
Tags:cartoon network soundtrack showtunes vocal jazz classical crossover
BeatmapID:1269267
BeatmapSetID:595075

[Difficulty]
HPDrainRate:5
CircleSize:4
OverallDifficulty:5
ApproachRate:5
SliderMultiplier:0.72
SliderTickRate:1

[Events]
//Background and Video events
0,0,"kKuypG.png",0,0
//Break Periods
//Storyboard Layer 0 (Background)
//Storyboard Layer 1 (Fail)
//Storyboard Layer 2 (Pass)
//Storyboard Layer 3 (Foreground)
//Storyboard Sound Samples

[TimingPoints]
1900,533.333333333333,4,2,0,40,1,0

[Colours]
Combo1 : 255,255,255
Combo2 : 64,128,128
Combo3 : 128,128,255
Combo4 : 128,128,0

[HitObjects]
56,168,1900,6,0,P|104:152|176:148,1,108
252,148,2966,1,0,0:0:0:0:
128,252,3500,2,0,L|176:264,1,36
252,240,4033,2,0,P|312:232|360:244,1,108
412,168,5100,2,0,L|424:120,1,36
408,44,5633,1,0,0:0:0:0:
248,124,6166,6,0,P|196:116|140:124,1,108
60,164,7233,1,0,0:0:0:0:
184,292,7766,2,0,L|232:300,1,36
292,244,8300,2,0,L|328:248,1,36
400,300,8833,1,0,0:0:0:0:
400,300,9633,5,0,0:0:0:0:
480,260,9900,1,0,0:0:0:0:
420,192,10166,1,0,0:0:0:0:
352,132,10433,2,0,P|297:116|242:130,1,108
292,216,11500,1,0,0:0:0:0:
172,84,12033,6,0,L|152:124,1,36
76,156,12566,2,0,P|116:212|196:192,1,144
348,132,14166,1,0,0:0:0:0:
264,168,14433,1,0,0:0:0:0:
332,228,14699,2,0,B|400:248|400:248|472:280,1,144
480,100,16300,6,0,L|440:104,1,36
264,80,17099,1,0,0:0:0:0:
264,80,17366,2,0,P|208:60|168:84,1,108
68,232,18699,1,0,0:0:0:0:
68,232,18966,6,0,P|116:264|176:248,1,108
244,216,20033,1,0,0:0:0:0:
244,216,20566,2,0,L|292:220,1,36
344,156,21100,2,0,P|368:188|360:260,1,108
296,312,22166,2,0,P|336:344|400:332,1,108
468,296,23233,6,0,B|476:260|476:260|476:212,1,72
468,48,24300,1,0,0:0:0:0:
468,48,24833,2,0,L|416:40,1,36
412,128,25366,2,0,L|377:123,1,36
324,52,25899,2,0,P|288:88|292:152,1,108
340,216,26966,2,0,L|300:240,1,36
252,304,27500,6,0,P|188:292|148:324,1,108
64,320,28566,1,0,0:0:0:0:
64,320,29099,1,0,0:0:0:0:
36,232,29366,2,0,P|56:228|76:228,1,36
432,200,30699,2,0,L|440:244,2,36
416,112,31499,1,0,0:0:0:0:
448,28,31766,2,0,P|400:24|344:60,1,108
312,136,32833,1,0,0:0:0:0:
312,136,33366,6,0,L|272:144,1,36
240,224,33899,2,0,L|223:261,1,36
136,256,34433,2,0,L|119:293,1,36
121,288,35233,1,0,0:0:0:0:
200,328,35499,1,0,0:0:0:0:
288,320,35766,1,0,0:0:0:0:
368,276,36033,6,0,B|408:272|440:288|440:288|480:268|480:232,1,144
472,56,37633,2,0,L|420:48,1,36
416,136,38166,2,0,L|381:131,1,36
320,64,38700,2,0,P|292:100|292:132,1,72
296,212,39500,1,0,0:0:0:0:
296,212,39766,2,0,L|256:220,1,36
172,236,40299,5,0,0:0:0:0:
152,324,40566,1,0,0:0:0:0:
152,324,40699,1,0,0:0:0:0:
152,324,40833,2,0,P|116:332|72:324,1,72
24,260,41633,5,0,0:0:0:0:
24,260,41766,1,0,0:0:0:0:
28,264,41899,2,0,B|30:227|30:227|43:181,1,72
88,116,42700,5,0,0:0:0:0:
132,196,42966,2,0,L|172:184,1,36
164,96,43499,2,0,L|198:85,1,36
244,164,44033,2,0,L|284:152,1,36
344,92,44566,6,0,P|364:121|368:156,1,72
452,312,45633,2,0,L|368:324,1,72
224,232,46700,2,0,L|300:236,1,72
452,312,47766,2,0,L|368:324,1,72
292,328,48566,1,0,0:0:0:0:
292,328,48833,2,0,P|256:324|228:332,1,54
196,344,49366,2,0,L|144:340,1,36
140,252,49900,6,0,P|112:248|76:256,1,54
48,244,50433,2,0,L|24:200,1,36
56,124,50966,5,0,0:0:0:0:
56,124,51233,1,0,0:0:0:0:
132,172,51500,1,0,0:0:0:0:
132,172,51766,1,0,0:0:0:0:
132,80,52033,5,0,0:0:0:0:
132,80,52300,1,0,0:0:0:0:
216,116,52566,1,0,0:0:0:0:
216,116,52833,1,0,0:0:0:0:
256,192,53100,12,0,57366,0:0:0:0:
