osu file format v14

[General]
AudioFilename: Watashi no Houseibako.mp3
AudioLeadIn: 1000
PreviewTime: 53953
Countdown: 0
SampleSet: Normal
StackLeniency: 0.7
Mode: 1
LetterboxInBreaks: 0
WidescreenStoryboard: 0

[Editor]
DistanceSpacing: 1.2
BeatDivisor: 2
GridSize: 32
TimelineZoom: 1.6

[Metadata]
Title:Watashi no Housekibako
TitleUnicode:私の宝石箱
Artist:Petrarca Ann Erudanto III
ArtistUnicode:ペトラルカ・アン・エルダント
Creator:DavidEd
Version:Futsuu
Source:アウトブレイク・カンパニー
Tags:Outbreak Company ed ending
BeatmapID:478724
BeatmapSetID:202313

[Difficulty]
HPDrainRate:4
CircleSize:2
OverallDifficulty:4
ApproachRate:9
SliderMultiplier:1.4
SliderTickRate:2

[Events]
//Background and Video events
0,0,"backgroundobc.png",0,95
//Break Periods
//Storyboard Layer 0 (Background)
//Storyboard Layer 1 (Fail)
//Storyboard Layer 2 (Pass)
//Storyboard Layer 3 (Foreground)
//Storyboard Sound Samples

[TimingPoints]
-975,397.350993377483,4,1,0,50,1,0
6969,-100,4,1,0,70,0,0
11539,-100,4,1,0,60,0,0
14916,-100,4,1,0,50,0,0
27631,-100,4,1,0,60,0,0
40347,-100,4,1,0,50,0,0
46704,-100,4,1,0,60,0,0
54654,-100,4,1,0,80,0,1
80084,-100,4,1,0,70,0,0
87631,-100,4,1,0,5,0,0

[HitObjects]
256,192,614,5,8,0:0:0:0:
256,192,1210,1,0,0:0:0:0:
256,192,1607,1,8,0:0:0:0:
256,192,1806,1,0,0:0:0:0:
256,192,2402,1,8,0:0:0:0:
256,192,2799,1,0,0:0:0:0:
256,192,3197,1,8,0:0:0:0:
256,192,3594,1,0,0:0:0:0:
256,192,3793,1,8,0:0:0:0:
256,192,4389,1,0,0:0:0:0:
256,192,4985,1,8,0:0:0:0:
256,192,5183,1,8,0:0:0:0:
256,192,5779,1,0,0:0:0:0:
256,192,5978,1,8,0:0:0:0:
256,192,6375,1,8,0:0:0:0:
256,192,6972,1,12,0:0:0:0:
256,192,7568,1,0,0:0:0:0:
256,192,7965,1,8,0:0:0:0:
256,192,8164,1,4,0:0:0:0:
256,192,8760,1,8,0:0:0:0:
256,192,9157,1,0,0:0:0:0:
256,192,9554,1,8,0:0:0:0:
256,192,10150,1,4,0:0:0:0:
256,192,10746,1,12,0:0:0:0:
256,192,11144,1,0,0:0:0:0:
256,192,11541,1,12,0:0:0:0:
256,192,12137,1,0,0:0:0:0:
256,192,12534,1,0,0:0:0:0:
256,192,13329,1,0,0:0:0:0:
256,192,13726,1,0,0:0:0:0:
256,192,14124,1,0,0:0:0:0:
256,192,14919,1,12,0:0:0:0:
256,192,15713,1,0,0:0:0:0:
256,192,16309,1,8,0:0:0:0:
256,192,16905,1,8,0:0:0:0:
256,192,17104,1,0,0:0:0:0:
256,192,17700,1,8,0:0:0:0:
256,192,18097,1,4,0:0:0:0:
256,192,18892,1,0,0:0:0:0:
256,192,19488,1,8,0:0:0:0:
256,192,20084,1,8,0:0:0:0:
256,192,20283,1,8,0:0:0:0:
256,192,20879,1,8,0:0:0:0:
256,192,21276,1,4,0:0:0:0:
256,192,22071,1,0,0:0:0:0:
256,192,22667,1,8,0:0:0:0:
256,192,23263,1,8,0:0:0:0:
256,192,23462,1,0,0:0:0:0:
256,192,23859,1,8,0:0:0:0:
256,192,24256,1,8,0:0:0:0:
256,192,24455,1,4,0:0:0:0:
256,192,25051,1,0,0:0:0:0:
256,192,25250,1,8,0:0:0:0:
256,192,25846,1,12,0:0:0:0:
256,192,26243,1,0,0:0:0:0:
256,192,26640,1,8,0:0:0:0:
256,192,27236,1,0,0:0:0:0:
256,192,27634,1,4,0:0:0:0:
256,192,28428,1,0,0:0:0:0:
256,192,29024,1,8,0:0:0:0:
256,192,29621,1,8,0:0:0:0:
256,192,29819,1,0,0:0:0:0:
256,192,30415,1,0,0:0:0:0:
256,192,30813,1,4,0:0:0:0:
256,192,31607,1,0,0:0:0:0:
256,192,32203,1,8,0:0:0:0:
256,192,32601,1,0,0:0:0:0:
256,192,32799,1,8,0:0:0:0:
256,192,33197,1,0,0:0:0:0:
256,192,33594,1,8,0:0:0:0:
256,192,33991,1,4,0:0:0:0:
256,192,34786,1,0,0:0:0:0:
256,192,35382,1,8,0:0:0:0:
256,192,35978,1,8,0:0:0:0:
256,192,36177,1,0,0:0:0:0:
256,192,36574,1,8,0:0:0:0:
256,192,36972,1,8,0:0:0:0:
256,192,37170,1,4,0:0:0:0:
256,192,37766,1,0,0:0:0:0:
256,192,37965,1,8,0:0:0:0:
256,192,38561,1,12,0:0:0:0:
256,192,38958,1,0,0:0:0:0:
256,192,39356,1,8,0:0:0:0:
256,192,39952,1,0,0:0:0:0:
256,192,40349,1,4,0:0:0:0:
256,192,41144,1,0,0:0:0:0:
256,192,41342,1,8,0:0:0:0:
256,192,41740,1,8,0:0:0:0:
256,192,42137,1,8,0:0:0:0:
256,192,42534,1,0,0:0:0:0:
256,192,43528,1,4,0:0:0:0:
256,192,43925,1,0,0:0:0:0:
256,192,44323,1,0,0:0:0:0:
256,192,44521,1,8,0:0:0:0:
256,192,44919,1,12,0:0:0:0:
256,192,45316,1,12,0:0:0:0:
256,192,45713,1,12,0:0:0:0:
256,192,46309,1,0,0:0:0:0:
256,192,46707,1,4,0:0:0:0:
256,192,47303,1,0,0:0:0:0:
256,192,47501,1,8,0:0:0:0:
256,192,47899,1,8,0:0:0:0:
256,192,48097,1,0,0:0:0:0:
256,192,48495,1,8,0:0:0:0:
256,192,48892,1,8,0:0:0:0:
256,192,49488,1,0,0:0:0:0:
256,192,49885,1,12,0:0:0:0:
256,192,50283,1,0,0:0:0:0:
256,192,50680,1,8,0:0:0:0:
256,192,51475,1,0,0:0:0:0:
256,192,52270,1,0,0:0:0:0:
256,192,52667,1,8,0:0:0:0:
256,192,53064,1,4,0:0:0:0:
256,192,53660,1,12,0:0:0:0:
256,192,54654,5,4,0:0:0:0:
256,192,55051,1,0,0:0:0:0:
256,192,55448,1,8,0:0:0:0:
256,192,56044,1,4,0:0:0:0:
256,192,56442,1,8,0:0:0:0:
256,192,57038,1,0,0:0:0:0:
256,192,57435,1,8,0:0:0:0:
256,192,57832,5,4,0:0:0:0:
256,192,58230,1,8,0:0:0:0:
256,192,58428,1,0,0:0:0:0:
256,192,58826,1,8,0:0:0:0:
256,192,59223,1,12,0:0:0:0:
256,192,59819,1,0,0:0:0:0:
256,192,60217,1,8,0:0:0:0:
256,192,60614,1,0,0:0:0:0:
256,192,61011,1,4,0:0:0:0:
256,192,61409,1,8,0:0:0:0:
256,192,61806,1,0,0:0:0:0:
256,192,62005,1,8,0:0:0:0:
256,192,62402,1,4,0:0:0:0:
256,192,62799,1,8,0:0:0:0:
256,192,63197,1,8,0:0:0:0:
256,192,63793,1,0,0:0:0:0:
256,192,64190,1,12,0:0:0:0:
256,192,64587,1,0,0:0:0:0:
256,192,64786,1,8,0:0:0:0:
256,192,65183,1,0,0:0:0:0:
256,192,65581,1,4,0:0:0:0:
256,192,66375,1,12,0:0:0:0:
256,192,66972,1,0,0:0:0:0:
256,192,67369,1,4,0:0:0:0:
256,192,67766,1,8,0:0:0:0:
256,192,68164,1,8,0:0:0:0:
256,192,68760,1,4,0:0:0:0:
256,192,69157,1,8,0:0:0:0:
256,192,69753,1,0,0:0:0:0:
256,192,70150,1,0,0:0:0:0:
256,192,70548,1,12,0:0:0:0:
256,192,70945,1,0,0:0:0:0:
256,192,71144,1,8,0:0:0:0:
256,192,71541,1,8,0:0:0:0:
256,192,71938,1,12,0:0:0:0:
256,192,72534,1,0,0:0:0:0:
256,192,72932,1,8,0:0:0:0:
256,192,73329,1,0,0:0:0:0:
256,192,73726,1,4,0:0:0:0:
256,192,74124,1,8,0:0:0:0:
256,192,74521,1,0,0:0:0:0:
256,192,74720,1,8,0:0:0:0:
256,192,75117,1,12,0:0:0:0:
256,192,75515,1,8,0:0:0:0:
256,192,75713,1,0,0:0:0:0:
256,192,76111,1,0,0:0:0:0:
256,192,76508,1,8,0:0:0:0:
256,192,76905,1,4,0:0:0:0:
256,192,77303,1,0,0:0:0:0:
256,192,77501,1,8,0:0:0:0:
256,192,77899,1,8,0:0:0:0:
256,192,78296,1,12,0:0:0:0:
256,192,78892,1,0,0:0:0:0:
256,192,79091,1,8,0:0:0:0:
256,192,79488,1,8,0:0:0:0:
256,192,80084,1,4,0:0:0:0:
256,192,80481,1,8,0:0:0:0:
256,192,80879,1,0,0:0:0:0:
256,192,81276,1,8,0:0:0:0:
256,192,81872,1,12,0:0:0:0:
256,192,82071,1,12,0:0:0:0:
256,192,82468,1,12,0:0:0:0:
256,192,82667,1,12,0:0:0:0:
256,192,83064,12,0,87634,0:0:0:0:
