osu file format v14

[General]
AudioFilename: sweetmagic2.mp3
AudioLeadIn: 0
PreviewTime: 194909
Countdown: 0
SampleSet: Soft
StackLeniency: 0.7
Mode: 0
LetterboxInBreaks: 0
WidescreenStoryboard: 0

[Editor]
Bookmarks: 17953,31648,45779,59692,73605,94475,108170,122301,136214,164040,170996,177735,183170,195344,209257,223170,226648,240561,253605
DistanceSpacing: 1
BeatDivisor: 4
GridSize: 4
TimelineZoom: 1.6

[Metadata]
Title:Sweet Magic
TitleUnicode:Sweet Magic
Artist:Petralka Anne Eldant the Third (CV: Mai Fuchigami)
ArtistUnicode:ペトラルカ・アン・エルダント三世(CV:渕上舞)
Creator:Finshie
Version:Normal
Source:アウトブレイク・カンパニー
Tags:RVMathew Outbreak Company ED Single Watashi no Housekibako anime
BeatmapID:1280155
BeatmapSetID:595170

[Difficulty]
HPDrainRate:3
CircleSize:3.5
OverallDifficulty:3
ApproachRate:4
SliderMultiplier:1
SliderTickRate:1

[Events]
//Background and Video events
0,0,"XpcuOcW.jpg",0,0
//Break Periods
2,73805,79241
2,150327,162720
2,171196,176415
//Storyboard Layer 0 (Background)
//Storyboard Layer 1 (Fail)
//Storyboard Layer 2 (Pass)
//Storyboard Layer 3 (Foreground)
//Storyboard Sound Samples

[TimingPoints]
562,434.782608695652,4,2,1,25,1,0
2083,-100,4,2,1,25,0,0
2301,-100,4,2,1,25,0,0
2735,-100,4,2,1,30,0,0
3170,-100,4,2,1,35,0,0
3605,-100,4,2,1,40,0,0
4040,-100,4,2,2,50,0,0
17083,-100,4,2,1,50,0,0
17953,-100,4,2,1,60,0,0
45779,-100,4,2,3,70,0,1
45888,-100,4,2,1,70,0,1
52735,-100,4,2,3,70,0,1
52844,-100,4,2,1,70,0,1
59692,-100,4,2,3,70,0,1
59801,-100,4,2,1,70,0,1
66648,-100,4,2,3,70,0,1
66757,-100,4,2,1,70,0,1
73605,-100,4,2,1,50,0,0
80561,-100,4,2,2,50,0,0
94475,-100,4,2,1,60,0,0
122301,-100,4,2,3,70,0,1
122409,-100,4,2,1,70,0,1
129257,-100,4,2,3,70,0,1
129366,-100,4,2,1,70,0,1
136214,-100,4,2,3,70,0,1
136322,-100,4,2,1,70,0,1
143170,-100,4,2,3,70,0,1
143279,-100,4,2,1,70,0,1
150127,-100,4,2,3,60,0,0
150235,-100,4,2,1,60,0,0
177735,-100,4,2,1,60,0,0
195344,-100,4,2,3,70,0,1
195453,-100,4,2,1,70,0,1
202301,-100,4,2,3,70,0,1
202409,-100,4,2,1,70,0,1
209257,-100,4,2,3,70,0,1
209366,-100,4,2,1,70,0,1
216214,-100,4,2,3,70,0,1
216322,-100,4,2,1,70,0,1
222735,-100,4,2,1,70,0,1
223170,-100,4,2,1,50,0,0
226648,-100,4,2,3,50,0,0
226757,-100,4,2,1,50,0,0
233605,-100,4,2,3,50,0,0
233714,-100,4,2,1,50,0,0
253605,-100,4,2,1,5,0,0

[Colours]
Combo1 : 204,238,51
Combo2 : 153,187,68
Combo3 : 153,85,68
Combo4 : 85,119,225

[HitObjects]
40,161,2301,6,0,P|92:160|140:196,1,100,0|0,0:0|0:0,0:0:0:0:
219,232,3170,2,0,L|318:223,1,100,0|2,0:0|0:0,0:0:0:0:
406,271,4040,6,0,P|418:226|399:167,1,100,2|2,0:0|0:0,0:0:0:0:
318,127,4909,2,0,L|218:135,1,100,2|2,0:0|0:0,0:0:0:0:
131,184,5779,1,2,0:0:0:0:
33,161,6214,2,0,P|20:110|32:62,1,100,2|2,0:0|0:0,0:0:0:0:
114,9,7083,1,2,0:0:0:0:
214,9,7518,6,0,L|336:11,1,100,2|2,0:0|0:0,0:0:0:0:
411,34,8388,2,0,P|429:68|413:155,1,100,2|2,0:0|0:0,0:0:0:0:
351,191,9257,2,0,L|251:189,1,100,2|2,0:0|0:0,0:0:0:0:
150,189,10127,1,2,0:0:0:0:
50,187,10561,1,2,0:0:0:0:
96,274,10996,6,0,P|144:289|193:280,1,100,6|2,0:0|0:0,0:0:0:0:
246,194,11866,2,0,P|198:181|149:188,1,100,2|2,0:0|0:0,0:0:0:0:
193,281,12735,2,0,P|240:295|289:287,1,100,2|2,0:0|0:0,0:0:0:0:
331,259,13388,2,0,B|330:144|330:144|296:96,1,150,0|2,0:0|0:0,0:0:0:0:
278,78,14257,6,0,P|196:55|110:99,1,150,4|2,0:0|0:0,0:0:0:0:
81,158,15344,2,0,P|149:176|199:151,1,100,2|2,0:0|0:0,0:0:0:0:
136,75,16214,2,0,P|68:57|18:82,1,100,2|2,0:0|0:0,0:0:0:0:
8,102,16866,2,0,B|4:206|4:206|30:261,1,150,2|2,0:0|0:0,0:0:0:0:
87,324,17953,6,0,L|187:318,1,100,4|8,0:0|0:0,0:0:0:0:
222,223,18822,2,0,L|122:229,1,100,2|8,0:0|0:0,0:0:0:0:
159,135,19692,2,0,L|259:129,1,100,2|8,0:0|0:0,0:0:0:0:
306,145,20344,2,0,P|333:211|298:315,1,150,2|8,0:0|0:0,0:0:0:0:
267,371,21431,6,0,L|367:371,1,100,2|8,0:0|0:0,0:0:0:0:
418,286,22301,2,0,L|318:286,1,100,2|8,0:0|0:0,0:0:0:0:
369,201,23170,2,0,L|469:201,1,100,2|8,0:0|0:0,0:0:0:0:
512,176,23822,2,0,P|524:117|490:21,1,150,2|8,0:0|0:0,0:0:0:0:
402,5,24909,6,0,L|290:1,1,100,4|8,0:0|0:0,0:0:0:0:
215,51,25779,1,2,0:0:0:0:
287,119,26214,1,8,0:0:0:0:
199,168,26648,2,0,L|100:165,1,100,2|8,0:0|0:0,0:0:0:0:
64,201,27301,2,0,P|48:272|74:355,1,150,2|8,0:0|0:0,0:0:0:0:
112,368,28170,6,0,B|160:382|160:382|293:361,1,150,4|8,0:0|0:0,0:0:0:0:
356,344,29257,1,2,0:0:0:0:
287,271,29692,1,8,0:0:0:0:
327,179,30127,2,0,P|279:170|232:187,1,100,4|8,0:0|0:0,0:0:0:0:
191,219,30779,2,0,P|169:141|178:105,1,100,2|0,0:0|0:0,0:0:0:0:
187,76,31431,1,8,0:0:0:0:
227,46,31648,6,0,B|328:36|328:36|390:55,1,150,4|8,0:0|0:0,0:0:0:0:
451,115,32735,2,0,P|462:190|447:240,1,100,2|8,0:0|0:0,0:0:0:0:
419,246,33388,2,0,L|301:241,1,100,2|2,0:0|0:0,0:0:0:0:
268,243,34040,1,8,0:0:0:0:
230,150,34475,2,0,L|329:154,1,100,2|8,0:0|0:0,0:0:0:0:
362,192,35127,6,0,B|361:293|361:293|315:336,1,150,4|8,0:0|0:0,0:0:0:0:
238,377,36214,2,0,P|189:386|140:376,1,100,2|8,0:0|0:0,0:0:0:0:
94,356,36866,2,0,P|79:306|93:250,1,100,2|2,0:0|0:0,0:0:0:0:
105,213,37518,1,8,0:0:0:0:
87,114,37953,2,0,P|136:117|177:146,1,100,2|8,0:0|0:0,0:0:0:0:
203,191,38605,6,0,P|205:100|275:34,1,150,4|8,0:0|0:0,0:0:0:0:
329,19,39692,2,0,L|463:13,1,100,2|8,0:0|0:0,0:0:0:0:
475,32,40344,2,0,P|496:100|471:200,1,150,2|8,0:0|0:0,0:0:0:0:
477,277,41431,2,0,L|372:274,1,100,2|8,0:0|0:0,0:0:0:0:
329,259,42083,6,0,P|320:177|362:103,1,150,4|8,0:0|0:0,0:0:0:0:
425,54,43170,2,0,P|356:20|295:39,1,100,2|8,0:0|0:0,0:0:0:0:
294,51,43822,2,0,B|252:73|252:73|162:74,1,100,4|2,0:0|0:0,0:0:0:0:
149,76,44475,1,8,0:0:0:0:
51,77,44909,1,8,0:0:0:0:
51,77,45779,6,0,P|30:126|37:183,2,100,6|8|2,0:0|0:0|0:0,0:0:0:0:
126,142,47083,1,8,0:0:0:0:
205,202,47518,2,0,P|259:213|321:190,1,100,2|8,0:0|0:0,0:0:0:0:
394,164,48388,2,0,L|396:287,1,100,2|8,0:0|0:0,0:0:0:0:
320,330,49257,5,4,0:0:0:0:
219,327,49692,1,8,0:0:0:0:
178,236,50127,2,0,P|85:234|54:254,1,100,2|8,0:0|0:0,0:0:0:0:
41,268,50779,2,0,P|74:201|63:128,1,150,2|8,0:0|0:0,0:0:0:0:
1,49,51866,1,2,0:0:0:0:
100,35,52300,1,8,0:0:0:0:
154,121,52735,6,0,L|262:115,1,100,6|8,0:0|0:0,0:0:0:0:
200,31,53605,2,0,L|100:36,1,100,2|8,0:0|0:0,0:0:0:0:
61,68,54257,2,0,P|41:139|50:213,1,150,2|8,0:0|0:0,0:0:0:0:
80,254,55127,2,0,B|120:275|120:275|257:264,1,150,0|8,0:0|0:0,0:0:0:0:
320,296,56214,6,0,P|322:248|298:200,1,100,4|8,0:0|0:0,0:0:0:0:
265,165,56866,2,0,L|101:175,1,150,2|8,0:0|0:0,0:0:0:0:
76,266,57953,1,4,0:0:0:0:
131,349,58387,1,8,0:0:0:0:
229,335,58822,2,0,P|214:288|175:259,1,100,8|8,0:0|0:0,0:0:0:0:
76,266,59692,6,0,L|71:146,2,100,6|8|2,0:0|0:0|0:0,0:0:0:0:
131,349,60996,1,8,0:0:0:0:
229,335,61431,2,0,L|338:326,1,100,2|8,0:0|0:0,0:0:0:0:
332,226,62301,2,0,L|232:234,1,100,2|8,0:0|0:0,0:0:0:0:
146,188,63170,5,4,0:0:0:0:
149,88,63605,1,8,0:0:0:0:
241,41,64040,2,0,P|297:31|353:46,1,100,2|8,0:0|0:0,0:0:0:0:
376,71,64692,2,0,B|383:175|383:175|361:234,1,150,2|8,0:0|0:0,0:0:0:0:
317,300,65779,1,2,0:0:0:0:
229,252,66214,1,8,0:0:0:0:
181,163,66648,6,0,P|229:152|277:164,1,100,6|8,0:0|0:0,0:0:0:0:
367,218,67518,2,0,P|415:228|464:216,1,100,2|8,0:0|0:0,0:0:0:0:
510,194,68170,2,0,B|508:92|508:92|479:47,1,150,2|8,0:0|0:0,0:0:0:0:
438,28,69040,2,0,P|370:14|280:44,1,150,0|8,0:0|0:0,0:0:0:0:
210,89,70127,6,0,P|161:99|113:88,1,100,4|8,0:0|0:0,0:0:0:0:
71,60,70779,2,0,P|106:111|93:210,1,150,2|8,0:0|0:0,0:0:0:0:
50,282,71866,1,4,0:0:0:0:
149,285,72301,1,8,0:0:0:0:
248,288,72735,2,0,L|349:291,1,100,8|8,0:0|0:0,0:0:0:0:
424,355,73605,5,4,0:0:0:0:
341,268,80561,6,0,P|412:288|465:269,2,100,4|2|2,0:0|0:0|0:0,0:0:0:0:
291,180,81866,1,2,0:0:0:0:
378,130,82301,2,0,P|385:79|358:9,2,100,2|2|2,0:0|0:0|0:0,0:0:0:0:
291,180,83605,1,2,0:0:0:0:
242,267,84040,6,0,L|120:265,1,100,2|2,0:0|0:0,0:0:0:0:
96,177,84909,2,0,L|195:178,1,100,2|2,0:0|0:0,0:0:0:0:
148,89,85779,2,0,L|49:88,1,100,2|2,0:0|0:0,0:0:0:0:
96,177,86648,1,2,0:0:0:0:
142,265,87083,1,2,0:0:0:0:
192,355,87518,6,0,L|313:357,1,100,6|2,0:0|0:0,0:0:0:0:
341,269,88387,2,0,L|242:266,1,100,2|2,0:0|0:0,0:0:0:0:
291,180,89257,2,0,L|389:182,1,100,2|2,0:0|0:0,0:0:0:0:
486,206,90127,2,0,P|487:157|465:113,1,100,2|2,0:0|0:0,0:0:0:0:
418,97,90779,6,0,L|238:92,1,150,4|2,0:0|0:0,0:0:0:0:
182,143,91866,2,0,P|178:52|207:22,1,100,2|2,0:0|0:0,0:0:0:0:
268,93,92735,2,0,P|278:182|252:214,1,100,2|2,0:0|0:0,0:0:0:0:
238,219,93388,2,0,L|48:221,1,150,2|2,0:0|0:0,0:0:0:0:
0,172,94475,6,0,L|-1:72,1,100,4|8,0:0|0:0,0:0:0:0:
86,121,95344,2,0,L|87:220,1,100,2|8,0:0|0:0,0:0:0:0:
107,319,96214,2,0,L|206:317,1,100,2|8,0:0|0:0,0:0:0:0:
252,294,96866,2,0,P|284:233|252:132,1,150,2|8,0:0|0:0,0:0:0:0:
201,83,97953,6,0,P|256:54|304:64,1,100,2|8,0:0|0:0,0:0:0:0:
364,125,98822,2,0,L|463:121,1,100,2|8,0:0|0:0,0:0:0:0:
435,217,99692,2,0,L|335:220,1,100,2|8,0:0|0:0,0:0:0:0:
291,245,100344,2,0,P|273:321|313:391,1,150,2|8,0:0|0:0,0:0:0:0:
403,379,101431,6,0,L|502:375,1,100,4|8,0:0|0:0,0:0:0:0:
510,275,102301,1,2,0:0:0:0:
430,215,102735,1,8,0:0:0:0:
491,135,103170,2,0,P|434:113|378:129,1,100,2|8,0:0|0:0,0:0:0:0:
357,149,103822,2,0,B|314:177|314:177|185:173,1,150,2|8,0:0|0:0,0:0:0:0:
169,154,104692,6,0,P|153:78|184:11,1,150,4|8,0:0|0:0,0:0:0:0:
281,5,105779,1,2,0:0:0:0:
372,45,106214,1,8,0:0:0:0:
430,125,106648,2,0,P|438:193|424:235,1,100,4|8,0:0|0:0,0:0:0:0:
392,256,107301,2,0,P|316:272|280:258,1,100,2|2,0:0|0:0,0:0:0:0:
247,254,107953,1,8,0:0:0:0:
209,222,108170,6,0,B|203:119|203:119|241:57,1,150,4|8,0:0|0:0,0:0:0:0:
303,14,109257,2,0,P|375:4|430:26,1,100,2|8,0:0|0:0,0:0:0:0:
446,31,109909,2,0,L|452:142,1,100,2|2,0:0|0:0,0:0:0:0:
454,180,110561,1,8,0:0:0:0:
373,239,110996,2,0,P|323:246|276:232,1,100,2|8,0:0|0:0,0:0:0:0:
236,200,111648,6,0,B|201:180|201:180|75:183,1,150,4|8,0:0|0:0,0:0:0:0:
53,275,112735,2,0,L|152:272,1,100,2|8,0:0|0:0,0:0:0:0:
184,311,113388,2,0,L|283:308,1,100,2|2,0:0|0:0,0:0:0:0:
334,306,114040,1,8,0:0:0:0:
360,209,114475,2,0,L|459:206,1,100,2|8,0:0|0:0,0:0:0:0:
504,229,115127,6,0,P|521:292|505:383,1,150,4|8,0:0|0:0,0:0:0:0:
408,373,116214,2,0,L|308:369,1,100,2|8,0:0|0:0,0:0:0:0:
260,353,116866,2,0,P|243:280|264:209,1,150,4|8,0:0|0:0,0:0:0:0:
340,145,117953,2,0,P|302:114|253:109,1,100,2|8,0:0|0:0,0:0:0:0:
205,127,118605,6,0,B|50:118,1,150,4|8,0:0|0:0,0:0:0:0:
71,216,119692,2,0,L|171:222,1,100,2|8,0:0|0:0,0:0:0:0:
217,240,120344,2,0,P|248:308|231:370,1,100,4|2,0:0|0:0,0:0:0:0:
233,379,120996,1,8,0:0:0:0:
150,319,121431,1,8,0:0:0:0:
150,319,122301,6,0,P|210:331|258:311,2,100,6|8|2,0:0|0:0|0:0,0:0:0:0:
198,231,123605,1,8,0:0:0:0:
253,147,124040,2,0,L|379:149,1,100,2|8,0:0|0:0,0:0:0:0:
401,60,124909,2,0,L|301:58,1,100,2|8,0:0|0:0,0:0:0:0:
253,147,125779,5,4,0:0:0:0:
294,237,126214,1,8,0:0:0:0:
339,325,126648,2,0,L|438:326,1,100,2|8,0:0|0:0,0:0:0:0:
484,304,127301,2,0,P|502:214|462:136,1,150,4|8,0:0|0:0,0:0:0:0:
422,81,128388,1,2,0:0:0:0:
322,71,128822,1,8,0:0:0:0:
229,108,129257,6,0,P|216:156|227:212,1,100,6|8,0:0|0:0,0:0:0:0:
304,264,130127,2,0,P|311:312|298:360,1,100,2|8,0:0|0:0,0:0:0:0:
252,380,130779,2,0,L|92:380,1,150,2|8,0:0|0:0,0:0:0:0:
59,353,131648,2,0,B|56:245|56:245|95:179,1,150,0|8,0:0|0:0,0:0:0:0:
151,142,132735,6,0,P|210:128|270:155,1,100,4|8,0:0|0:0,0:0:0:0:
290,163,133388,2,0,B|293:271|293:271|254:337,1,150,2|8,0:0|0:0,0:0:0:0:
198,375,134475,1,4,0:0:0:0:
98,376,134909,1,8,0:0:0:0:
35,297,135344,2,0,P|29:243|41:195,1,100,8|8,0:0|0:0,0:0:0:0:
102,119,136214,6,0,L|2:119,2,100,6|8|2,0:0|0:0|0:0,0:0:0:0:
175,50,137518,1,8,0:0:0:0:
251,114,137953,2,0,P|264:180|243:236,1,100,2|8,0:0|0:0,0:0:0:0:
267,311,138822,2,0,P|218:307|180:276,1,100,2|8,0:0|0:0,0:0:0:0:
256,210,139692,5,4,0:0:0:0:
347,250,140127,1,8,0:0:0:0:
439,287,140561,2,0,P|445:224|418:176,1,100,2|8,0:0|0:0,0:0:0:0:
389,162,141214,2,0,B|219:158,1,150,2|8,0:0|0:0,0:0:0:0:
204,64,142301,1,2,0:0:0:0:
104,52,142735,1,8,0:0:0:0:
15,98,143170,6,0,P|1:145|9:194,1,100,6|8,0:0|0:0,0:0:0:0:
93,248,144040,2,0,P|102:296|87:344,1,100,2|8,0:0|0:0,0:0:0:0:
45,372,144692,2,0,L|207:372,1,150,2|8,0:0|0:0,0:0:0:0:
245,366,145561,2,0,P|260:273|236:203,1,150,0|8,0:0|0:0,0:0:0:0:
168,156,146648,6,0,P|206:126|264:122,1,100,4|8,0:0|0:0,0:0:0:0:
299,147,147301,2,0,B|338:169|338:169|474:160,1,150,2|8,0:0|0:0,0:0:0:0:
420,259,148387,1,4,0:0:0:0:
403,356,148822,2,0,L|236:351,1,150,8|0,0:0|0:0,0:0:0:0:
202,349,149692,1,8,0:0:0:0:
103,346,150127,5,6,0:0:0:0:
211,132,164040,6,0,P|118:111|78:126,1,100,4|8,0:0|0:0,0:0:0:0:
93,208,164909,2,0,P|186:229|226:214,1,100,8|8,0:0|0:0,0:0:0:0:
280,189,165779,2,0,L|283:83,1,100,8|8,0:0|0:0,0:0:0:0:
372,44,166648,2,0,L|369:143,1,100,8|8,0:0|0:0,0:0:0:0:
366,244,167518,6,0,P|448:251|478:237,2,100,2|8|2,0:0|0:0|0:0,0:0:0:0:
281,184,168822,1,8,0:0:0:0:
202,252,169257,2,0,P|120:259|90:245,2,100,2|8|2,0:0|0:0|0:0,0:0:0:0:
281,184,170561,1,8,0:0:0:0:
287,283,170996,5,4,0:0:0:0:
27,340,177735,6,0,P|96:363|167:341,1,150,4|8,0:0|0:0,0:0:0:0:
243,276,178822,2,0,P|300:267|343:281,1,100,2|8,0:0|0:0,0:0:0:0:
380,308,179475,2,0,P|376:203|408:166,1,150,2|8,0:0|0:0,0:0:0:0:
465,95,180561,2,0,P|395:73|355:84,1,100,2|8,0:0|0:0,0:0:0:0:
331,109,181214,6,0,B|297:137|297:137|160:131,1,150,4|8,0:0|0:0,0:0:0:0:
105,80,182301,2,0,P|95:163|126:204,1,100,2|8,0:0|0:0,0:0:0:0:
127,217,182953,2,0,B|232:221|232:221|264:252,1,150,2|8,0:0|0:0,0:0:0:0:
192,322,184040,2,0,L|93:319,1,100,2|8,0:0|0:0,0:0:0:0:
54,286,184692,6,0,P|42:179|93:117,1,150,4|8,0:0|0:0,0:0:0:0:
16,56,185779,2,0,P|58:46|115:59,1,100,2|8,0:0|0:0,0:0:0:0:
151,89,186431,2,0,B|186:111|186:111|330:111,1,150,4|8,0:0|0:0,0:0:0:0:
330,204,187518,2,0,L|230:204,1,100,2|8,0:0|0:0,0:0:0:0:
189,234,188170,6,0,P|173:330|210:380,1,150,4|8,0:0|0:0,0:0:0:0:
265,297,189257,1,2,0:0:0:0:
364,289,189692,1,8,0:0:0:0:
451,337,190127,2,0,P|462:282|447:232,1,100,2|8,0:0|0:0,0:0:0:0:
363,194,190996,2,0,P|351:145|364:98,1,100,2|8,0:0|0:0,0:0:0:0:
391,56,191648,6,0,L|196:56,1,150,4|2,0:0|0:0,0:0:0:0:
162,117,192735,2,0,L|112:117,2,50,2|0|2,0:0|0:0|0:0,0:0:0:0:
203,145,193388,2,0,P|228:233|213:272,1,100,4|2,0:0|0:0,0:0:0:0:
206,288,194040,1,8,0:0:0:0:
125,342,194475,1,2,0:0:0:0:
125,342,195344,6,0,L|3:339,2,100,6|8|2,0:0|0:0|0:0,0:0:0:0:
207,284,196648,1,8,0:0:0:0:
298,327,197083,2,0,P|306:278|292:230,1,100,2|8,0:0|0:0,0:0:0:0:
203,184,197953,2,0,L|75:182,1,100,2|8,0:0|0:0,0:0:0:0:
138,88,198822,5,4,0:0:0:0:
237,89,199256,1,8,0:0:0:0:
327,134,199692,2,0,P|340:181|327:232,1,100,2|8,0:0|0:0,0:0:0:0:
302,273,200344,2,0,L|152:273,1,150,4|8,0:0|0:0,0:0:0:0:
177,369,201431,2,0,L|277:369,1,100,2|8,0:0|0:0,0:0:0:0:
373,342,202301,6,0,L|473:342,1,100,6|8,0:0|0:0,0:0:0:0:
511,249,203170,2,0,P|511:166|498:139,1,100,2|8,0:0|0:0,0:0:0:0:
472,113,203822,2,0,P|356:102|316:117,1,150,2|8,0:0|0:0,0:0:0:0:
285,142,204692,2,0,B|283:242|283:242|311:283,1,150,0|8,0:0|0:0,0:0:0:0:
384,351,205779,6,0,L|484:351,1,100,4|8,0:0|0:0,0:0:0:0:
511,308,206431,2,0,B|513:208|513:208|476:154,1,150,2|8,0:0|0:0,0:0:0:0:
389,136,207518,1,4,0:0:0:0:
288,138,207953,1,8,0:0:0:0:
213,204,208388,2,0,L|113:204,1,100,8|8,0:0|0:0,0:0:0:0:
36,139,209257,6,0,P|29:69|46:26,2,100,6|8|2,0:0|0:0|0:0,0:0:0:0:
113,204,210561,1,8,0:0:0:0:
193,264,210996,2,0,L|292:263,1,100,2|8,0:0|0:0,0:0:0:0:
315,165,211866,2,0,L|215:165,1,100,2|8,0:0|0:0,0:0:0:0:
237,66,212735,5,4,0:0:0:0:
337,66,213169,1,8,0:0:0:0:
426,111,213605,2,0,P|440:180|427:223,1,100,2|8,0:0|0:0,0:0:0:0:
401,244,214257,2,0,L|250:244,1,150,2|8,0:0|0:0,0:0:0:0:
190,324,215344,1,2,0:0:0:0:
90,319,215779,1,8,0:0:0:0:
29,239,216214,6,0,L|30:125,1,100,6|8,0:0|0:0,0:0:0:0:
0,36,217083,2,0,P|43:32|97:54,1,100,2|8,0:0|0:0,0:0:0:0:
126,91,217735,2,0,L|287:91,1,150,2|8,0:0|0:0,0:0:0:0:
313,57,218605,2,0,L|474:57,1,150,0|8,0:0|0:0,0:0:0:0:
406,139,219692,5,4,0:0:0:0:
409,238,220127,1,8,0:0:0:0:
319,307,220561,2,0,L|190:307,1,100,0|8,0:0|0:0,0:0:0:0:
125,269,221431,2,0,L|125:178,2,50,4|2|8,0:0|0:0|0:0,0:0:0:0:
28,296,222301,2,0,L|28:167,1,100,8|2,0:0|0:0,0:0:0:0:
125,219,223170,6,0,P|208:234|290:212,2,150,2|0|0,0:0|0:0|0:0,0:0:0:0:
37,171,224909,2,0,L|39:54,1,100,0|0,0:0|0:0,0:0:0:0:
122,14,225779,2,0,P|170:7|220:14,1,100,0|0,0:0|0:0,0:0:0:0:
307,69,226648,5,6,0:0:0:0:
238,143,227083,1,8,0:0:0:0:
332,176,227518,2,0,L|462:175,1,100,2|8,0:0|0:0,0:0:0:0:
464,270,228388,2,0,L|364:270,1,100,4|8,0:0|0:0,0:0:0:0:
311,355,229257,2,0,L|211:355,1,100,2|8,0:0|0:0,0:0:0:0:
147,277,230127,5,4,0:0:0:0:
81,351,230561,1,8,0:0:0:0:
31,266,230996,2,0,P|23:211|55:148,1,100,2|8,0:0|0:0,0:0:0:0:
132,138,231866,2,0,L|254:139,1,100,2|8,0:0|0:0,0:0:0:0:
284,226,232735,2,0,L|406:227,1,100,8|8,0:0|0:0,0:0:0:0:
435,141,233605,5,6,0:0:0:0:
335,140,234040,1,8,0:0:0:0:
284,226,234475,2,0,L|286:344,1,100,2|8,0:0|0:0,0:0:0:0:
385,326,235344,2,0,L|383:226,1,100,2|8,0:0|0:0,0:0:0:0:
335,140,236214,2,0,P|264:126|222:147,1,100,2|8,0:0|0:0,0:0:0:0:
195,224,237083,5,4,0:0:0:0:
95,226,237517,1,8,0:0:0:0:
139,136,237953,2,0,L|239:134,1,100,2|8,0:0|0:0,0:0:0:0:
208,38,238822,2,0,L|108:40,1,100,4|8,0:0|0:0,0:0:0:0:
62,61,239475,2,0,P|35:153|60:207,1,150,2|8,0:0|0:0,0:0:0:0:
129,265,240561,5,4,0:0:0:0:
228,254,240996,1,8,0:0:0:0:
281,169,241431,2,0,P|316:202|328:250,1,100,2|8,0:0|0:0,0:0:0:0:
275,335,242301,2,0,P|239:301|227:253,1,100,2|8,0:0|0:0,0:0:0:0:
281,169,243170,2,0,L|401:167,1,100,2|8,0:0|0:0,0:0:0:0:
476,138,244040,5,4,0:0:0:0:
468,38,244475,1,8,0:0:0:0:
376,3,244909,2,0,P|330:-8|276:4,1,100,2|8,0:0|0:0,0:0:0:0:
232,91,245779,2,0,L|236:230,1,100,2|8,0:0|0:0,0:0:0:0:
141,149,246648,2,0,L|138:49,1,100,8|8,0:0|0:0,0:0:0:0:
44,9,247518,5,4,0:0:0:0:
47,107,247953,1,8,0:0:0:0:
141,149,248388,2,0,L|270:147,1,100,2|8,2:0|0:0,0:0:0:0:
265,244,249257,2,0,L|165:245,1,100,4|8,0:0|0:0,0:0:0:0:
190,343,250127,2,0,L|289:341,1,100,2|8,0:0|0:0,0:0:0:0:
330,312,250779,6,0,L|429:310,1,100,4|2,0:0|0:0,0:0:0:0:
471,282,251431,2,0,P|475:198|452:157,1,100,8|8,0:0|0:0,0:0:0:0:
423,95,252301,1,8,0:0:0:0:
334,47,252735,2,0,L|209:47,1,100,4|8,0:0|0:0,0:0:0:0:
182,49,253388,1,4,0:0:0:0:
