osu file format v14

[General]
AudioFilename: Detektiv_Conan_-_Mit_aller_Kraft_(Lyrics).mp3
AudioLeadIn: 0
PreviewTime: 63489
Countdown: 0
SampleSet: Normal
StackLeniency: 0.7
Mode: 0
LetterboxInBreaks: 0
WidescreenStoryboard: 1

[Editor]
DistanceSpacing: 0.8
BeatDivisor: 4
GridSize: 4
TimelineZoom: 1

[Metadata]
Title:Mit aller Kraft
TitleUnicode:Mit aller Kraft
Artist:Petra Scheeser
ArtistUnicode:Petra Scheeser
Creator:Yakumo09
Version:Ai
Source:Detective Conan
Tags:Detective Conan Opening
BeatmapID:938239
BeatmapSetID:360474

[Difficulty]
HPDrainRate:4
CircleSize:3
OverallDifficulty:4
ApproachRate:5
SliderMultiplier:1.4
SliderTickRate:2

[Events]
//Background and Video events
0,0,"shinichi-and-ran-3-detective-conan-10119297-1024-768.jpg",0,0
Video,0,"Detective conan opening 5.mp4"
//Break Periods
//Storyboard Layer 0 (Background)
//Storyboard Layer 1 (Fail)
//Storyboard Layer 2 (Pass)
//Storyboard Layer 3 (Foreground)
//Storyboard Sound Samples

[TimingPoints]
83,386.6228494104,4,1,0,100,1,0
63489,-100,4,1,0,100,0,1
69288,-100,4,1,0,100,0,0

[HitObjects]
52,340,15547,6,0,B|40:296|56:272|24:240|88:200|32:188,1,140
52,144,16127,1,0,0:0:0:0:
68,92,16321,2,0,B|96:60|120:72|148:48|184:56|216:40|216:40|216:40,1,140
308,60,17094,2,0,B|284:104|320:116|280:140|336:168|276:200,1,140
268,244,17674,1,0,0:0:0:0:
236,288,17867,2,0,B|156:300|120:292|96:312|96:276,1,140
84,180,18640,6,0,P|104:104|176:60,2,140
96,292,19800,1,0,0:0:0:0:
196,344,20187,1,0,0:0:0:0:
308,348,20574,1,0,0:0:0:0:
396,280,20960,2,0,B|384:208|392:204|392:204|380:208|408:208|408:208|408:208,2,70
292,316,21733,5,0,0:0:0:0:
292,316,22120,2,0,B|252:280|212:312|200:288|168:308|172:336|144:280,1,140
84,224,22893,1,0,0:0:0:0:
84,224,23280,2,0,B|64:180|100:144|68:112|104:88|92:84,2,140
132,324,24440,1,0,0:0:0:0:
244,332,24826,2,0,P|312:316|368:268,1,140
368,160,25600,2,0,P|308:112|236:104,1,140
136,108,26373,1,0,0:0:0:0:
56,184,26759,1,0,0:0:0:0:
56,296,27146,1,0,0:0:0:0:
256,192,27533,12,0,30626,0:0:0:0:
52,348,31012,6,0,B|48:308|68:276|44:252|68:236|44:212|68:204,1,140
88,160,31592,1,0,0:0:0:0:
132,124,31786,2,0,B|192:116|208:96|244:124|272:96|288:124,1,140
384,112,32559,2,0,L|384:36,2,70
384,168,33139,1,0,0:0:0:0:
384,224,33332,2,0,L|384:300,2,70
272,240,34105,6,0,B|284:180|256:160|280:144|256:128|280:112|240:108,1,140
200,84,34685,1,0,0:0:0:0:
148,64,34879,2,0,B|128:40|116:64|88:56|80:32|28:104,1,140
44,212,35652,2,0,L|-40:212,2,70
100,212,36232,1,0,0:0:0:0:
156,212,36425,2,0,L|240:212,2,70
156,100,37198,1,0,0:0:0:0:
268,96,37585,6,0,B|328:96|356:112|328:72,2,70
164,136,38358,1,0,0:0:0:0:
68,196,38745,2,0,B|4:236|72:268|20:324,2,140
160,132,39905,2,0,L|160:60,2,70
160,244,40678,1,0,0:0:0:0:
260,296,41065,2,0,B|304:312|324:300|336:308|344:284|352:308,2,70
172,228,41838,1,0,0:0:0:0:
136,120,42224,2,0,B|104:100|116:64|68:68|88:28|40:36|68:8,2,140
92,224,43384,6,0,B|100:260|140:272|164:304|212:300,1,140
256,304,43964,1,0,0:0:0:0:
300,300,44158,2,0,B|344:300|364:276|396:268|408:224,1,140
412,168,44737,1,0,0:0:0:0:
412,112,44931,2,0,B|404:48|368:68|352:28|308:32,1,140
256,28,45511,1,0,0:0:0:0:
200,28,45704,2,0,B|160:24|144:52|112:40|96:104,1,140
256,192,46477,12,0,49184,0:0:0:0:
108,244,49570,6,0,B|48:272|108:296|48:328|108:360,2,140
108,132,50730,2,0,B|48:104|108:76|48:44|108:20,2,140
204,192,51890,2,0,B|244:168|280:212|316:168|352:192,1,140
456,192,52663,2,0,B|432:224|472:252|432:264|460:292|396:312,1,140
348,320,53243,1,0,0:0:0:0:
292,324,53436,2,0,B|252:296|220:340|188:296|156:340|136:288,1,140
68,240,54210,2,0,B|40:232|28:272|-4:264,2,70
116,212,54790,1,0,0:0:0:0:
160,176,54983,2,0,B|144:140|188:128|160:96,2,70
52,144,55756,6,0,B|60:96|108:96|112:52|164:52,1,140
208,52,56336,1,0,0:0:0:0:
264,52,56529,2,0,B|316:52|308:100|368:100|360:156,1,140
360,200,57109,1,0,0:0:0:0:
360,256,57303,2,0,B|360:288|344:320|304:344|248:344,1,140
212,348,57883,1,0,0:0:0:0:
156,344,58076,2,0,B|104:332|72:308|64:288|60:248,1,140
60,200,58656,1,0,0:0:0:0:
60,144,58849,2,0,B|24:136|48:112|16:108|28:88,2,70
108,116,59429,1,0,0:0:0:0:
156,84,59622,2,0,B|140:52|164:32|140:16,2,70
256,192,60396,12,0,63102,0:0:0:0:
20,240,63489,6,0,P|72:312|120:328,1,140
172,336,64069,1,0,0:0:0:0:
228,336,64262,2,0,P|268:336|320:336,1,70
356,336,64649,1,0,0:0:0:0:
364,224,65035,2,0,P|400:172|358:108,1,140
312,100,65615,1,0,0:0:0:0:
256,100,65808,2,0,P|208:100|172:100,1,70
132,104,66195,1,0,0:0:0:0:
128,216,66582,6,0,P|136:272|164:296,3,70
188,316,67355,1,0,0:0:0:0:
240,300,67548,2,0,P|296:276|320:276,3,70
360,260,68321,1,0,0:0:0:0:
400,220,68515,2,0,P|420:168|416:152,2,70
256,48,69675,6,0,B|176:44|104:44|80:24|88:28,2,140
348,112,70834,1,0,0:0:0:0:
400,212,71221,2,0,B|408:260|424:312|396:344|436:368,2,140
348,112,72381,1,0,0:0:0:0:
236,108,72768,2,0,P|152:84|100:104,1,140
64,140,73348,1,0,0:0:0:0:
40,192,73541,2,0,P|40:248|104:320,1,140
136,336,74121,1,0,0:0:0:0:
192,336,74314,2,0,L|280:336,4,70
112,256,75474,1,0,0:0:0:0:
108,144,75861,6,0,P|140:64|188:56,1,140
240,56,76441,1,0,0:0:0:0:
296,60,76634,2,0,P|348:68|380:164,1,140
400,252,77407,2,0,P|388:300|304:332,1,140
256,340,77987,1,0,0:0:0:0:
200,340,78180,2,0,P|156:324|136:292,1,70
120,256,78567,1,0,0:0:0:0:
120,144,78954,2,0,P|120:80|188:52,1,140
296,52,79727,2,0,P|360:80|360:148,1,140
316,244,80500,1,0,0:0:0:0:
256,336,80887,1,0,0:0:0:0:
192,244,81273,1,0,0:0:0:0:
100,180,81660,6,0,B|72:168|52:148|60:108,1,70
60,72,82047,2,0,P|156:24|216:24,2,140
52,184,83206,1,0,0:0:0:0:
52,296,83593,2,0,P|156:336|212:332,2,140
92,192,84753,1,0,0:0:0:0:
204,172,85140,2,0,L|204:100,3,70
260,100,85913,2,0,L|260:28,3,70
316,28,86686,2,0,L|396:28,4,70
256,192,87846,12,0,91325,0:0:0:0:
