osu file format v14

[General]
AudioFilename: audio.mp3
AudioLeadIn: 0
PreviewTime: 65044
Countdown: 0
SampleSet: Soft
StackLeniency: 0.2
Mode: 0
LetterboxInBreaks: 0
WidescreenStoryboard: 0

[Editor]
DistanceSpacing: 1.2
BeatDivisor: 4
GridSize: 16
TimelineZoom: 4.400001

[Metadata]
Title:Kyun! Vampire Girl
TitleUnicode:きゅんっ!ヴァンパイアガール
Artist:Petit Vampire
ArtistUnicode:プチヴァンパイア
Creator:Fu3ya_
Version:Tasty Blood
Source:アイドルマスター ミリオンライブ!
Tags:アイマス ミリマス ミリシタ _kotachi_ -Brethia SeiraN- fumiya 中谷育 周防桃子 水瀬伊織 原嶋あかり 渡部恵子 釘宮理恵 THE IDOLM@STER MASTER ARTIST 3 04 Million Live アイドルマスター2 japanese idol imas im@s video game nakatani Iku Harashima Akari Suou Momoko Watanabe Keiko Minase Iori Kugimiya Rie ANIM@TION animation 生っすかSPECIAL 01 ササキ トモコ Sasaki Tomoko
BeatmapID:2387517
BeatmapSetID:1143373

[Difficulty]
HPDrainRate:5.5
CircleSize:3.8
OverallDifficulty:9
ApproachRate:9.3
SliderMultiplier:2.2
SliderTickRate:1

[Events]
//Background and Video events
0,0,"ikumomoFES.jpg",0,0
//Break Periods
//Storyboard Layer 0 (Background)
//Storyboard Layer 1 (Fail)
//Storyboard Layer 2 (Pass)
//Storyboard Layer 3 (Foreground)
//Storyboard Layer 4 (Overlay)
//Storyboard Sound Samples

[TimingPoints]
596,413.793103448276,4,2,1,30,1,0
1423,-133.333333333333,4,2,1,30,0,0
2251,-133.333333333333,4,2,1,50,0,0
5147,-200,4,2,1,50,0,0
5768,-133.333333333333,4,2,1,50,0,0
8458,-333.333333333333,4,2,1,50,0,0
8768,-333.333333333333,4,2,1,5,0,0
8871,-133.333333333333,4,2,1,60,0,0
9699,-200,4,2,1,60,0,0
10009,-200,4,2,1,5,0,0
10113,-100,4,2,1,60,0,0
10423,-100,4,2,1,5,0,0
10527,-100,4,2,1,60,0,0
11354,-200,4,2,1,60,0,0
11664,-200,4,2,1,5,0,0
11768,-100,4,2,1,60,0,0
12078,-100,4,2,1,5,0,0
12182,-66.6666666666667,4,2,1,40,0,0
12285,-66.6666666666667,4,2,1,5,0,0
12389,-500,4,2,1,40,0,0
12802,-500,4,2,1,5,0,0
13009,-66.6666666666667,4,2,1,40,0,0
13112,-66.6666666666667,4,2,1,5,0,0
13216,-500,4,2,1,40,0,0
13629,-500,4,2,1,5,0,0
13837,-50,4,2,1,70,0,0
13940,-50,4,2,1,5,0,0
14044,-333.333333333333,4,2,1,70,0,0
14457,-333.333333333333,4,2,1,5,0,0
14664,-50,4,2,1,70,0,0
14767,-50,4,2,1,5,0,0
14871,-333.333333333333,4,2,1,70,0,0
15285,-333.333333333333,4,2,1,5,0,0
15492,-333.333333333333,4,2,1,70,0,0
16320,-333.333333333333,4,2,1,50,0,0
17561,-333.333333333333,4,2,1,40,0,0
17871,-333.333333333333,4,2,1,5,0,0
17975,-333.333333333333,4,2,1,40,0,0
18802,-111.111111111111,4,2,1,50,0,0
20871,-55.5555555555556,4,2,1,50,0,0
20974,-55.5555555555556,4,2,1,5,0,0
21078,-55.5555555555556,4,2,1,50,0,0
21595,-55.5555555555556,4,2,1,5,0,0
21699,-250,4,2,1,50,0,0
23458,-250,4,2,1,5,0,0
23561,-153.846153846153,4,2,1,50,0,0
24802,-250,4,2,1,50,0,0
26251,-111.111111111111,4,2,1,50,0,0
30182,-250,4,2,1,50,0,0
34113,-55.5555555555556,4,2,1,50,0,0
34216,-55.5555555555556,4,2,1,5,0,0
34320,-55.5555555555556,4,2,1,50,0,0
34836,-55.5555555555556,4,2,1,5,0,0
34940,-250,4,2,1,50,0,0
35975,-111.111111111111,4,2,1,50,0,0
36389,-250,4,2,1,50,0,0
36699,-250,4,2,1,5,0,0
36802,-153.846153846153,4,2,1,50,0,0
38044,-250,4,2,1,50,0,0
39492,-111.111111111111,4,2,1,50,0,0
42906,-111.111111111111,4,2,1,5,0,0
43009,-250,4,2,1,50,0,0
43319,-250,4,2,1,5,0,0
43423,-166.666666666667,4,2,1,50,0,0
44354,-166.666666666667,4,2,1,5,0,0
44458,-90.9090909090909,4,2,1,50,0,0
44768,-90.9090909090909,4,2,1,5,0,0
44871,-133.333333333333,4,2,1,50,0,0
45181,-133.333333333333,4,2,1,5,0,0
45285,-111.111111111111,4,2,1,60,0,0
48596,-250,4,2,1,60,0,0
49113,-66.6666666666667,4,2,1,60,0,0
49630,-250,4,2,1,60,0,0
49940,-250,4,2,1,5,0,0
50044,-66.6666666666667,4,2,1,60,0,0
51906,-250,4,2,1,60,0,0
52423,-66.6666666666667,4,2,1,60,0,0
52940,-250,4,2,1,60,0,0
53250,-250,4,2,1,5,0,0
53354,-66.6666666666667,4,2,1,60,0,0
55216,-133.333333333333,4,2,1,60,0,0
58527,-66.6666666666667,4,2,1,80,0,0
58630,-66.6666666666667,4,2,1,5,0,0
58733,-33.3333333333333,4,2,1,80,0,0
58836,-33.3333333333333,4,2,1,5,0,0
58940,-250,4,2,1,80,0,0
59250,-250,4,2,1,5,0,0
59354,-66.6666666666667,4,2,1,80,0,0
59457,-66.6666666666667,4,2,1,5,0,0
59561,-33.3333333333333,4,2,1,80,0,0
59664,-33.3333333333333,4,2,1,5,0,0
59768,-250,4,2,1,80,0,0
60078,-250,4,2,1,5,0,0
60182,-50,4,2,1,80,0,0
60285,-50,4,2,1,5,0,0
60389,-50,4,2,1,80,0,0
60492,-50,4,2,1,5,0,0
60596,-50,4,2,1,80,0,0
60699,-50,4,2,1,5,0,0
60802,-66.6666666666667,4,2,1,80,0,0
61215,-66.6666666666667,4,2,1,50,0,0
61837,-133.333333333333,4,2,1,60,0,0
65147,-50,4,2,1,80,0,0
65250,-50,4,2,1,5,0,0
65354,-250,4,2,1,80,0,0
65458,-250,4,2,1,5,0,0
65975,-100,4,2,1,50,0,0
66802,-50,4,2,1,80,0,0
67008,-50,4,2,1,5,0,0
67113,-50,4,2,1,80,0,0
67319,-50,4,2,1,5,0,0
67423,-50,4,2,1,80,0,0
67526,-50,4,2,1,5,0,0
67630,-50,4,2,1,80,0,0
67836,-50,4,2,1,5,0,0
67940,-50,4,2,1,80,0,0
68147,-50,4,2,1,5,0,0
68251,-50,4,2,1,80,0,0
68354,-50,4,2,1,5,0,0
68458,-100,4,2,1,80,0,0
68768,-100,4,2,1,5,0,0
68871,-100,4,2,1,60,0,0
69285,-100,4,2,1,50,0,0
69699,-100,4,2,1,40,0,0
70113,-100,4,2,1,70,0,0
70320,-133.333333333333,4,2,1,70,0,0
70733,-66.6666666666667,4,2,1,70,0,0
71147,-333.333333333333,4,2,1,70,0,0
71664,-333.333333333333,4,2,1,5,0,0
71768,-66.6666666666667,4,2,1,90,0,1
77768,-33.3333333333333,4,2,1,90,0,1
77975,-250,4,2,1,90,0,1
78285,-250,4,2,1,5,0,1
78389,-66.6666666666667,4,2,1,90,0,1
81699,-33.3333333333333,4,2,1,90,0,1
81802,-33.3333333333333,4,2,1,5,0,1
81906,-133.333333333333,4,2,1,90,0,1
82009,-133.333333333333,4,2,1,5,0,1
82113,-133.333333333333,4,2,1,90,0,1
82527,-133.333333333333,4,2,1,70,0,1
82940,-133.333333333333,4,2,1,50,0,1
83354,-33.3333333333333,4,2,1,90,0,1
83457,-33.3333333333333,4,2,1,5,0,1
83561,-133.333333333333,4,2,1,90,0,1
83664,-133.333333333333,4,2,1,5,0,1
83768,-133.333333333333,4,2,1,50,0,1
84182,-133.333333333333,4,2,1,70,0,1
84596,-133.333333333333,4,2,1,90,0,1
85009,-33.3333333333333,4,2,1,90,0,1
85112,-33.3333333333333,4,2,1,5,0,1
85216,-333.333333333333,4,2,1,90,0,1
85320,-333.333333333333,4,2,1,5,0,1
85837,-33.3333333333333,4,2,1,90,0,1
85940,-33.3333333333333,4,2,1,5,0,1
86044,-333.333333333333,4,2,1,90,0,1
86147,-333.333333333333,4,2,1,5,0,1
86664,-33.3333333333333,4,2,1,90,0,1
86767,-33.3333333333333,4,2,1,5,0,1
86871,-50,4,2,1,90,0,1
86974,-50,4,2,1,5,0,1
87078,-133.333333333333,4,2,1,80,0,0
87182,-133.333333333333,4,2,1,5,0,0
89147,-133.333333333333,4,2,1,50,0,0
89975,-133.333333333333,4,2,1,60,0,0
92871,-200,4,2,1,60,0,0
93492,-133.333333333333,4,2,1,60,0,0
94940,-33.3333333333333,4,2,1,80,0,0
95043,-33.3333333333333,4,2,1,5,0,0
95147,-333.333333333333,4,2,1,80,0,0
95251,-333.333333333333,4,2,1,5,0,0
95768,-33.3333333333333,4,2,1,80,0,0
95871,-33.3333333333333,4,2,1,5,0,0
95975,-333.333333333333,4,2,1,80,0,0
96078,-333.333333333333,4,2,1,5,0,0
96596,-100,4,2,1,80,0,0
96906,-100,4,2,1,5,0,0
97009,-100,4,2,1,60,0,0
97423,-100,4,2,1,50,0,0
97837,-100,4,2,1,40,0,0
98251,-100,4,2,1,70,0,0
98458,-133.333333333333,4,2,1,70,0,0
98871,-66.6666666666667,4,2,1,70,0,0
99285,-333.333333333333,4,2,1,70,0,0
99802,-333.333333333333,4,2,1,5,0,0
99906,-66.6666666666667,4,2,1,90,0,1
104871,-33.3333333333333,4,2,1,70,0,1
104974,-33.3333333333333,4,2,1,5,0,1
105078,-33.3333333333333,4,2,1,70,0,1
105181,-33.3333333333333,4,2,1,5,0,1
105285,-33.3333333333333,4,2,1,70,0,1
105388,-33.3333333333333,4,2,1,5,0,1
105492,-100,4,2,1,90,0,1
105802,-100,4,2,1,5,0,1
105906,-33.3333333333333,4,2,1,90,0,1
106009,-33.3333333333333,4,2,1,5,0,1
106113,-250,4,2,1,90,0,1
106423,-250,4,2,1,5,0,1
106527,-66.6666666666667,4,2,1,90,0,1
109837,-33.3333333333333,4,2,1,90,0,1
109940,-33.3333333333333,4,2,1,5,0,1
110044,-133.333333333333,4,2,1,90,0,1
110147,-133.333333333333,4,2,1,5,0,1
110251,-133.333333333333,4,2,1,90,0,1
110664,-133.333333333333,4,2,1,70,0,1
111078,-133.333333333333,4,2,1,50,0,1
111492,-33.3333333333333,4,2,1,90,0,1
111595,-33.3333333333333,4,2,1,5,0,1
111699,-133.333333333333,4,2,1,90,0,1
111802,-133.333333333333,4,2,1,5,0,1
111906,-133.333333333333,4,2,1,50,0,1
112320,-133.333333333333,4,2,1,70,0,1
112733,-133.333333333333,4,2,1,90,0,1
113147,-33.3333333333333,4,2,1,90,0,1
113250,-33.3333333333333,4,2,1,5,0,1
113354,-333.333333333333,4,2,1,90,0,1
113458,-333.333333333333,4,2,1,5,0,1
113975,-33.3333333333333,4,2,1,90,0,1
114078,-33.3333333333333,4,2,1,5,0,1
114182,-333.333333333333,4,2,1,90,0,1
114285,-333.333333333333,4,2,1,5,0,1
114802,-33.3333333333333,4,2,1,90,0,1
114905,-33.3333333333333,4,2,1,5,0,1
115009,-50,4,2,1,90,0,1
115112,-50,4,2,1,5,0,1
115216,-133.333333333333,4,2,1,90,0,0
117181,-133.333333333333,4,2,1,5,0,0
117285,-133.333333333333,4,2,1,50,0,0
118113,-33.3333333333333,4,2,1,90,0,1
118216,-33.3333333333333,4,2,1,5,0,1
118320,-33.3333333333333,4,2,1,90,0,1
118423,-33.3333333333333,4,2,1,5,0,1
118527,-33.3333333333333,4,2,1,90,0,1
118630,-33.3333333333333,4,2,1,5,0,1
118733,-200,4,2,1,90,0,1
119043,-200,4,2,1,5,0,1
119147,-33.3333333333333,4,2,1,90,0,1
119250,-33.3333333333333,4,2,1,5,0,1
119354,-33.3333333333333,4,2,1,90,0,1
119457,-33.3333333333333,4,2,1,5,0,1
119561,-33.3333333333333,4,2,1,90,0,1
119664,-33.3333333333333,4,2,1,5,0,1
119768,-200,4,2,1,90,0,1
120182,-200,4,2,1,30,0,0

[Colours]
Combo1 : 0,0,200
Combo2 : 200,0,0
Combo3 : 200,200,0
Combo4 : 150,0,150

[HitObjects]
105,113,1423,6,0,P|147:158|218:136,1,123.887504720688,8|8,2:1|2:1,2:0:0:0:
235,129,1837,1,8,2:1:0:0:
229,169,1940,1,4,2:3:0:0:
224,210,2044,1,4,2:3:0:0:
224,210,2251,5,6,3:2:0:0:
400,78,2458,2,0,P|423:156|447:249,1,165.000006294251,2|2,3:2|3:2,2:0:0:0:
272,362,3078,1,8,3:1:0:0:
224,304,3285,1,2,2:0:0:0:
297,292,3492,1,14,2:1:0:0:
272,362,3699,1,2,2:0:0:0:
138,195,3906,5,0,3:2:0:0:
354,349,4113,1,8,2:1:0:0:
373,278,4320,1,0,3:2:0:0:
393,204,4527,1,0,3:2:0:0:
194,374,4733,1,8,3:1:0:0:
117,120,4940,1,2,2:0:0:0:
267,180,5147,2,0,L|249:242,1,55.2383333333334,14|2,2:1|2:0,2:0:0:0:
69,278,5561,5,2,3:2:0:0:
144,41,5768,2,0,P|228:21|312:7,1,165.316256294251,2|2,3:2|3:2,2:0:0:0:
251,232,6389,1,8,3:1:0:0:
199,178,6596,1,2,2:0:0:0:
271,160,6802,1,14,2:1:0:0:
251,232,7009,1,2,2:0:0:0:
361,81,7216,5,0,3:2:0:0:
82,136,7423,1,8,2:1:0:0:
129,194,7630,1,0,3:2:0:0:
179,248,7837,1,0,3:2:0:0:
361,81,8044,1,8,3:1:0:0:
227,303,8251,1,0,2:0:0:0:
501,142,8458,6,0,P|492:170|486:201,1,49.5549984893799,6|0,2:0|2:0,2:0:0:0:
456,220,8871,6,0,P|420:247|373:246,1,82.8575031471254,4|0,3:2|2:0,2:0:0:0:
220,105,9285,1,0,3:2:0:0:
301,142,9492,1,0,3:2:0:0:
63,231,9699,6,0,L|48:138,1,82.5916666666667,8|0,3:1|2:0,2:0:0:0:
24,113,10113,6,0,L|50:286,1,165.183333333333,12|0,3:1|2:0,2:0:0:0:
60,350,10527,5,0,3:2:0:0:
220,105,10733,1,8,2:1:0:0:
209,178,10940,1,0,3:2:0:0:
197,251,11147,1,0,3:2:0:0:
73,57,11354,6,0,P|109:35|153:19,1,82.5916666666667,8|0,3:1|2:0,2:0:0:0:
178,44,11768,6,0,P|247:75|336:97,1,165.183333333333,4|0,3:2|2:0,2:0:0:0:
432,81,12182,6,0,L|414:0,1,82.8575031471254,2|0,2:0|2:0,2:0:0:0:
457,14,12389,2,0,L|450:63,1,44.0843333333333,2|0,2:0|2:0,2:0:0:0:
375,237,13009,6,0,L|392:317,1,82.8575031471254,2|0,2:0|2:0,2:0:0:0:
411,294,13216,2,0,L|417:250,1,44.0843333333333,2|0,2:0|2:0,2:0:0:0:
286,171,13837,6,0,P|233:152|180:137,1,110.476666666667,6|0,2:0|2:0,2:0:0:0:
123,184,14044,2,0,P|89:199|50:210,1,66.1264979858399,2|0,2:0|2:0,2:0:0:0:
30,26,14664,6,0,P|49:78|70:148,1,110.476666666667,2|0,2:0|2:0,2:0:0:0:
123,184,14871,2,0,P|112:225|102:269,1,82.5384974822999,2|0,2:0|2:0,2:0:0:0:
155,335,15492,5,2,3:2:0:0:
226,371,15596,1,2,2:0:0:0:
303,348,15699,1,2,2:0:0:0:
342,278,15802,1,2,2:0:0:0:
321,200,15906,5,10,3:2:0:0:
311,146,16009,1,2,2:0:0:0:
333,97,16113,1,2,2:0:0:0:
380,70,16216,1,2,2:0:0:0:
434,74,16320,5,10,3:1:0:0:
404,134,16423,1,2,2:0:0:0:
346,170,16527,1,2,2:0:0:0:
278,170,16630,1,2,2:0:0:0:
220,135,16733,5,14,2:1:0:0:
186,113,16837,1,2,2:0:0:0:
146,115,16940,1,2,2:0:0:0:
114,140,17044,1,2,2:0:0:0:
103,179,17147,5,8,2:3:0:0:
309,7,17354,1,12,2:1:0:0:
278,170,17561,2,0,P|287:195|296:222,1,49.5549984893799,4|0,3:2|2:0,2:0:0:0:
289,250,17975,5,8,2:1:0:0:
340,126,18078,1,8,2:1:0:0:
340,126,18389,1,8,2:1:0:0:
164,249,18596,1,8,2:1:0:0:
128,277,18699,1,8,2:1:0:0:
86,263,18802,6,0,P|75:213|62:163,1,99.4289969787599,6|10,3:2|2:3,2:0:0:0:
223,3,19216,2,0,P|210:50|200:99,1,99.4289969787599,10|10,3:2|2:3,2:0:0:0:
316,283,19630,1,2,3:2:0:0:
109,191,19837,1,10,2:3:0:0:
340,126,20044,1,10,3:2:0:0:
225,315,20251,1,10,2:3:0:0:
309,58,20458,6,0,P|358:54|407:93,1,99.4289969787599,0|8,3:2|2:3,2:0:0:0:
398,79,20871,6,0,P|357:53|309:58,1,99.4289969787599,10|0,3:2|2:0,2:0:0:0:
117,142,21078,5,8,2:3:0:0:
109,191,21182,1,8,2:3:0:0:
101,239,21285,1,0,3:2:0:0:
117,142,21492,6,0,L|98:255,1,99.4289969787599,10|0,2:3|2:0,2:0:0:0:
165,354,21699,6,0,L|154:304,1,44.1906666666667,8|10,3:2|2:3,2:0:0:0:
340,126,22113,5,2,3:2:0:0:
293,342,22320,1,10,2:3:0:0:
223,58,22527,1,10,3:2:0:0:
486,214,22733,1,10,2:3:0:0:
486,214,22837,1,0,3:0:0:0:
486,214,22940,1,0,3:2:0:0:
346,36,23147,6,0,P|309:20|267:8,1,66.0733333333334,10|0,2:3|2:0,2:0:0:0:
223,58,23561,6,0,B|193:152|110:197|31:162|31:162|62:106|126:97,1,357.666816968283,10|0,2:3|3:2,2:0:0:0:
256,222,24802,6,0,L|242:284,2,44.0843333333333,10|10|10,2:3|3:2|2:3,2:0:0:0:
372,89,25423,5,2,3:2:0:0:
426,284,25630,1,10,2:3:0:0:
442,39,25837,5,10,3:2:0:0:
403,210,26044,1,10,2:3:0:0:
252,37,26251,6,0,P|269:81|287:141,1,99.4289969787599,2|10,3:2|2:3,2:0:0:0:
184,329,26664,2,0,P|198:281|216:235,1,99.4289969787599,10|10,3:2|2:3,2:0:0:0:
7,111,27078,5,2,3:2:0:0:
216,236,27285,1,10,2:3:0:0:
29,220,27492,5,10,3:2:0:0:
183,137,27699,1,10,2:3:0:0:
183,137,27802,1,8,2:3:0:0:
183,137,27906,1,0,3:2:0:0:
110,296,28113,1,10,2:3:0:0:
160,40,28320,2,0,P|206:56|250:79,1,99.4289969787599,8|10,3:2|2:3,2:0:0:0:
347,244,28733,6,0,P|393:227|437:204,1,99.4289969787599,2|8,3:2|2:3,2:0:0:0:
503,78,29147,1,10,3:2:0:0:
251,217,29354,2,0,P|269:266|288:327,1,99.4289969787599,10|0,2:3|3:2,2:0:0:0:
113,147,29768,2,0,P|127:99|145:53,1,99.4289969787599,10|8,2:3|3:2,2:0:0:0:
406,157,30182,6,0,P|428:211|449:298,1,132.146666666667,10|8,2:3|3:2,2:0:0:0:
273,173,31009,1,8,2:3:0:0:
273,173,31113,1,8,2:3:0:0:
273,173,31216,1,0,3:0:0:0:
446,282,31423,1,8,3:0:0:0:
217,365,31630,1,8,2:0:0:0:
58,32,32044,5,6,3:2:0:0:
273,173,32251,1,10,2:3:0:0:
66,152,32458,1,10,3:2:0:0:
202,124,32664,1,10,2:3:0:0:
86,334,32871,1,2,3:2:0:0:
130,78,33078,1,10,2:3:0:0:
360,233,33285,1,10,3:2:0:0:
151,221,33492,1,10,2:3:0:0:
344,54,33699,5,2,3:2:0:0:
335,102,33802,1,2,2:0:0:0:
326,152,33906,1,10,2:3:0:0:
344,54,34113,6,0,L|326:152,1,99.4289969787599,10|0,3:2|2:0,2:0:0:0:
336,305,34320,5,8,2:3:0:0:
384,309,34423,1,8,2:3:0:0:
421,277,34527,1,0,3:2:0:0:
336,305,34733,6,0,P|384:307|422:277,1,99.4289969787599,10|0,2:3|2:0,2:0:0:0:
456,153,34940,6,0,P|465:178|474:208,1,44.1906666666667,8|10,3:2|2:3,2:0:0:0:
258,379,35354,5,2,3:2:0:0:
326,152,35561,1,10,2:3:0:0:
136,280,35768,1,10,3:2:0:0:
78,67,35975,2,0,P|100:112|124:170,1,99.4289969787599,10|0,2:3|3:2,2:0:0:0:
255,270,36389,6,0,P|263:237|278:195,1,66.0733333333334,10|0,2:3|2:0,2:0:0:0:
326,152,36802,6,0,P|359:95|194:113,1,357.666816968283,10|0,2:3|3:2,2:0:0:0:
364,270,38044,6,0,L|378:328,2,44.0843333333333,10|10|10,2:3|3:2|2:3,2:0:0:0:
512,171,38664,5,2,3:2:0:0:
273,80,38871,1,10,2:3:0:0:
467,103,39078,5,10,3:2:0:0:
321,145,39285,1,10,2:3:0:0:
484,306,39492,6,0,P|435:285|381:272,1,99.4289969787599,2|10,3:2|2:3,2:0:0:0:
138,372,39906,2,0,P|185:359|231:339,1,99.4289969787599,10|10,3:2|2:3,2:0:0:0:
321,145,40320,5,2,3:2:0:0:
313,193,40423,1,2,2:0:0:0:
304,242,40527,1,10,2:3:0:0:
117,74,40733,2,0,P|135:123|151:180,1,99.4289969787599,8|8,3:2|2:3,2:0:0:0:
130,212,41044,1,8,2:3:0:0:
130,212,41147,1,0,3:2:0:0:
344,40,41354,1,10,2:3:0:0:
321,145,41561,1,10,3:2:0:0:
238,71,41768,1,10,2:3:0:0:
495,160,41975,6,0,P|479:208|465:269,1,99.4289969787599,2|10,3:2|2:3,2:0:0:0:
252,343,42389,1,10,3:2:0:0:
321,145,42596,2,0,P|308:221|246:226,1,148.66499546814,10|0,2:3|2:0,2:0:0:0:
195,176,43009,6,0,P|160:162|129:155,1,66.0733333333334,10|0,2:3|2:0,2:0:0:0:
65,186,43423,6,0,P|16:137|166:38,1,297.01099093628,6|8,2:0|2:3,2:0:0:0:
194,77,44458,6,0,L|392:50,1,181.701672205608,2|0,3:2|2:0,2:0:0:0:
351,79,44871,6,0,L|228:96,1,123.887504720688,10|0,3:2|2:0,2:0:0:0:
150,156,45285,6,0,P|171:204|226:216,1,99.4289969787599,4|10,3:2|2:3,2:0:0:0:
190,289,45699,2,0,P|242:294|279:253,1,99.4289969787599,10|10,3:2|2:3,2:0:0:0:
327,324,46113,2,0,P|358:281|340:228,1,99.4289969787599,2|10,3:2|2:3,2:0:0:0:
428,224,46527,2,0,P|407:176|352:164,1,99.4289969787599,10|10,3:2|2:3,2:0:0:0:
270,76,46940,5,2,3:2:0:0:
327,324,47147,1,10,2:3:0:0:
270,76,47354,5,10,3:2:0:0:
213,324,47561,1,10,2:3:0:0:
213,324,47664,1,8,2:3:0:0:
213,324,47768,5,0,3:2:0:0:
290,157,47975,1,10,2:3:0:0:
8,249,48182,2,0,P|30:300|46:345,1,99.4289969787599,10|10,3:2|2:3,2:0:0:0:
124,337,48492,1,2,2:0:0:0:
124,337,48596,6,0,P|116:370|107:394,1,44.1906666666667,2|8,3:2|2:3,2:0:0:0:
33,77,49009,5,10,3:2:0:0:
49,180,49113,2,0,P|60:135|78:83,1,82.8575031471254,2|8,2:0|2:3,2:0:0:0:
216,19,49320,1,2,2:0:0:0:
243,43,49423,2,0,P|255:82|265:122,1,82.8575031471254,0|0,3:2|2:0,2:0:0:0:
153,247,49630,6,0,P|186:237|218:222,1,66.0733333333334,10|0,2:3|2:0,2:0:0:0:
265,169,50044,6,0,P|359:157|400:294,1,247.775009441376,6|0,2:0|2:0,2:0:0:0:
334,305,50458,2,0,P|321:350|311:402,1,82.8575031471254,10|0,2:3|2:0,2:0:0:0:
512,234,50664,2,0,P|503:193|491:154,1,82.8575031471254,10|0,3:2|2:0,2:0:0:0:
334,305,50871,2,0,P|321:350|311:402,1,82.8575031471254,10|8,2:3|2:3,2:0:0:0:
293,78,51078,6,0,P|259:50|213:51,1,82.8575031471254,2|0,3:2|2:0,2:0:0:0:
135,231,51285,2,0,P|169:259|215:258,1,82.8575031471254,10|0,2:3|2:0,2:0:0:0:
66,33,51492,1,10,3:2:0:0:
0,260,51699,2,0,L|16:317,2,55.3712520980836,10|2|2,2:3|2:0|2:0,2:0:0:0:
31,158,51906,6,0,P|53:148|81:136,1,44.1906666666667,6|8,3:2|2:3,2:0:0:0:
248,331,52320,5,10,3:2:0:0:
303,194,52423,2,0,P|320:241|334:293,1,82.8575031471254,2|8,2:0|2:3,2:0:0:0:
476,370,52630,1,2,2:0:0:0:
449,339,52733,2,0,P|460:299|474:260,1,82.8575031471254,0|0,3:2|2:0,2:0:0:0:
417,140,52940,6,0,P|409:108|396:68,1,66.0733333333334,10|0,2:3|2:0,2:0:0:0:
331,38,53354,6,0,P|219:12|152:115,1,247.775009441376,6|0,2:0|2:0,2:0:0:0:
93,164,53768,2,0,P|108:204|124:255,1,82.8575031471254,10|0,2:3|2:0,2:0:0:0:
328,330,53975,2,0,P|340:290|355:252,1,82.8575031471254,10|0,3:2|2:0,2:0:0:0:
93,164,54182,2,0,P|108:204|124:255,1,82.8575031471254,10|8,2:3|2:3,2:0:0:0:
378,103,54389,5,14,3:0:0:0:
374,182,54492,1,12,3:0:0:0:
310,231,54596,1,6,3:0:0:0:
232,213,54699,1,12,3:0:0:0:
195,143,54802,5,14,3:0:0:0:
253,124,54906,1,0,3:0:0:0:
310,145,55009,1,0,3:0:0:0:
343,196,55113,1,0,3:0:0:0:
337,257,55216,6,0,L|238:274,1,82.8575031471254,6|0,3:2|2:0,2:0:0:0:
151,215,55630,2,0,L|51:231,1,82.8575031471254,2|0,3:2|3:0,2:0:0:0:
49,234,55940,1,0,3:0:0:0:
75,143,56044,6,0,L|156:129,1,82.8575031471254,10|0,3:1|2:0,2:0:0:0:
271,190,56458,2,0,L|352:176,1,82.8575031471254,14|0,2:1|2:0,2:0:0:0:
481,3,56871,6,0,L|463:95,1,82.8575031471254,2|8,3:2|2:1,2:0:0:0:
352,176,57285,2,0,L|367:256,1,82.8575031471254,2|0,3:2|3:2,2:0:0:0:
373,283,57596,1,0,3:0:0:0:
297,331,57699,6,0,L|281:250,1,82.8575031471254,10|0,3:1|2:0,2:0:0:0:
383,93,58113,2,0,L|398:12,1,82.8575031471254,14|0,2:1|2:0,2:0:0:0:
110,161,58527,6,0,P|150:145|198:134,1,82.8575031471254,4|0,3:2|2:0,2:0:0:0:
424,238,58733,6,0,P|338:247|292:167,1,165.715006294251,0|0,3:2|2:0,2:0:0:0:
291,51,58940,6,0,P|276:86|266:117,1,66.0733333333334,8|0,2:1|2:0,2:0:0:0:
312,270,59354,6,0,L|293:190,1,82.8575031471254,4|0,3:2|2:0,2:0:0:0:
166,181,59561,6,0,L|205:342,1,165.715006294251,0|0,3:2|2:0,2:0:0:0:
378,366,59768,6,0,P|405:356|440:338,1,66.0733333333334,8|0,2:1|2:0,2:0:0:0:
497,156,60182,6,0,P|477:212|457:288,1,110.476666666667,6|0,3:2|2:0,2:0:0:0:
267,112,60389,6,0,P|287:168|307:244,1,110.476666666667,6|0,3:2|2:0,2:0:0:0:
123,198,60596,6,0,P|103:254|83:330,1,110.476666666667,6|0,3:2|2:0,2:0:0:0:
34,71,60802,6,0,B|105:4|190:54|190:54|287:109|358:34,1,330.632512588501,6|8,3:2|2:3,2:0:0:0:
123,198,61423,1,8,3:2:0:0:
123,198,61837,6,0,L|145:297,1,82.8575031471254,6|0,3:2|2:0,2:0:0:0:
209,154,62251,2,0,L|231:253,1,82.8575031471254,2|0,3:2|3:0,2:0:0:0:
232,256,62561,1,0,3:0:0:0:
317,317,62664,6,0,L|413:344,1,82.8575031471254,10|0,3:1|2:0,2:0:0:0:
379,239,63078,2,0,L|475:266,1,82.8575031471254,14|2,2:1|2:0,2:0:0:0:
461,47,63492,6,0,L|483:146,1,82.8575031471254,2|8,3:2|2:1,2:0:0:0:
365,33,63906,2,0,L|387:132,1,82.8575031471254,2|0,3:2|3:2,2:0:0:0:
389,137,64216,1,0,3:0:0:0:
276,97,64320,6,0,L|167:74,1,82.8575031471254,10|0,3:1|2:0,2:0:0:0:
290,191,64733,2,0,L|181:168,1,82.8575031471254,12|0,2:1|2:0,2:0:0:0:
97,50,65147,6,0,P|120:119|142:208,1,110.476666666667,4|0,3:2|2:0,2:0:0:0:
76,320,65354,6,0,P|70:268|115:223,1,110.051333333333,0|0,3:2|2:0,2:0:0:0:
177,256,65975,6,0,P|210:295|271:290,1,110.476666666667,8|0,2:1|2:0,2:0:0:0:
316,238,66285,1,8,2:1:0:0:
378,285,66389,1,8,2:1:0:0:
372,317,66492,1,4,2:3:0:0:
366,349,66596,1,4,2:3:0:0:
482,155,66802,6,0,P|404:74|299:115,1,220.953333333333,6|0,3:2|2:0,2:0:0:0:
248,196,67113,1,2,2:0:0:0:
130,62,67216,2,0,P|149:120|166:180,1,110.476666666667,2|0,2:0|2:0,2:0:0:0:
57,371,67423,2,0,P|72:318|89:265,1,110.476666666667,2|0,2:0|2:0,2:0:0:0:
311,100,67630,6,0,B|371:118|394:164|394:164|375:221|311:240,1,220.953333333333,6|0,3:2|2:0,2:0:0:0:
248,196,67940,1,2,2:0:0:0:
305,24,68044,2,0,P|357:38|419:72,1,110.476666666667,2|0,2:0|2:0,2:0:0:0:
402,278,68251,2,0,P|353:303|300:317,1,110.476666666667,2|0,2:0|2:0,2:0:0:0:
130,62,68458,6,0,P|57:79|53:170,1,165.183333333333,6|0,3:2|2:0,2:0:0:0:
99,217,68871,5,2,2:0:0:0:
177,234,68975,1,2,2:0:0:0:
248,196,69078,1,2,2:0:0:0:
277,121,69182,1,2,2:0:0:0:
249,45,69285,5,2,2:0:0:0:
200,92,69389,1,2,2:0:0:0:
186,158,69492,1,2,2:0:0:0:
213,220,69596,1,2,2:0:0:0:
270,257,69699,5,2,3:0:0:0:
299,228,69802,1,2,2:0:0:0:
338,215,69906,1,2,3:0:0:0:
379,219,70009,1,2,2:0:0:0:
414,239,70113,1,4,3:2:0:0:
312,147,70320,6,0,L|296:247,1,82.8575031471254,2|0,2:0|3:0,2:0:0:0:
476,112,70733,2,0,L|501:275,1,165.715006294251,2|0,2:0|3:0,2:0:0:0:
312,147,71147,6,0,L|296:247,1,82.5385031471254,2|0,2:0|2:0,2:0:0:0:
324,273,71768,6,0,L|137:231,1,165.715006294251,6|8,3:2|2:3,2:0:0:0:
97,277,72078,1,0,2:0:0:0:
17,108,72182,2,0,P|33:149|48:198,1,82.8575031471254,10|0,3:2|2:0,2:0:0:0:
70,354,72389,2,0,P|82:314|97:276,1,82.8575031471254,10|0,2:3|2:0,2:0:0:0:
239,67,72596,6,0,L|332:89,1,82.8575031471254,2|0,3:2|2:0,2:0:0:0:
163,236,72802,2,0,L|256:258,1,82.8575031471254,10|0,2:3|2:0,2:0:0:0:
203,151,73009,2,0,L|296:173,1,82.8575031471254,10|0,3:2|2:0,2:0:0:0:
443,361,73216,6,0,B|469:238|469:238|438:277,1,165.715006294251,10|0,2:3|3:2,2:0:0:0:
345,336,73527,1,0,2:0:0:0:
345,336,73630,2,0,P|301:342|264:317,1,82.8575031471254,10|0,2:3|2:0,2:0:0:0:
174,73,73837,2,0,P|191:114|206:166,1,82.8575031471254,10|0,3:2|2:0,2:0:0:0:
82,342,74044,1,10,2:3:0:0:
97,270,74147,1,8,2:3:0:0:
163,236,74251,6,0,L|267:213,1,82.8575031471254,2|0,3:2|2:0,2:0:0:0:
425,318,74458,2,0,L|344:335,1,82.8575031471254,8|0,2:3|2:0,2:0:0:0:
472,87,74664,2,0,L|391:104,1,82.8575031471254,8|0,3:2|2:0,2:0:0:0:
312,261,74871,2,0,L|392:243,1,82.8575031471254,8|0,2:3|2:0,2:0:0:0:
225,22,75078,6,0,P|144:8|101:69,1,165.715006294251,2|10,3:2|2:3,2:0:0:0:
147,133,75389,1,0,2:0:0:0:
61,285,75492,2,0,L|41:204,1,82.8575031471254,10|0,3:2|2:0,2:0:0:0:
199,335,75699,2,0,L|179:254,1,82.8575031471254,10|0,2:3|2:0,2:0:0:0:
331,96,75906,6,0,P|305:130|311:176,1,82.8575031471254,2|0,3:2|2:0,2:0:0:0:
358,365,76113,2,0,P|384:331|377:284,1,82.8575031471254,10|0,2:3|2:0,2:0:0:0:
331,96,76320,2,0,P|305:130|311:176,1,82.8575031471254,10|0,3:2|2:0,2:0:0:0:
358,365,76527,2,0,P|384:331|377:284,1,82.8575031471254,10|0,2:3|2:0,2:0:0:0:
147,133,76733,6,0,L|331:174,1,165.715006294251,2|10,3:2|2:3,2:0:0:0:
405,145,77044,1,0,2:0:0:0:
324,201,77147,2,0,L|162:165,1,165.715006294251,10|10,3:2|2:3,2:0:0:0:
65,188,77458,1,8,2:3:0:0:
140,252,77561,6,0,P|154:296|168:355,1,82.8575031471254,2|0,3:2|2:0,2:0:0:0:
287,361,77768,6,0,P|301:285|327:188,1,165.715006294251,10|0,2:3|2:0,2:0:0:0:
353,16,77975,6,0,L|368:85,1,66.0733333333334,14|0,3:2|2:0,2:0:0:0:
403,107,78389,6,0,L|151:167,1,247.775009441376,6|0,3:2|2:0,2:0:0:0:
101,120,78802,2,0,P|161:161|116:245,1,165.715006294251,10|8,3:2|2:3,2:0:0:0:
70,192,79113,1,2,2:0:0:0:
147,18,79216,6,0,P|163:62|179:117,1,82.8575031471254,2|0,3:2|2:0,2:0:0:0:
95,311,79423,2,0,P|135:237|235:258,1,165.715006294251,10|8,2:3|3:2,2:0:0:0:
263,291,79733,1,0,2:0:0:0:
419,216,79837,2,0,P|402:260|387:315,1,82.8575031471254,10|0,2:3|2:0,2:0:0:0:
274,69,80044,6,0,L|373:48,1,82.8575031471254,2|0,3:2|2:0,2:0:0:0:
338,233,80251,2,0,L|437:212,1,82.8575031471254,10|0,2:3|2:0,2:0:0:0:
305,149,80458,2,0,L|404:128,1,82.8575031471254,10|0,3:2|2:0,2:0:0:0:
377,316,80664,2,0,L|476:295,1,82.8575031471254,10|8,2:3|2:3,2:0:0:0:
220,132,80871,6,0,P|145:104|87:168,1,165.715006294251,2|10,3:2|2:3,2:0:0:0:
115,229,81182,1,2,2:0:0:0:
51,335,81285,1,14,3:2:0:0:
118,347,81389,1,0,2:0:0:0:
186,359,81492,1,10,2:3:0:0:
254,371,81596,1,2,2:0:0:0:
377,316,81699,6,0,P|361:233|334:140,1,165.715006294251,14|0,2:0|2:0,2:0:0:0:
289,30,81906,6,0,P|278:55|269:89,1,41.4287515735627,14|0,2:0|2:0,2:0:0:0:
115,229,82113,5,2,2:0:0:0:
43,181,82216,1,2,2:0:0:0:
56,96,82320,1,2,2:0:0:0:
139,73,82423,1,2,2:0:0:0:
194,139,82527,5,2,2:0:0:0:
223,207,82630,1,2,2:0:0:0:
287,245,82733,1,2,2:0:0:0:
361,235,82837,1,2,2:0:0:0:
414,183,82940,5,2,2:0:0:0:
355,170,83044,1,2,2:0:0:0:
298,187,83147,1,2,2:0:0:0:
257,231,83251,1,2,2:0:0:0:
340,339,83354,6,0,P|247:309|168:289,1,165.715006294251,14|0,2:0|2:0,2:0:0:0:
43,181,83561,6,0,P|68:174|105:161,1,41.4287515735627,14|0,2:0|2:0,2:0:0:0:
242,65,83768,5,2,2:0:0:0:
295,40,83871,1,2,2:0:0:0:
350,61,83975,1,2,2:0:0:0:
375,114,84078,1,2,2:0:0:0:
355,170,84182,5,2,2:0:0:0:
286,142,84285,1,2,2:0:0:0:
214,159,84389,1,2,2:0:0:0:
164,215,84492,1,2,2:0:0:0:
157,289,84596,5,2,2:0:0:0:
235,249,84699,1,2,2:0:0:0:
256,164,84802,1,2,2:0:0:0:
204,93,84906,1,2,2:0:0:0:
43,181,85009,6,0,P|127:206|237:233,1,165.715006294251,12|0,2:0|2:0,2:0:0:0:
375,114,85216,6,0,P|336:123|291:138,1,82.5384974822999,12|0,3:2|2:0,2:0:0:0:
286,219,85837,6,0,P|312:296|337:390,1,165.715006294251,12|0,2:0|2:0,2:0:0:0:
209,143,86044,6,0,P|218:101|234:52,1,82.5384974822999,12|0,3:2|2:0,2:0:0:0:
301,17,86664,6,0,L|472:49,1,165.715006294251,12|0,2:0|2:0,2:0:0:0:
436,64,86871,2,0,L|322:43,1,110.476666666667,0|0,3:2|2:0,2:0:0:0:
69,113,87078,6,0,B|181:74|258:201|258:201|337:319|460:254|460:254|369:191|290:263|290:263|220:326|141:265,1,783.956279897691,14|0,2:0|2:0,2:0:0:0:
110,228,89147,6,0,L|134:76,1,123.887504720688,8|8,2:1|2:1,2:0:0:0:
156,83,89561,1,8,2:1:0:0:
149,123,89664,1,4,2:3:0:0:
143,164,89768,1,4,2:3:0:0:
143,164,89975,5,6,3:2:0:0:
378,292,90182,2,0,P|296:307|207:329,1,165.316256294251,2|2,3:2|3:2,2:0:0:0:
370,102,90802,1,8,3:1:0:0:
166,235,91009,1,2,2:0:0:0:
143,164,91216,1,14,2:1:0:0:
216,175,91423,1,2,2:0:0:0:
60,359,91630,5,0,3:2:0:0:
118,93,91837,1,8,2:1:0:0:
143,164,92044,1,0,3:2:0:0:
166,235,92251,1,0,3:2:0:0:
5,9,92458,1,8,3:1:0:0:
330,136,92664,1,2,2:0:0:0:
166,235,92871,2,0,L|184:165,1,55.2383333333334,14|2,2:1|2:0,2:0:0:0:
300,29,93285,5,2,3:2:0:0:
376,305,93492,2,0,P|397:219|423:130,1,165.316256294251,2|2,3:2|3:2,2:0:0:0:
269,311,94113,1,8,3:1:0:0:
247,223,94320,1,2,2:0:0:0:
356,377,94527,1,14,2:1:0:0:
389,175,94733,1,0,2:0:0:0:
137,340,94940,6,0,P|154:267|185:161,1,165.715006294251,12|0,2:0|2:0,2:0:0:0:
206,34,95147,6,0,P|221:74|235:119,1,82.5384974822999,12|0,3:2|2:0,2:0:0:0:
295,182,95768,6,0,P|375:202|422:145,1,165.715006294251,12|0,2:0|2:0,2:0:0:0:
500,2,95975,6,0,P|484:42|471:87,1,82.5384974822999,12|0,3:2|2:0,2:0:0:0:
499,155,96596,6,0,P|449:221|371:206,1,165.183333333333,4|0,3:2|2:0,2:0:0:0:
330,140,97009,5,2,2:0:0:0:
263,95,97113,1,2,2:0:0:0:
188,120,97216,1,2,2:0:0:0:
161,195,97320,1,2,2:0:0:0:
204,262,97423,5,2,2:0:0:0:
258,222,97527,1,2,2:0:0:0:
326,224,97630,1,2,2:0:0:0:
377,268,97733,1,2,2:0:0:0:
389,334,97837,5,2,3:0:0:0:
354,355,97940,1,2,2:0:0:0:
314,353,98044,1,2,3:0:0:0:
281,329,98147,1,2,2:0:0:0:
267,290,98251,1,4,3:2:0:0:
380,94,98458,6,0,L|292:78,1,82.8575031471254,2|0,2:0|3:0,2:0:0:0:
429,262,98871,2,0,L|266:290,1,165.715006294251,2|0,2:0|3:0,2:0:0:0:
380,94,99285,6,0,L|292:78,1,82.5385031471254,2|0,2:0|2:0,2:0:0:0:
262,106,99906,6,0,P|208:169|120:155,1,165.715006294251,6|8,3:2|2:3,2:0:0:0:
83,100,100216,1,0,2:0:0:0:
2,229,100320,2,0,P|18:272|35:327,1,82.8575031471254,10|0,3:2|2:0,2:0:0:0:
199,384,100527,2,0,P|211:344|226:306,1,82.8575031471254,10|0,2:3|2:0,2:0:0:0:
380,94,100733,6,0,L|403:192,1,82.8575031471254,2|0,3:2|2:0,2:0:0:0:
172,63,100940,2,0,L|195:161,1,82.8575031471254,10|0,2:3|2:0,2:0:0:0:
277,81,101147,2,0,L|300:179,1,82.8575031471254,10|0,3:2|2:0,2:0:0:0:
35,218,101354,6,0,B|2:230|2:230|152:252,1,165.715006294251,10|0,2:3|3:2,2:0:0:0:
295,161,101664,1,0,2:0:0:0:
295,161,101768,2,0,P|306:201|318:259,1,82.8575031471254,10|0,2:3|2:0,2:0:0:0:
83,100,101975,2,0,P|91:59|102:20,1,82.8575031471254,10|0,3:2|2:0,2:0:0:0:
189,300,102182,1,10,2:3:0:0:
131,248,102285,1,8,2:3:0:0:
138,172,102389,6,0,L|222:146,1,82.8575031471254,2|0,3:2|2:0,2:0:0:0:
460,296,102596,2,0,L|381:320,1,82.8575031471254,8|0,2:3|2:0,2:0:0:0:
438,32,102802,2,0,L|359:56,1,82.8575031471254,8|0,3:2|2:0,2:0:0:0:
314,240,103009,2,0,L|398:214,1,82.8575031471254,8|0,2:3|2:0,2:0:0:0:
136,20,103216,6,0,P|165:89|248:76,1,165.715006294251,2|10,3:2|2:3,2:0:0:0:
281,12,103527,1,0,2:0:0:0:
411,135,103630,2,0,P|400:177|389:231,1,82.8575031471254,10|0,3:2|2:0,2:0:0:0:
219,318,103837,2,0,P|210:277|199:237,1,82.8575031471254,10|0,2:3|2:0,2:0:0:0:
46,117,104044,6,0,P|78:90|128:97,1,82.8575031471254,2|0,3:2|2:0,2:0:0:0:
289,292,104251,2,0,P|257:319|207:312,1,82.8575031471254,10|0,2:3|2:0,2:0:0:0:
46,117,104458,2,0,P|78:90|128:97,1,82.8575031471254,10|0,3:2|2:0,2:0:0:0:
289,292,104664,2,0,P|257:319|207:312,1,82.8575031471254,10|0,2:3|2:0,2:0:0:0:
359,56,104871,6,0,P|338:136|320:229,1,165.715006294251,6|0,3:2|2:0,2:0:0:0:
90,360,105078,6,0,P|73:279|52:199,1,165.715006294251,6|0,3:2|2:0,2:0:0:0:
112,19,105285,6,0,P|191:4|253:71,1,165.715006294251,14|0,3:2|2:0,2:0:0:0:
425,330,105492,6,0,P|346:345|284:278,1,165.183339627584,6|0,2:0|2:0,2:0:0:0:
217,219,105906,6,0,L|252:39,1,165.715006294251,10|0,2:3|2:0,2:0:0:0:
408,17,106113,6,0,L|393:98,1,66.0733333333334,10|0,3:2|2:0,2:0:0:0:
425,118,106527,6,0,L|159:150,1,247.775009441376,6|0,3:2|2:0,2:0:0:0:
142,218,106940,2,0,P|180:147|121:77,1,165.715006294251,10|8,3:2|2:3,2:0:0:0:
94,151,107251,1,2,2:0:0:0:
215,317,107354,6,0,L|316:305,1,82.8575031471254,2|0,3:2|2:0,2:0:0:0:
425,118,107561,2,0,L|343:127,1,82.8575031471254,10|0,2:3|2:0,2:0:0:0:
509,337,107768,2,0,L|427:346,1,82.8575031471254,10|0,3:2|2:0,2:0:0:0:
285,170,107975,2,0,L|203:179,1,82.8575031471254,10|0,2:3|2:0,2:0:0:0:
86,349,108182,6,0,L|65:174,1,165.715006294251,2|10,3:2|2:3,2:0:0:0:
19,128,108492,1,0,2:0:0:0:
90,150,108596,2,0,L|109:313,1,165.715006294251,10|10,3:2|2:3,2:0:0:0:
164,370,108906,1,8,2:3:0:0:
204,303,109009,6,0,P|269:260|359:309,1,165.715006294251,2|10,3:2|2:3,2:0:0:0:
380,356,109320,1,2,2:0:0:0:
489,226,109423,1,14,3:2:0:0:
428,213,109527,1,0,2:0:0:0:
367,200,109630,1,10,2:3:0:0:
307,188,109733,1,2,2:0:0:0:
204,303,109837,6,0,P|188:219|168:137,1,165.715006294251,14|0,2:0|2:0,2:0:0:0:
96,2,110044,6,0,P|88:29|80:59,1,41.4287515735627,14|0,2:0|2:0,2:0:0:0:
6,251,110251,5,2,2:0:0:0:
69,311,110354,1,2,2:0:0:0:
156,298,110458,1,2,2:0:0:0:
200,223,110561,1,2,2:0:0:0:
168,141,110664,5,2,2:0:0:0:
183,69,110768,1,2,2:0:0:0:
244,27,110871,1,2,2:0:0:0:
317,39,110975,1,2,2:0:0:0:
361,98,111078,5,2,2:0:0:0:
321,118,111182,1,2,2:0:0:0:
298,156,111285,1,2,2:0:0:0:
296,201,111389,1,2,2:0:0:0:
445,265,111492,6,0,P|362:278|278:301,1,165.715006294251,14|0,2:0|2:0,2:0:0:0:
69,311,111699,6,0,P|94:321|117:327,1,41.4287515735627,14|0,2:0|2:0,2:0:0:0:
296,201,111906,5,2,2:0:0:0:
298,156,112009,1,2,2:0:0:0:
277,116,112113,1,2,2:0:0:0:
240,90,112216,1,2,2:0:0:0:
196,84,112320,5,2,2:0:0:0:
129,115,112423,1,2,2:0:0:0:
100,184,112527,1,2,2:0:0:0:
126,253,112630,1,2,2:0:0:0:
192,286,112733,5,2,2:0:0:0:
237,209,112837,1,2,2:0:0:0:
319,174,112940,1,2,2:0:0:0:
405,196,113044,1,2,2:0:0:0:
451,330,113147,6,0,P|397:282|429:172,1,165.715006294251,12|0,2:0|2:0,2:0:0:0:
504,0,113354,6,0,P|489:40|477:91,1,82.5384974822999,12|0,3:2|2:0,2:0:0:0:
400,108,113975,6,0,P|319:88|236:57,1,165.715006294251,12|0,2:0|2:0,2:0:0:0:
56,53,114182,6,0,P|97:37|142:24,1,82.5384974822999,12|0,3:2|2:0,2:0:0:0:
168,104,114802,6,0,L|196:282,1,165.715006294251,12|0,2:0|2:0,2:0:0:0:
212,237,115009,2,0,L|194:128,1,110.476666666667,0|0,3:2|2:0,2:0:0:0:
469,37,115216,6,0,B|378:78|338:154|357:243|385:293|452:307|546:255|518:142|448:116|332:132|250:252|250:252|184:336|86:290,1,783.956279897691,14|0,2:0|2:0,2:0:0:0:
52,254,117285,6,0,L|31:117,1,123.887504720688,8|8,2:1|2:1,2:0:0:0:
54,105,117699,1,8,2:1:0:0:
60,145,117802,1,4,2:3:0:0:
67,186,117906,1,4,2:3:0:0:
67,186,118113,6,0,P|137:228|230:181,1,165.715006294251,14|0,3:2|2:0,2:0:0:0:
453,133,118320,6,0,P|385:89|299:129,1,165.715006294251,14|0,3:2|2:0,2:0:0:0:
290,358,118527,6,0,P|331:293|299:199,1,165.715006294251,6|0,3:2|2:0,2:0:0:0:
177,23,118733,6,0,L|159:119,1,82.5916666666667,14|0,3:2|2:0,2:0:0:0:
147,139,119147,6,0,L|324:112,1,165.715006294251,14|0,3:2|2:0,2:0:0:0:
474,188,119354,6,0,L|295:214,1,165.715006294251,14|0,3:2|2:0,2:0:0:0:
83,304,119561,6,0,L|260:275,1,165.715006294251,6|0,3:2|2:0,2:0:0:0:
479,349,119768,6,0,P|426:359|378:322,1,110.210833333333,14|0,3:2|2:0,2:0:0:0:
