osu file format v14

[General]
AudioFilename: audio.mp3
AudioLeadIn: 0
PreviewTime: 65044
Countdown: 0
SampleSet: Soft
StackLeniency: 0.7
Mode: 0
LetterboxInBreaks: 0
WidescreenStoryboard: 1

[Editor]
DistanceSpacing: 1.5
BeatDivisor: 4
GridSize: 16
TimelineZoom: 4.400001

[Metadata]
Title:Kyun! Vampire Girl
TitleUnicode:きゅんっ!ヴァンパイアガール
Artist:Petit Vampire
ArtistUnicode:プチヴァンパイア
Creator:Fu3ya_
Version:Hard
Source:アイドルマスター ミリオンライブ!
Tags:アイマス ミリマス ミリシタ _kotachi_ -Brethia SeiraN- fumiya 中谷育 周防桃子 水瀬伊織 原嶋あかり 渡部恵子 釘宮理恵 THE IDOLM@STER MASTER ARTIST 3 04 Million Live アイドルマスター2 japanese idol imas im@s video game nakatani Iku Harashima Akari Suou Momoko Watanabe Keiko Minase Iori Kugimiya Rie ANIM@TION animation 生っすかSPECIAL 01 ササキ トモコ Sasaki Tomoko
BeatmapID:2393551
BeatmapSetID:1143373

[Difficulty]
HPDrainRate:4
CircleSize:3.6
OverallDifficulty:6
ApproachRate:7.8
SliderMultiplier:1.4
SliderTickRate:1

[Events]
//Background and Video events
0,0,"ikumomoFES.jpg",0,0
//Break Periods
//Storyboard Layer 0 (Background)
//Storyboard Layer 1 (Fail)
//Storyboard Layer 2 (Pass)
//Storyboard Layer 3 (Foreground)
//Storyboard Layer 4 (Overlay)
//Storyboard Sound Samples

[TimingPoints]
596,413.793103448276,4,2,1,30,1,0
2251,-100,4,2,1,50,0,0
8871,-100,4,2,1,60,0,0
12182,-100,4,2,1,40,0,0
13837,-100,4,2,1,70,0,0
16320,-100,4,2,1,50,0,0
45285,-100,4,2,1,60,0,0
58527,-100,4,2,1,80,0,0
61215,-100,4,2,1,50,0,0
61837,-100,4,2,1,60,0,0
65147,-100,4,2,1,80,0,0
65975,-100,4,2,1,50,0,0
66802,-100,4,2,1,80,0,0
68871,-100,4,2,1,60,0,0
69285,-100,4,2,1,50,0,0
69699,-100,4,2,1,40,0,0
70113,-100,4,2,1,70,0,0
71768,-90.9090909090909,4,2,1,90,0,1
87078,-90.9090909090909,4,2,1,80,0,0
89561,-90.9090909090909,4,2,1,50,0,0
89975,-90.9090909090909,4,2,1,60,0,0
90182,-100,4,2,1,60,0,0
94940,-100,4,2,1,80,0,0
97009,-100,4,2,1,60,0,0
97423,-100,4,2,1,50,0,0
97837,-100,4,2,1,40,0,0
98251,-100,4,2,1,70,0,0
99906,-90.9090909090909,4,2,1,90,0,1
104871,-90.9090909090909,4,2,1,70,0,1
105492,-90.9090909090909,4,2,1,90,0,1
115216,-90.9090909090909,4,2,1,90,0,0
117285,-90.9090909090909,4,2,1,50,0,0
117699,-100,4,2,1,50,0,0
118113,-100,4,2,1,90,0,1
120182,-100,4,2,1,90,0,0

[Colours]
Combo1 : 0,0,200
Combo2 : 200,0,0
Combo3 : 200,200,0
Combo4 : 150,0,150

[HitObjects]
92,39,1423,6,0,P|142:57|200:72,1,105.116666666667,8|8,2:1|2:1,2:0:0:0:
231,60,1837,2,0,L|222:5,2,35.1516666666667,8|4|4,2:1|2:3|2:3,2:0:0:0:
307,129,2251,5,6,3:2:0:0:
307,129,2458,2,0,P|290:196|276:270,1,140.268333333333,2|2,3:2|3:2,2:0:0:0:
186,316,3078,2,0,P|195:351|203:389,2,70.1341666666667,8|2|14,3:1|2:0|2:1,2:0:0:0:
38,234,3906,6,0,P|45:199|54:165,1,70.3033333333334,0|8,3:2|2:1,2:0:0:0:
10,77,4320,1,0,3:2:0:0:
10,77,4527,1,0,3:2:0:0:
96,31,4733,2,0,P|166:45|243:67,1,140.268333333333,8|14,3:1|2:1,2:0:0:0:
392,13,5561,5,2,3:2:0:0:
392,13,5768,2,0,L|422:178,1,140.268333333333,2|2,3:2|3:2,2:0:0:0:
436,247,6389,2,0,P|476:261|517:271,2,70.1341666666667,8|2|14,3:1|2:0|2:1,2:0:0:0:
294,156,7216,6,0,P|260:165|227:176,1,70.3033333333334,0|8,3:2|2:1,2:0:0:0:
149,236,7630,1,0,3:2:0:0:
149,236,7837,1,0,3:2:0:0:
219,304,8044,2,0,P|289:328|368:342,1,140.268333333333,8|6,3:1|2:0,2:0:0:0:
481,230,8871,6,0,P|449:164|383:170,1,140.268333333333,4|0,3:2|3:2,2:0:0:0:
330,243,9492,1,0,3:2:0:0:
330,243,9699,2,0,L|184:273,1,140.268333333333,8|12,3:1|3:1,2:0:0:0:
29,310,10527,6,0,P|16:349|7:394,2,70.1341666666667,0|8|0,3:2|2:1|3:2,2:0:0:0:
102,245,11147,1,0,3:2:0:0:
102,245,11354,2,0,L|76:98,1,140.268333333333,8|4,3:1|3:2,2:0:0:0:
210,4,12182,5,2,3:2:0:0:
210,4,12389,1,2,2:0:0:0:
310,193,13009,1,10,3:1:0:0:
310,193,13216,1,2,2:0:0:0:
118,273,13837,5,6,3:2:0:0:
118,273,14044,1,2,2:0:0:0:
18,94,14664,1,10,2:1:0:0:
18,94,14871,1,2,2:0:0:0:
256,192,15492,12,8,17147,2:3:0:0:
425,72,18802,6,0,P|408:136|391:222,1,140.268333333333,6|10,3:2|3:2,2:0:0:0:
440,286,19423,1,10,2:3:0:0:
440,286,19630,2,0,P|422:351|334:350,1,140.268333333333,2|10,3:2|3:2,2:0:0:0:
255,248,20458,6,0,P|182:267|102:300,1,140.268333333333,0|10,3:2|3:2,2:0:0:0:
46,341,21078,1,8,2:3:0:0:
46,341,21182,1,8,2:3:0:0:
46,341,21285,2,0,P|37:300|26:257,1,70.3033333333334,0|10,3:2|2:3,2:0:0:0:
2,185,21699,1,8,3:2:0:0:
73,48,22113,6,0,L|230:85,1,140.268333333333,2|10,3:2|3:2,2:0:0:0:
272,145,22733,2,0,L|340:129,1,70.3033333333334,10|0,2:3|3:2,2:0:0:0:
410,70,23147,1,10,2:3:0:0:
511,185,23561,1,10,2:3:0:0:
511,185,23768,6,0,P|492:251|474:335,1,140.268333333333,0|8,3:2|3:2,2:0:0:0:
398,367,24389,1,8,2:3:0:0:
398,367,24492,1,8,2:3:0:0:
398,367,24596,2,0,L|311:383,1,70.3033333333334,0|10,3:2|2:3,2:0:0:0:
254,327,25009,1,10,3:2:0:0:
377,235,25423,6,0,L|356:151,1,70.3033333333334,2|10,3:2|2:3,2:0:0:0:
268,159,25837,2,0,L|284:226,1,70.3033333333334,10|10,3:2|2:3,2:0:0:0:
234,303,26251,2,0,P|182:359|117:351,1,140.268333333333,2|10,3:2|3:2,2:0:0:0:
33,229,27078,6,0,P|45:165|68:73,1,140.268333333333,2|10,3:2|3:2,2:0:0:0:
131,31,27699,1,10,2:3:0:0:
131,31,27802,1,8,2:3:0:0:
131,31,27906,2,0,P|167:22|202:15,1,70.3033333333334,0|10,3:2|2:3,2:0:0:0:
274,67,28320,1,8,3:2:0:0:
416,10,28733,6,0,P|401:75|382:165,1,140.268333333333,2|10,3:2|3:2,2:0:0:0:
435,223,29354,2,0,L|352:245,1,70.3033333333334,10|0,2:3|3:2,2:0:0:0:
290,291,29768,2,0,L|222:273,1,70.3033333333334,10|8,2:3|3:2,2:0:0:0:
145,211,30182,1,6,2:0:0:0:
62,263,30389,6,0,P|52:203|35:119,1,140.268333333333,0|8,3:2|3:2,2:0:0:0:
91,44,31009,1,8,2:3:0:0:
91,44,31113,1,8,2:3:0:0:
91,44,31216,2,0,P|126:56|178:71,1,70.3033333333334,0|8,3:2|2:3,2:0:0:0:
244,19,31630,1,8,3:2:0:0:
195,165,32044,6,0,P|204:204|232:236,1,70.3033333333334,6|10,3:2|2:3,2:0:0:0:
145,278,32458,2,0,P|172:307|212:320,1,70.3033333333334,10|10,3:2|2:3,2:0:0:0:
284,286,32871,2,0,P|306:259|338:245,2,70.1341666666667,2|10|10,3:2|2:3|3:2,2:0:0:0:
428,340,33699,6,0,P|439:268|454:195,1,140.268333333333,2|10,3:2|3:2,2:0:0:0:
512,134,34320,1,8,2:3:0:0:
512,134,34423,1,8,2:3:0:0:
512,134,34527,2,0,L|490:43,1,70.3033333333334,0|10,3:2|2:3,2:0:0:0:
426,6,34940,1,8,3:2:0:0:
316,114,35354,6,0,P|254:103|174:80,1,140.268333333333,2|10,3:2|3:2,2:0:0:0:
100,37,35975,2,0,P|87:79|75:132,1,70.3033333333334,10|0,2:3|3:2,2:0:0:0:
121,186,36389,1,10,2:3:0:0:
39,316,36802,1,10,2:3:0:0:
108,374,37009,6,0,P|170:377|221:317,1,140.268333333333,0|8,3:2|3:2,2:0:0:0:
177,253,37630,1,8,2:3:0:0:
177,253,37733,1,8,2:3:0:0:
177,253,37837,2,0,P|185:214|199:172,1,70.3033333333334,0|10,3:2|2:3,2:0:0:0:
268,131,38251,1,10,3:2:0:0:
361,252,38664,6,0,L|381:347,1,70.3033333333334,2|10,3:2|2:3,2:0:0:0:
466,332,39078,2,0,L|451:263,1,70.3033333333334,10|10,3:2|2:3,2:0:0:0:
498,184,39492,2,0,L|512:115,2,70.1341666666667,2|10|10,3:2|2:3|3:2,2:0:0:0:
361,252,40320,6,0,P|293:258|254:198,1,140.268333333333,2|8,3:2|3:2,2:0:0:0:
189,158,40940,1,8,2:3:0:0:
189,158,41044,1,8,2:3:0:0:
189,158,41147,2,0,P|198:119|216:68,1,70.3033333333334,0|10,3:2|2:3,2:0:0:0:
270,24,41561,1,10,3:2:0:0:
406,95,41975,6,0,P|387:165|369:252,1,140.268333333333,2|10,3:2|3:2,2:0:0:0:
421,308,42596,2,0,L|339:330,1,70.3033333333334,10|0,2:3|3:2,2:0:0:0:
270,363,43009,2,0,L|202:344,1,70.3033333333334,10|8,2:3|3:2,2:0:0:0:
109,312,43423,1,6,2:0:0:0:
183,248,43630,5,0,3:2:0:0:
116,185,43837,2,0,L|59:172,2,35.1516666666667,8|8|8,2:3|2:3|3:2,2:0:0:0:
191,133,44251,2,0,L|225:140,2,35.1516666666667,8|8|2,2:3|2:3|3:2,2:0:0:0:
141,56,44664,2,0,L|106:48,2,35.1516666666667,8|8|10,2:3|2:3|3:2,2:0:0:0:
305,20,45285,6,0,B|361:11|361:11|456:56,1,140.268333333333,4|10,3:2|3:2,2:0:0:0:
485,123,45906,1,10,2:3:0:0:
485,123,46113,2,0,P|469:193|451:279,1,140.268333333333,2|10,3:2|3:2,2:0:0:0:
500,338,46733,1,10,2:3:0:0:
420,382,46940,6,0,P|379:371|344:356,1,70.3033333333334,2|10,3:2|2:3,2:0:0:0:
284,300,47354,2,0,P|243:311|208:326,1,70.3033333333334,10|10,3:2|2:3,2:0:0:0:
185,346,47664,1,8,2:3:0:0:
185,346,47768,2,0,L|101:329,2,70.1341666666667,0|10|10,3:2|2:3|3:2,2:0:0:0:
136,195,48596,6,0,P|127:131|189:88,1,140.268333333333,2|10,3:2|3:2,2:0:0:0:
322,149,49423,2,0,L|392:134,1,70.3033333333334,0|10,3:2|2:3,2:0:0:0:
462,78,49837,1,8,3:2:0:0:
501,167,50044,6,0,P|485:233|471:315,1,140.268333333333,6|10,2:0|2:3,2:0:0:0:
396,354,50664,2,0,L|320:371,1,70.3033333333334,10|10,3:2|2:3,2:0:0:0:
276,293,51078,2,0,L|344:277,1,70.3033333333334,2|10,3:2|2:3,2:0:0:0:
412,216,51492,1,10,3:2:0:0:
349,165,51699,1,10,2:3:0:0:
349,165,51802,1,2,2:0:0:0:
349,165,51906,6,0,P|286:118|222:134,1,140.268333333333,6|10,3:2|3:2,2:0:0:0:
107,222,52733,2,0,L|128:304,1,70.3033333333334,0|10,3:2|2:3,2:0:0:0:
151,377,53147,1,8,3:2:0:0:
54,358,53354,6,0,L|12:191,1,140.268333333333,6|10,2:0|2:3,2:0:0:0:
63,141,53975,2,0,L|77:59,1,70.3033333333334,10|10,3:2|2:3,2:0:0:0:
156,30,54389,2,0,L|205:19,3,35.0388888888889,14|12|6|12,3:0|3:0|3:0|3:0,2:0:0:0:
234,32,54802,2,0,L|268:39,3,35.0388888888889,14|0|0|0,3:0|3:0|3:0|3:0,2:0:0:0:
312,28,55216,6,0,P|376:20|418:91,1,140.268333333333,6|2,3:2|3:2,2:0:0:0:
357,143,55837,1,0,2:0:0:0:
422,206,56044,2,0,L|440:285,1,70.3033333333334,10|0,3:1|2:0,2:0:0:0:
363,328,56458,2,0,L|347:259,1,70.3033333333334,14|0,2:1|2:0,2:0:0:0:
266,218,56871,6,0,P|229:207|178:199,2,70.1341666666667,2|8|2,3:2|2:1|3:2,2:0:0:0:
347,259,57492,1,0,3:2:0:0:
280,321,57699,2,0,P|243:332|192:340,1,70.3033333333334,10|0,3:1|2:0,2:0:0:0:
141,279,58113,2,0,P|104:268|53:260,1,70.3033333333334,14|0,2:1|2:0,2:0:0:0:
4,189,58527,5,4,3:2:0:0:
4,189,58733,1,0,3:2:0:0:
75,133,58940,1,8,2:1:0:0:
225,218,59354,5,4,3:2:0:0:
225,218,59561,1,0,3:2:0:0:
296,162,59768,1,8,2:1:0:0:
176,43,60182,6,0,L|94:26,2,70.1341666666667,6|6|6,3:2|3:2|3:2,2:0:0:0:
278,19,60802,2,0,P|347:12|378:82,1,140.268333333333,6|8,3:2|2:3,2:0:0:0:
437,145,61423,1,8,3:2:0:0:
388,305,61837,6,0,P|319:316|226:340,1,140.268333333333,6|2,3:2|3:2,2:0:0:0:
171,378,62458,1,0,3:0:0:0:
104,316,62664,2,0,L|88:239,1,70.3033333333334,10|0,3:1|2:0,2:0:0:0:
153,181,63078,2,0,L|169:104,1,70.3033333333334,14|2,2:1|2:0,2:0:0:0:
107,42,63492,6,0,P|68:48|25:63,2,70.1341666666667,2|8|2,3:2|2:1|3:2,2:0:0:0:
167,112,64113,1,0,3:2:0:0:
101,175,64320,2,0,P|92:208|85:243,1,70.3033333333334,10|0,3:1|2:0,2:0:0:0:
143,313,64733,2,0,P|179:306|210:296,1,70.3033333333334,12|0,2:1|2:0,2:0:0:0:
289,249,65147,5,4,3:2:0:0:
321,355,65354,1,0,3:2:0:0:
321,355,65975,2,0,P|354:308|399:273,1,105.116666666667,8|8,2:1|2:1,2:0:0:0:
436,281,66389,2,0,L|445:328,2,35.1516666666667,8|4|4,2:1|2:3|2:3,2:0:0:0:
474,190,66802,6,0,B|375:151|263:128,1,210.233333333333,6|2,3:2|2:0,2:0:0:0:
193,60,67630,2,0,B|158:125|158:125|200:263,1,210.233333333333,6|2,3:2|2:0,2:0:0:0:
236,353,68458,1,6,3:2:0:0:
256,192,68561,12,4,70113,3:2:0:0:
59,245,71768,6,0,L|221:280,1,154.295171366374,6|10,3:2|3:2,2:0:0:0:
298,231,72389,1,10,2:3:0:0:
362,308,72596,2,0,P|349:348|340:387,2,77.147585683187,2|10|10,3:2|2:3|3:2,2:0:0:0:
442,248,73216,6,0,P|429:163|413:74,2,154.10908803304,10|10|10,2:3|2:3|2:3,2:0:0:0:
362,308,74251,1,2,3:2:0:0:
362,308,74458,1,8,2:3:0:0:
298,231,74664,2,0,P|258:222|215:256,1,77.3336690165203,8|8,3:2|2:3,2:0:0:0:
155,308,75078,6,0,L|174:388,1,77.3336690165203,2|10,3:2|2:3,2:0:0:0:
74,360,75492,2,0,L|56:285,1,77.3336690165203,10|10,3:2|2:3,2:0:0:0:
2,200,75906,2,0,L|19:125,1,77.3336690165203,2|10,3:2|2:3,2:0:0:0:
88,51,76320,1,10,3:2:0:0:
88,51,76527,1,10,2:3:0:0:
158,121,76733,6,0,P|200:112|245:97,1,77.3336690165203,2|10,3:2|2:3,2:0:0:0:
301,28,77147,2,0,P|343:37|388:52,1,77.3336690165203,10|10,3:2|2:3,2:0:0:0:
466,102,77561,1,2,3:2:0:0:
466,102,77768,1,10,2:3:0:0:
430,203,77975,1,14,3:2:0:0:
502,373,78389,6,0,P|441:353|378:337,1,115.628336858113,6|0,3:2|2:0,2:0:0:0:
348,356,78802,2,0,P|309:371|253:382,1,77.3336690165203,10|8,3:2|2:3,2:0:0:0:
237,354,79113,1,2,2:0:0:0:
237,354,79216,1,2,3:2:0:0:
154,297,79423,2,0,P|115:282|59:271,2,77.147585683187,10|8|10,2:3|3:2|2:3,2:0:0:0:
237,354,80044,6,0,P|245:316|260:263,1,77.3336690165203,2|10,3:2|2:3,2:0:0:0:
331,213,80458,2,0,P|323:175|308:122,1,77.3336690165203,10|10,3:2|2:3,2:0:0:0:
248,61,80871,1,2,3:2:0:0:
180,135,81078,2,0,L|193:193,2,38.6668345082601,10|2|14,2:3|2:0|3:2,2:0:0:0:
106,83,81492,1,10,2:3:0:0:
106,83,81596,1,2,2:0:0:0:
106,83,81699,5,14,2:0:0:0:
54,178,81906,2,0,P|59:252|127:286,1,154.295171366374,14|2,2:0|2:0,2:0:0:0:
199,220,82527,2,0,P|277:200|356:184,1,154.295171366374,2|2,2:0|2:0,2:0:0:0:
429,254,83147,1,2,2:0:0:0:
505,177,83354,5,14,2:0:0:0:
423,105,83561,2,0,P|347:89|273:70,1,154.295171366374,14|2,2:0|2:0,2:0:0:0:
193,8,84182,2,0,P|233:63|191:140,1,154.295171366374,2|2,2:0|2:0,2:0:0:0:
100,122,84802,1,2,2:0:0:0:
161,210,85009,5,12,2:0:0:0:
56,234,85216,2,0,P|96:312|184:315,1,154.295171366374,12|0,3:2|2:0,2:0:0:0:
251,273,85837,1,12,2:0:0:0:
305,371,86044,1,12,3:2:0:0:
305,371,86251,2,0,P|345:358|386:347,1,77.3336690165203,8|0,3:2|2:0,2:0:0:0:
465,284,86664,6,0,P|473:244|485:200,1,77.3336690165203,12|0,2:0|3:2,2:0:0:0:
430,125,87078,1,14,2:0:0:0:
256,192,87182,12,0,89561,2:1:0:0:
412,129,89975,5,6,3:2:0:0:
412,129,90182,2,0,P|342:107|271:92,1,140.268333333333,2|2,3:2|3:2,2:0:0:0:
201,144,90802,2,0,L|218:214,2,70.1341666666667,8|2|14,3:1|2:0|2:1,2:0:0:0:
93,33,91630,6,0,L|70:118,1,70.3033333333334,0|8,3:2|2:1,2:0:0:0:
11,166,92044,1,0,3:2:0:0:
11,166,92251,1,0,3:2:0:0:
65,238,92458,2,0,P|138:258|219:274,1,140.268333333333,8|14,3:1|2:1,2:0:0:0:
317,170,93285,5,2,3:2:0:0:
317,170,93492,2,0,P|379:157|408:225,1,140.268333333333,2|2,3:2|3:2,2:0:0:0:
360,293,94113,2,0,P|349:334|343:374,2,70.1341666666667,8|2|14,3:1|2:0|2:1,2:0:0:0:
471,167,94940,5,12,2:0:0:0:
492,262,95147,1,12,3:2:0:0:
469,159,95768,5,12,2:0:0:0:
495,272,95975,1,12,3:2:0:0:
256,192,96596,5,4,3:2:0:0:
256,192,96699,12,4,98251,3:2:0:0:
353,57,99906,6,0,P|429:51|456:120,1,154.295171366374,6|10,3:2|3:2,2:0:0:0:
384,182,100527,1,10,2:3:0:0:
440,264,100733,2,0,P|485:251|525:244,2,77.147585683187,2|10|10,3:2|2:3|3:2,2:0:0:0:
366,332,101354,6,0,L|195:300,2,154.10908803304,10|10|10,2:3|2:3|2:3,2:0:0:0:
440,264,102389,1,2,3:2:0:0:
440,264,102596,1,8,2:3:0:0:
384,182,102802,2,0,P|394:142|411:90,1,77.3336690165203,8|8,3:2|2:3,2:0:0:0:
343,28,103216,6,0,P|302:41|249:51,1,77.3336690165203,2|10,3:2|2:3,2:0:0:0:
176,7,103630,1,10,3:2:0:0:
42,111,104044,2,0,P|54:149|70:203,1,77.3336690165203,2|10,3:2|2:3,2:0:0:0:
125,264,104458,2,0,P|154:289|207:281,1,77.3336690165203,10|10,3:2|2:3,2:0:0:0:
275,222,104871,5,6,3:2:0:0:
275,222,105078,1,6,3:2:0:0:
347,309,105285,1,14,3:2:0:0:
347,309,105492,2,0,P|365:240|391:155,1,154.295171366374,6|10,2:0|2:3,2:0:0:0:
465,84,106113,1,10,3:2:0:0:
295,9,106527,6,0,P|235:21|172:39,1,115.628336858113,6|0,3:2|2:0,2:0:0:0:
145,52,106940,2,0,P|134:91|125:139,1,77.3336690165203,10|8,3:2|2:3,2:0:0:0:
99,162,107251,1,2,2:0:0:0:
99,162,107354,1,2,3:2:0:0:
161,239,107561,2,0,P|171:276|179:313,2,77.147585683187,10|8|10,2:3|3:2|2:3,2:0:0:0:
99,162,108182,6,0,P|138:138|189:149,1,77.3336690165203,2|10,3:2|2:3,2:0:0:0:
254,191,108596,2,0,P|291:189|322:168,1,77.3336690165203,10|10,3:2|2:3,2:0:0:0:
360,75,109009,1,2,3:2:0:0:
433,142,109216,2,0,L|491:130,2,38.6668345082601,10|2|14,2:3|2:0|3:2,2:0:0:0:
389,232,109630,1,10,2:3:0:0:
389,232,109733,1,2,2:0:0:0:
389,232,109837,5,14,2:0:0:0:
473,298,110044,2,0,P|424:319|309:348,1,154.295171366374,14|2,2:0|2:0,2:0:0:0:
254,275,110664,2,0,P|204:214|133:229,1,154.295171366374,2|2,2:0|2:0,2:0:0:0:
81,309,111285,1,2,2:0:0:0:
6,231,111492,5,14,2:0:0:0:
87,160,111699,2,0,P|167:182|244:199,1,154.295171366374,14|2,2:0|2:0,2:0:0:0:
326,138,112320,2,0,P|288:165|301:268,1,154.295171366374,2|2,2:0|2:0,2:0:0:0:
382,213,112940,1,2,2:0:0:0:
431,308,113147,5,12,2:0:0:0:
508,233,113354,2,0,P|494:160|475:75,1,154.295171366374,12|0,3:2|2:0,2:0:0:0:
390,16,113975,1,12,2:0:0:0:
337,112,114182,1,12,3:2:0:0:
337,112,114389,2,0,P|293:105|238:86,1,77.3336690165203,8|0,3:2|2:0,2:0:0:0:
174,32,114802,6,0,P|135:37|98:48,1,77.3336690165203,12|0,2:0|3:2,2:0:0:0:
30,119,115216,1,14,2:0:0:0:
256,192,115320,12,8,117285,2:1:0:0:
166,229,117699,6,0,P|199:219|233:211,1,70.3033333333334,8|4,2:1|2:3,2:0:0:0:
331,267,118113,5,14,3:2:0:0:
331,267,118320,1,14,3:2:0:0:
402,190,118527,1,6,3:2:0:0:
402,190,118733,1,14,3:2:0:0:
249,88,119147,5,14,3:2:0:0:
282,188,119354,1,14,3:2:0:0:
184,223,119561,1,6,3:2:0:0:
151,123,119768,1,14,3:2:0:0:
