osu file format v14

[General]
AudioFilename: audio.mp3
AudioLeadIn: 0
PreviewTime: 76479
Countdown: 0
SampleSet: Normal
StackLeniency: 0.7
Mode: 1
LetterboxInBreaks: 0
WidescreenStoryboard: 0

[Editor]
Bookmarks: 10498,16574,28726,40878,53030,65182,112271
DistanceSpacing: 1.2
BeatDivisor: 4
GridSize: 32
TimelineZoom: 1.2

[Metadata]
Title:Sekai ga Cafe ni Nacchatta!
TitleUnicode:セカイがカフェになっちゃった!
Artist:Petit Rabbit's with beans
ArtistUnicode:Petit Rabbit's with beans
Creator:Tyistiana
Version:Fapu's Muzukashii
Source:ご注文はうさぎですか?? ~Dear My Sister~
Tags:gochiusa movie gochuumon wa usagi desu ka?? dear my sister is the order a rabbit?? ed ending hoto cocoa sakura ayane kafuu chino minase inori tedeza rize taneda risa ujimatsu chiya satou satomi kirima syaro uchida maya jouga maya tokui sora natsu megumi murakawa rie ごちうさ 佐倉綾音 水瀬いのり 種田梨沙 佐藤聡美 内田真礼 ココア チノ リゼ シャロ 千夜 マヤ メグ 徳井青空 村川梨衣 -gn junior cynplytholowazy faputa blackener [r] ron nardoxyribonucleic
BeatmapID:1808715
BeatmapSetID:864036

[Difficulty]
HPDrainRate:6
CircleSize:2
OverallDifficulty:4
ApproachRate:10
SliderMultiplier:1.4
SliderTickRate:1

[Events]
//Background and Video events
0,0,"sc2.jpg",0,0
//Break Periods
//Storyboard Layer 0 (Background)
//Storyboard Layer 1 (Fail)
//Storyboard Layer 2 (Pass)
//Storyboard Layer 3 (Foreground)
//Storyboard Layer 4 (Overlay)
//Storyboard Sound Samples

[TimingPoints]
4423,379.746835443038,4,1,0,40,1,0
10309,-100,4,1,0,90,0,0
28916,-100,4,1,0,80,0,0
77334,-100,4,1,0,100,0,1
88726,-100,4,1,0,100,0,0
89486,-100,4,1,0,100,0,1
109233,-100,4,1,0,100,0,0
112271,379.746835443038,4,1,0,100,1,0
124422,-100,4,1,0,100,0,1
136574,-100,4,1,0,100,0,0

[HitObjects]
256,192,4423,5,0,0:0:0:0:
256,192,6701,1,8,0:0:0:0:
256,192,7460,1,0,0:0:0:0:
256,192,8979,1,8,0:0:0:0:
256,192,9359,1,0,0:0:0:0:
256,192,9549,1,8,0:0:0:0:
256,192,9929,1,0,0:0:0:0:
256,192,10498,1,8,0:0:0:0:
256,192,10878,1,0,0:0:0:0:
256,192,11068,1,8,0:0:0:0:
256,192,11448,1,12,0:0:0:0:
256,192,12017,1,8,0:0:0:0:
256,192,12397,1,0,0:0:0:0:
256,192,12587,1,8,0:0:0:0:
256,192,12967,1,12,0:0:0:0:
256,192,13157,1,12,0:0:0:0:
256,192,13347,1,0,0:0:0:0:
256,192,13441,1,0,0:0:0:0:
256,192,13536,1,0,0:0:0:0:
256,192,13726,1,8,0:0:0:0:
256,192,13916,1,8,0:0:0:0:
256,192,14106,1,4,0:0:0:0:
256,192,14486,1,4,0:0:0:0:
256,192,14866,1,12,0:0:0:0:
256,192,15245,1,0,0:0:0:0:
256,192,15435,1,0,0:0:0:0:
256,192,15625,8,0,16385,0:0:0:0:
256,192,16574,5,4,0:0:0:0:
256,192,17144,1,8,0:0:0:0:
256,192,17334,1,0,0:0:0:0:
256,192,17524,1,0,0:0:0:0:
256,192,17714,1,8,0:0:0:0:
256,192,18093,1,0,0:0:0:0:
256,192,18283,1,0,0:0:0:0:
256,192,18473,1,8,0:0:0:0:
256,192,18663,1,0,0:0:0:0:
256,192,18853,1,8,0:0:0:0:
256,192,19233,1,0,0:0:0:0:
256,192,19612,1,8,0:0:0:0:
256,192,19802,1,8,0:0:0:0:
256,192,19992,1,0,0:0:0:0:
256,192,20182,1,0,0:0:0:0:
256,192,20562,1,8,0:0:0:0:
256,192,20752,1,0,0:0:0:0:
256,192,20941,1,12,0:0:0:0:
256,192,21321,1,12,0:0:0:0:
256,192,21701,1,0,0:0:0:0:
256,192,21891,1,8,0:0:0:0:
256,192,21986,1,8,0:0:0:0:
256,192,22081,1,8,0:0:0:0:
256,192,22271,1,0,0:0:0:0:
256,192,22650,1,12,0:0:0:0:
256,192,23220,1,0,0:0:0:0:
256,192,23410,1,8,0:0:0:0:
256,192,23600,1,8,0:0:0:0:
256,192,23790,1,0,0:0:0:0:
256,192,23979,1,8,0:0:0:0:
256,192,24359,1,0,0:0:0:0:
256,192,24549,1,8,0:0:0:0:
256,192,24739,1,0,0:0:0:0:
256,192,24929,1,8,0:0:0:0:
256,192,25024,1,8,0:0:0:0:
256,192,25119,1,8,0:0:0:0:
256,192,25309,1,0,0:0:0:0:
256,192,25688,1,0,0:0:0:0:
256,192,25878,1,0,0:0:0:0:
256,192,26068,1,8,0:0:0:0:
256,192,26258,1,4,0:0:0:0:
256,192,26638,1,0,0:0:0:0:
256,192,26828,1,8,0:0:0:0:
256,192,27017,1,4,0:0:0:0:
256,192,27397,1,4,0:0:0:0:
256,192,27777,1,12,0:0:0:0:
256,192,27967,1,12,0:0:0:0:
256,192,28726,1,4,0:0:0:0:
256,192,29106,1,8,0:0:0:0:
256,192,29486,1,0,0:0:0:0:
256,192,29676,1,8,0:0:0:0:
256,192,30055,1,8,0:0:0:0:
256,192,30435,1,0,0:0:0:0:
256,192,30625,1,8,0:0:0:0:
256,192,30815,1,8,0:0:0:0:
256,192,31195,1,0,0:0:0:0:
256,192,31385,1,8,0:0:0:0:
256,192,31764,1,8,0:0:0:0:
256,192,32144,1,8,0:0:0:0:
256,192,32334,1,0,0:0:0:0:
256,192,32524,1,8,0:0:0:0:
256,192,32714,1,8,0:0:0:0:
256,192,33093,1,0,0:0:0:0:
256,192,33473,1,8,0:0:0:0:
256,192,33663,1,8,0:0:0:0:
256,192,33853,1,0,0:0:0:0:
256,192,34233,1,0,0:0:0:0:
256,192,34423,1,8,0:0:0:0:
256,192,34612,1,0,0:0:0:0:
256,192,34802,1,12,0:0:0:0:
256,192,35372,1,8,0:0:0:0:
256,192,35752,1,8,0:0:0:0:
256,192,36131,1,0,0:0:0:0:
256,192,36511,1,8,0:0:0:0:
256,192,36701,1,0,0:0:0:0:
256,192,36891,1,0,0:0:0:0:
256,192,37081,1,8,0:0:0:0:
256,192,37271,1,8,0:0:0:0:
256,192,37460,1,0,0:0:0:0:
256,192,37555,1,0,0:0:0:0:
256,192,37650,1,0,0:0:0:0:
256,192,37840,1,12,0:0:0:0:
256,192,38220,1,8,0:0:0:0:
256,192,38410,1,4,0:0:0:0:
256,192,38790,1,0,0:0:0:0:
256,192,39169,1,12,0:0:0:0:
256,192,39549,1,8,0:0:0:0:
256,192,39644,1,8,0:0:0:0:
256,192,39739,1,8,0:0:0:0:
256,192,39929,1,4,0:0:0:0:
256,192,40119,1,8,0:0:0:0:
256,192,40498,1,0,0:0:0:0:
256,192,40878,1,12,0:0:0:0:
256,192,41448,1,8,0:0:0:0:
256,192,41638,1,0,0:0:0:0:
256,192,41828,1,8,0:0:0:0:
256,192,42207,1,0,0:0:0:0:
256,192,42587,1,0,0:0:0:0:
256,192,42777,1,8,0:0:0:0:
256,192,42967,1,0,0:0:0:0:
256,192,43347,1,0,0:0:0:0:
256,192,43536,1,8,0:0:0:0:
256,192,43916,1,0,0:0:0:0:
256,192,44296,1,8,0:0:0:0:
256,192,44486,1,0,0:0:0:0:
256,192,44676,1,0,0:0:0:0:
256,192,44866,1,8,0:0:0:0:
256,192,45245,1,8,0:0:0:0:
256,192,45625,1,0,0:0:0:0:
256,192,45815,1,0,0:0:0:0:
256,192,46005,1,8,0:0:0:0:
256,192,46385,1,8,0:0:0:0:
256,192,46574,1,0,0:0:0:0:
256,192,46764,1,0,0:0:0:0:
256,192,46954,1,12,0:0:0:0:
256,192,47524,1,8,0:0:0:0:
256,192,47904,1,0,0:0:0:0:
256,192,48283,1,8,0:0:0:0:
256,192,48663,1,8,0:0:0:0:
256,192,48853,1,0,0:0:0:0:
256,192,49043,1,0,0:0:0:0:
256,192,49233,1,8,0:0:0:0:
256,192,49423,1,8,0:0:0:0:
256,192,49612,1,0,0:0:0:0:
256,192,49992,1,12,0:0:0:0:
256,192,50372,1,8,0:0:0:0:
256,192,50562,1,0,0:0:0:0:
256,192,50657,1,0,0:0:0:0:
256,192,50752,1,0,0:0:0:0:
256,192,50941,1,8,0:0:0:0:
256,192,51131,1,0,0:0:0:0:
256,192,51321,1,12,0:0:0:0:
256,192,51701,1,8,0:0:0:0:
256,192,51891,1,8,0:0:0:0:
256,192,52081,1,0,0:0:0:0:
256,192,52271,1,8,0:0:0:0:
256,192,52366,1,8,0:0:0:0:
256,192,52460,1,8,0:0:0:0:
256,192,52650,1,0,0:0:0:0:
256,192,53030,1,4,0:0:0:0:
256,192,53410,1,8,0:0:0:0:
256,192,53600,1,8,0:0:0:0:
256,192,53790,1,0,0:0:0:0:
256,192,53979,1,8,0:0:0:0:
256,192,54359,1,0,0:0:0:0:
256,192,54929,1,8,0:0:0:0:
256,192,55119,1,0,0:0:0:0:
256,192,55309,1,0,0:0:0:0:
256,192,55498,1,8,0:0:0:0:
256,192,55878,1,0,0:0:0:0:
256,192,56068,1,8,0:0:0:0:
256,192,56448,1,0,0:0:0:0:
256,192,56638,1,8,0:0:0:0:
256,192,56828,1,0,0:0:0:0:
256,192,57017,1,0,0:0:0:0:
256,192,57397,1,8,0:0:0:0:
256,192,57777,1,0,0:0:0:0:
256,192,57967,1,8,0:0:0:0:
256,192,58157,1,8,0:0:0:0:
256,192,58347,1,0,0:0:0:0:
256,192,58441,1,0,0:0:0:0:
256,192,58536,1,0,0:0:0:0:
256,192,58726,1,8,0:0:0:0:
256,192,59106,1,4,0:0:0:0:
256,192,59676,1,8,0:0:0:0:
256,192,60055,1,0,0:0:0:0:
256,192,60435,1,12,0:0:0:0:
256,192,61005,1,0,0:0:0:0:
256,192,61195,1,0,0:0:0:0:
256,192,61385,1,8,0:0:0:0:
256,192,61574,1,8,0:0:0:0:
256,192,61764,1,0,0:0:0:0:
256,192,61954,1,8,0:0:0:0:
256,192,62144,1,4,0:0:0:0:
256,192,62524,1,8,0:0:0:0:
256,192,62714,1,0,0:0:0:0:
256,192,63093,1,0,0:0:0:0:
256,192,63188,1,0,0:0:0:0:
256,192,63283,1,0,0:0:0:0:
256,192,63473,1,12,0:0:0:0:
256,192,63853,1,0,0:0:0:0:
256,192,64043,1,8,0:0:0:0:
256,192,64233,1,8,0:0:0:0:
256,192,64328,1,8,0:0:0:0:
256,192,64423,1,8,0:0:0:0:
256,192,64612,1,0,0:0:0:0:
256,192,64802,1,8,0:0:0:0:
256,192,65182,1,4,0:0:0:0:
256,192,65562,1,8,0:0:0:0:
256,192,65752,1,0,0:0:0:0:
256,192,65941,1,0,0:0:0:0:
256,192,66131,1,8,0:0:0:0:
256,192,66511,1,4,0:0:0:0:
256,192,67081,1,8,0:0:0:0:
256,192,67460,1,0,0:0:0:0:
256,192,67555,1,0,0:0:0:0:
256,192,67650,1,0,0:0:0:0:
256,192,67840,1,8,0:0:0:0:
256,192,68220,1,4,0:0:0:0:
256,192,68600,1,8,0:0:0:0:
256,192,68790,1,0,0:0:0:0:
256,192,68979,1,0,0:0:0:0:
256,192,69169,1,8,0:0:0:0:
256,192,69549,1,12,0:0:0:0:
256,192,69929,1,0,0:0:0:0:
256,192,70119,1,8,0:0:0:0:
256,192,70309,1,0,0:0:0:0:
256,192,70404,1,0,0:0:0:0:
256,192,70498,1,0,0:0:0:0:
256,192,70688,1,8,0:0:0:0:
256,192,70878,1,0,0:0:0:0:
256,192,71258,1,8,0:0:0:0:
256,192,71638,1,8,0:0:0:0:
256,192,71828,1,0,0:0:0:0:
256,192,72207,1,0,0:0:0:0:
256,192,72397,1,0,0:0:0:0:
256,192,72777,1,8,0:0:0:0:
256,192,73157,1,0,0:0:0:0:
256,192,73347,1,8,0:0:0:0:
256,192,73726,1,8,0:0:0:0:
256,192,73916,1,8,0:0:0:0:
256,192,74106,1,0,0:0:0:0:
256,192,74201,1,0,0:0:0:0:
256,192,74296,1,0,0:0:0:0:
256,192,74581,1,8,0:0:0:0:
256,192,74866,1,0,0:0:0:0:
256,192,75055,1,8,0:0:0:0:
256,192,75245,1,8,0:0:0:0:
256,192,75435,1,0,0:0:0:0:
256,192,75815,1,12,0:0:0:0:
256,192,76005,1,12,0:0:0:0:
256,192,76195,1,12,0:0:0:0:
256,192,77334,1,4,0:0:0:0:
256,192,77714,1,8,0:0:0:0:
256,192,78093,1,0,0:0:0:0:
256,192,78283,1,0,0:0:0:0:
256,192,78473,1,8,0:0:0:0:
256,192,78853,1,8,0:0:0:0:
256,192,79043,1,8,0:0:0:0:
320,224,79233,1,0,0:0:0:0:
256,192,79423,1,8,0:0:0:0:
256,192,79802,1,0,0:0:0:0:
256,192,80372,1,0,0:0:0:0:
256,192,80562,1,0,0:0:0:0:
256,192,80752,1,8,0:0:0:0:
256,192,81131,1,0,0:0:0:0:
256,192,81321,1,0,0:0:0:0:
256,192,81511,1,8,0:0:0:0:
256,192,81891,1,8,0:0:0:0:
256,192,82081,1,0,0:0:0:0:
256,192,82271,1,8,0:0:0:0:
256,192,82460,1,8,0:0:0:0:
256,192,82840,1,0,0:0:0:0:
256,192,83410,1,8,0:0:0:0:
256,192,83790,1,8,0:0:0:0:
256,192,83979,1,0,0:0:0:0:
256,192,84359,1,0,0:0:0:0:
256,192,84739,1,8,0:0:0:0:
256,192,85309,1,0,0:0:0:0:
256,192,85498,1,0,0:0:0:0:
256,192,85688,1,8,0:0:0:0:
256,192,86068,1,8,0:0:0:0:
256,192,86448,1,4,0:0:0:0:
256,192,86828,1,8,0:0:0:0:
256,192,86923,1,8,0:0:0:0:
256,192,87017,1,8,0:0:0:0:
256,192,87207,1,0,0:0:0:0:
256,192,87397,1,8,0:0:0:0:
256,192,87777,1,12,0:0:0:0:
256,192,88157,1,0,0:0:0:0:
256,192,88347,1,0,0:0:0:0:
256,192,88536,1,0,0:0:0:0:
256,192,88726,1,8,0:0:0:0:
256,192,88916,1,8,0:0:0:0:
256,192,89106,1,0,0:0:0:0:
256,192,89201,1,0,0:0:0:0:
256,192,89296,1,0,0:0:0:0:
256,192,89486,1,12,0:0:0:0:
256,192,89866,1,8,0:0:0:0:
256,192,90245,1,0,0:0:0:0:
256,192,90435,1,0,0:0:0:0:
256,192,90625,1,8,0:0:0:0:
256,192,91005,1,8,0:0:0:0:
256,192,91195,1,0,0:0:0:0:
256,192,91385,1,8,0:0:0:0:
256,192,91574,1,8,0:0:0:0:
256,192,91954,1,0,0:0:0:0:
256,192,92524,1,8,0:0:0:0:
256,192,92714,1,0,0:0:0:0:
256,192,92904,1,8,0:0:0:0:
256,192,93283,1,8,0:0:0:0:
256,192,93473,1,0,0:0:0:0:
256,192,93663,1,8,0:0:0:0:
256,192,94043,1,0,0:0:0:0:
256,192,94233,1,8,0:0:0:0:
256,192,94423,1,8,0:0:0:0:
256,192,94612,1,0,0:0:0:0:
256,192,94992,1,8,0:0:0:0:
256,192,95562,1,8,0:0:0:0:
256,192,95941,1,0,0:0:0:0:
256,192,96131,1,8,0:0:0:0:
256,192,96511,1,12,0:0:0:0:
256,192,97081,1,8,0:0:0:0:
256,192,97271,1,0,0:0:0:0:
256,192,97460,1,8,0:0:0:0:
256,192,97650,1,0,0:0:0:0:
256,192,98030,1,12,0:0:0:0:
256,192,98220,1,12,0:0:0:0:
256,192,98600,1,0,0:0:0:0:
256,192,98790,1,0,0:0:0:0:
256,192,98979,1,8,0:0:0:0:
256,192,99169,1,4,0:0:0:0:
256,192,99549,1,4,0:0:0:0:
256,192,99929,1,12,0:0:0:0:
256,192,100309,1,0,0:0:0:0:
256,192,100498,1,8,0:0:0:0:
256,192,100688,1,0,0:0:0:0:
256,192,100878,1,8,0:0:0:0:
256,192,100973,1,8,0:0:0:0:
256,192,101068,1,8,0:0:0:0:
256,192,101258,1,0,0:0:0:0:
256,192,101638,1,8,0:0:0:0:
256,192,102017,1,0,0:0:0:0:
256,192,102207,1,8,0:0:0:0:
256,192,102587,1,12,0:0:0:0:
256,192,103157,1,8,0:0:0:0:
256,192,103536,1,8,0:0:0:0:
256,192,103726,1,0,0:0:0:0:
256,192,104106,1,12,0:0:0:0:
256,192,104296,1,12,0:0:0:0:
256,192,104676,1,0,0:0:0:0:
256,192,104866,1,0,0:0:0:0:
256,192,105055,1,8,0:0:0:0:
256,192,105245,1,4,0:0:0:0:
256,192,105625,1,4,0:0:0:0:
256,192,106005,1,12,0:0:0:0:
256,192,106574,1,8,0:0:0:0:
256,192,106954,1,0,0:0:0:0:
256,192,107334,1,0,0:0:0:0:
256,192,107714,1,8,0:0:0:0:
256,192,107904,1,0,0:0:0:0:
256,192,108093,1,8,0:0:0:0:
256,192,108283,1,8,0:0:0:0:
256,192,108473,1,0,0:0:0:0:
256,192,108568,1,0,0:0:0:0:
256,192,108663,1,0,0:0:0:0:
256,192,108853,1,8,0:0:0:0:
256,192,109233,1,4,0:0:0:0:
256,192,109423,8,4,111511,0:0:0:0:
256,192,111891,5,12,0:0:0:0:
256,192,112271,1,4,0:0:0:0:
256,192,112650,1,8,0:0:0:0:
256,192,113030,1,0,0:0:0:0:
256,192,113220,1,0,0:0:0:0:
256,192,113410,1,8,0:0:0:0:
256,192,113790,1,0,0:0:0:0:
256,192,113979,1,8,0:0:0:0:
256,192,114359,1,8,0:0:0:0:
256,192,114739,1,0,0:0:0:0:
256,192,114929,1,8,0:0:0:0:
256,192,115309,1,4,0:0:0:0:
256,192,115688,1,8,0:0:0:0:
256,192,115878,1,0,0:0:0:0:
256,192,116258,1,8,0:0:0:0:
256,192,116448,1,0,0:0:0:0:
256,192,116638,1,12,0:0:0:0:
256,192,117017,1,12,0:0:0:0:
256,192,117397,1,0,0:0:0:0:
256,192,117587,1,8,0:0:0:0:
256,192,117682,1,8,0:0:0:0:
256,192,117777,1,8,0:0:0:0:
256,192,117967,1,0,0:0:0:0:
256,192,118347,1,12,0:0:0:0:
256,192,118916,1,0,0:0:0:0:
256,192,119106,1,8,0:0:0:0:
256,192,119296,1,8,0:0:0:0:
256,192,119486,1,0,0:0:0:0:
256,192,119676,1,12,0:0:0:0:
256,192,120055,1,0,0:0:0:0:
256,192,120245,1,8,0:0:0:0:
256,192,120435,1,0,0:0:0:0:
256,192,120625,1,8,0:0:0:0:
256,192,120720,1,8,0:0:0:0:
256,192,120815,1,8,0:0:0:0:
256,192,121005,1,0,0:0:0:0:
256,192,121385,1,0,0:0:0:0:
256,192,121574,1,0,0:0:0:0:
256,192,121764,1,8,0:0:0:0:
256,192,121954,1,4,0:0:0:0:
256,192,122334,1,0,0:0:0:0:
256,192,122524,1,8,0:0:0:0:
256,192,122714,1,4,0:0:0:0:
256,192,123093,1,4,0:0:0:0:
256,192,123473,1,8,0:0:0:0:
256,192,123663,1,0,0:0:0:0:
256,192,123758,1,0,0:0:0:0:
256,192,123853,1,0,0:0:0:0:
256,192,124043,1,12,0:0:0:0:
256,192,124422,1,4,0:0:0:0:
256,192,124992,1,8,0:0:0:0:
256,192,125182,1,0,0:0:0:0:
256,192,125372,1,0,0:0:0:0:
256,192,125562,1,8,0:0:0:0:
256,192,125941,1,0,0:0:0:0:
256,192,126131,1,0,0:0:0:0:
256,192,126321,1,8,0:0:0:0:
256,192,126511,1,0,0:0:0:0:
256,192,126701,1,8,0:0:0:0:
256,192,127081,1,0,0:0:0:0:
256,192,127460,1,8,0:0:0:0:
256,192,127650,1,8,0:0:0:0:
256,192,127840,1,0,0:0:0:0:
256,192,128030,1,0,0:0:0:0:
256,192,128410,1,8,0:0:0:0:
256,192,128600,1,0,0:0:0:0:
256,192,128790,1,12,0:0:0:0:
256,192,129169,1,12,0:0:0:0:
256,192,129549,1,0,0:0:0:0:
256,192,129739,1,8,0:0:0:0:
256,192,129834,1,8,0:0:0:0:
256,192,129929,1,8,0:0:0:0:
256,192,130119,1,0,0:0:0:0:
256,192,130498,1,12,0:0:0:0:
256,192,131068,1,0,0:0:0:0:
256,192,131258,1,8,0:0:0:0:
256,192,131448,1,8,0:0:0:0:
256,192,131638,1,0,0:0:0:0:
256,192,131827,1,8,0:0:0:0:
256,192,132207,1,0,0:0:0:0:
256,192,132397,1,8,0:0:0:0:
256,192,132587,1,0,0:0:0:0:
256,192,132777,1,8,0:0:0:0:
256,192,132872,1,8,0:0:0:0:
256,192,132967,1,8,0:0:0:0:
256,192,133157,1,0,0:0:0:0:
256,192,133536,1,0,0:0:0:0:
256,192,133726,1,0,0:0:0:0:
256,192,133916,1,8,0:0:0:0:
256,192,134106,1,4,0:0:0:0:
256,192,134486,1,0,0:0:0:0:
256,192,134676,1,8,0:0:0:0:
256,192,134866,1,4,0:0:0:0:
256,192,135245,1,4,0:0:0:0:
256,192,135625,1,12,0:0:0:0:
256,192,135815,1,12,0:0:0:0:
256,192,136195,1,0,0:0:0:0:
256,192,136290,1,0,0:0:0:0:
256,192,136385,1,0,0:0:0:0:
256,192,136574,1,12,0:0:0:0:
256,192,137904,1,4,0:0:0:0:
256,192,139043,1,8,0:0:0:0:
256,192,139233,1,8,0:0:0:0:
256,192,139328,1,8,0:0:0:0:
256,192,139423,1,8,0:0:0:0:
256,192,139612,1,4,0:0:0:0:
256,192,140182,1,4,0:0:0:0:
256,192,140752,1,4,0:0:0:0:
256,192,141321,1,12,0:0:0:0:
256,192,141511,1,12,0:0:0:0:
256,192,141701,1,12,0:0:0:0:
