osu file format v14

[General]
AudioFilename: audio.mp3
AudioLeadIn: 0
PreviewTime: 76479
Countdown: 0
SampleSet: Normal
StackLeniency: 0.7
Mode: 1
LetterboxInBreaks: 0
WidescreenStoryboard: 0

[Editor]
Bookmarks: 10498,16574,28726,40878,53030,65182,112271
DistanceSpacing: 1.2
BeatDivisor: 2
GridSize: 32
TimelineZoom: 0.8

[Metadata]
Title:Sekai ga Cafe ni Nacchatta!
TitleUnicode:セカイがカフェになっちゃった!
Artist:Petit Rabbit's with beans
ArtistUnicode:Petit Rabbit's with beans
Creator:Tyistiana
Version:-GN Jr.'s Futsuu
Source:ご注文はうさぎですか?? ~Dear My Sister~
Tags:gochiusa movie gochuumon wa usagi desu ka?? dear my sister is the order a rabbit?? ed ending hoto cocoa sakura ayane kafuu chino minase inori tedeza rize taneda risa ujimatsu chiya satou satomi kirima syaro uchida maya jouga maya tokui sora natsu megumi murakawa rie ごちうさ 佐倉綾音 水瀬いのり 種田梨沙 佐藤聡美 内田真礼 ココア チノ リゼ シャロ 千夜 マヤ メグ 徳井青空 村川梨衣 -gn junior cynplytholowazy faputa blackener [r] ron nardoxyribonucleic
BeatmapID:1820702
BeatmapSetID:864036

[Difficulty]
HPDrainRate:6.5
CircleSize:10
OverallDifficulty:3.5
ApproachRate:10
SliderMultiplier:1.4
SliderTickRate:1

[Events]
//Background and Video events
0,0,"sc2.jpg",0,0
//Break Periods
//Storyboard Layer 0 (Background)
//Storyboard Layer 1 (Fail)
//Storyboard Layer 2 (Pass)
//Storyboard Layer 3 (Foreground)
//Storyboard Layer 4 (Overlay)
//Storyboard Sound Samples

[TimingPoints]
4423,379.746835443038,4,1,0,40,1,0
10498,-100,4,1,0,60,0,0
16574,-100,4,1,0,100,0,0
28916,-100,4,1,0,80,0,0
77334,-100,4,1,0,100,0,1
88726,-100,4,1,0,100,0,0
89486,-100,4,1,0,100,0,1
109233,-100,4,1,0,100,0,0
112271,379.746835443038,4,1,0,100,1,0
124422,-100,4,1,0,100,0,1
136574,-100,4,1,0,100,0,0

[HitObjects]
256,192,4423,5,0,0:0:0:0:
256,192,5182,1,0,0:0:0:0:
256,192,5941,1,8,0:0:0:0:
256,192,7460,1,0,0:0:0:0:
256,192,8220,1,0,0:0:0:0:
256,192,8979,1,8,0:0:0:0:
256,192,9739,1,8,0:0:0:0:
256,192,10119,1,0,0:0:0:0:
256,192,10498,1,8,0:0:0:0:
256,192,11068,1,0,0:0:0:0:
256,192,12017,1,8,0:0:0:0:
256,192,12587,1,0,0:0:0:0:
256,192,13347,1,0,0:0:0:0:
256,192,13536,1,8,0:0:0:0:
256,192,13916,1,8,0:0:0:0:
256,192,14106,1,0,0:0:0:0:
256,192,14486,1,8,0:0:0:0:
256,192,14866,1,4,0:0:0:0:
256,192,15245,1,4,0:0:0:0:
256,192,15435,1,4,0:0:0:0:
256,192,16195,1,8,0:0:0:0:
256,192,16574,1,4,0:0:0:0:
256,192,16954,1,0,0:0:0:0:
256,192,17144,1,8,0:0:0:0:
256,192,17334,1,0,0:0:0:0:
256,192,17714,1,0,0:0:0:0:
256,192,17904,1,8,0:0:0:0:
256,192,18093,1,0,0:0:0:0:
256,192,18473,1,0,0:0:0:0:
256,192,18853,1,8,0:0:0:0:
256,192,19612,1,8,0:0:0:0:
256,192,20182,1,0,0:0:0:0:
256,192,20562,1,8,0:0:0:0:
256,192,20941,1,4,0:0:0:0:
256,192,21321,1,4,0:0:0:0:
256,192,21701,1,8,0:0:0:0:
256,192,21891,1,8,0:0:0:0:
256,192,22460,1,8,0:0:0:0:
256,192,22650,1,0,0:0:0:0:
256,192,23030,1,0,0:0:0:0:
256,192,23220,1,8,0:0:0:0:
256,192,23410,1,0,0:0:0:0:
256,192,23790,1,0,0:0:0:0:
256,192,23979,1,8,0:0:0:0:
256,192,24169,1,0,0:0:0:0:
256,192,24549,1,0,0:0:0:0:
256,192,24929,1,8,0:0:0:0:
256,192,25688,1,12,0:0:0:0:
256,192,26068,1,8,0:0:0:0:
256,192,26258,1,4,0:0:0:0:
256,192,26828,1,0,0:0:0:0:
256,192,27017,1,12,0:0:0:0:
256,192,27397,1,12,0:0:0:0:
256,192,27967,1,12,0:0:0:0:
256,192,28726,1,4,0:0:0:0:
256,192,29106,1,0,0:0:0:0:
256,192,29486,1,8,0:0:0:0:
256,192,30245,1,0,0:0:0:0:
256,192,30625,1,0,0:0:0:0:
256,192,31005,1,0,0:0:0:0:
256,192,31764,1,8,0:0:0:0:
256,192,32144,1,0,0:0:0:0:
256,192,32524,1,8,0:0:0:0:
256,192,32904,1,8,0:0:0:0:
256,192,33283,1,0,0:0:0:0:
256,192,34043,1,8,0:0:0:0:
256,192,34423,1,0,0:0:0:0:
256,192,34802,1,8,0:0:0:0:
256,192,35372,1,8,0:0:0:0:
256,192,35752,1,0,0:0:0:0:
256,192,36131,1,8,0:0:0:0:
256,192,36701,1,0,0:0:0:0:
256,192,37081,1,0,0:0:0:0:
256,192,37460,1,8,0:0:0:0:
256,192,37840,1,4,0:0:0:0:
256,192,38220,1,8,0:0:0:0:
256,192,38410,1,4,0:0:0:0:
256,192,38979,1,8,0:0:0:0:
256,192,39169,1,4,0:0:0:0:
256,192,39549,1,8,0:0:0:0:
256,192,39929,1,12,0:0:0:0:
256,192,40878,1,12,0:0:0:0:
256,192,41258,1,0,0:0:0:0:
256,192,41638,1,8,0:0:0:0:
256,192,42397,1,0,0:0:0:0:
256,192,42777,1,0,0:0:0:0:
256,192,43157,1,8,0:0:0:0:
256,192,43916,1,0,0:0:0:0:
256,192,44296,1,8,0:0:0:0:
256,192,44676,1,0,0:0:0:0:
256,192,45055,1,8,0:0:0:0:
256,192,45435,1,0,0:0:0:0:
256,192,46195,1,8,0:0:0:0:
256,192,46574,1,0,0:0:0:0:
256,192,46954,1,8,0:0:0:0:
256,192,47524,1,8,0:0:0:0:
256,192,47904,1,8,0:0:0:0:
256,192,48283,1,0,0:0:0:0:
256,192,48853,1,0,0:0:0:0:
256,192,49233,1,8,0:0:0:0:
256,192,49612,1,0,0:0:0:0:
256,192,49992,1,8,0:0:0:0:
256,192,50372,1,0,0:0:0:0:
256,192,50562,1,8,0:0:0:0:
256,192,51131,1,0,0:0:0:0:
256,192,51511,1,8,0:0:0:0:
256,192,51891,1,8,0:0:0:0:
256,192,52271,1,0,0:0:0:0:
256,192,52650,1,0,0:0:0:0:
256,192,53030,1,12,0:0:0:0:
256,192,53790,1,0,0:0:0:0:
256,192,54169,1,0,0:0:0:0:
256,192,54549,1,8,0:0:0:0:
256,192,55309,1,8,0:0:0:0:
256,192,55688,1,0,0:0:0:0:
256,192,56068,1,8,0:0:0:0:
256,192,56448,1,8,0:0:0:0:
256,192,56828,1,0,0:0:0:0:
256,192,57587,1,0,0:0:0:0:
256,192,57967,1,8,0:0:0:0:
256,192,58347,1,8,0:0:0:0:
256,192,58536,1,0,0:0:0:0:
256,192,59106,1,8,0:0:0:0:
256,192,59486,1,8,0:0:0:0:
256,192,59676,1,0,0:0:0:0:
256,192,60055,1,0,0:0:0:0:
256,192,60435,1,0,0:0:0:0:
256,192,60815,1,0,0:0:0:0:
256,192,61005,1,8,0:0:0:0:
256,192,61385,1,8,0:0:0:0:
256,192,62144,1,8,0:0:0:0:
256,192,62524,1,0,0:0:0:0:
256,192,62714,1,8,0:0:0:0:
256,192,63093,1,0,0:0:0:0:
256,192,63473,1,8,0:0:0:0:
256,192,64043,1,0,0:0:0:0:
256,192,64423,1,8,0:0:0:0:
256,192,64802,1,8,0:0:0:0:
256,192,65182,1,4,0:0:0:0:
256,192,65941,1,8,0:0:0:0:
256,192,66321,1,8,0:0:0:0:
256,192,66511,1,4,0:0:0:0:
256,192,67271,1,8,0:0:0:0:
256,192,67840,1,0,0:0:0:0:
256,192,68220,1,8,0:0:0:0:
256,192,68979,1,8,0:0:0:0:
256,192,69359,1,8,0:0:0:0:
256,192,69549,1,4,0:0:0:0:
256,192,70309,1,8,0:0:0:0:
256,192,70878,1,0,0:0:0:0:
256,192,71258,1,12,0:0:0:0:
256,192,71828,1,4,0:0:0:0:
256,192,72397,1,4,0:0:0:0:
256,192,72777,1,12,0:0:0:0:
256,192,73347,1,4,0:0:0:0:
256,192,73726,1,0,0:0:0:0:
256,192,74296,1,4,0:0:0:0:
256,192,74676,1,0,0:0:0:0:
256,192,75055,1,12,0:0:0:0:
256,192,75815,1,12,0:0:0:0:
256,192,76195,1,12,0:0:0:0:
256,192,76954,1,8,0:0:0:0:
256,192,77334,1,4,0:0:0:0:
256,192,77714,1,8,0:0:0:0:
256,192,78093,1,0,0:0:0:0:
256,192,78473,1,8,0:0:0:0:
256,192,78853,1,8,0:0:0:0:
256,192,79233,1,8,0:0:0:0:
256,192,79423,1,8,0:0:0:0:
256,192,79802,1,0,0:0:0:0:
256,192,80372,1,0,0:0:0:0:
256,192,80752,1,8,0:0:0:0:
256,192,81131,1,0,0:0:0:0:
256,192,81511,1,8,0:0:0:0:
256,192,81891,1,8,0:0:0:0:
256,192,82271,1,8,0:0:0:0:
256,192,82460,1,8,0:0:0:0:
256,192,82840,1,0,0:0:0:0:
256,192,83410,1,8,0:0:0:0:
256,192,83979,1,0,0:0:0:0:
256,192,84739,1,8,0:0:0:0:
256,192,85309,1,0,0:0:0:0:
256,192,85688,1,8,0:0:0:0:
256,192,86068,1,8,0:0:0:0:
256,192,86448,1,8,0:0:0:0:
256,192,87017,1,8,0:0:0:0:
256,192,87207,1,0,0:0:0:0:
256,192,87777,1,4,0:0:0:0:
256,192,88347,1,0,0:0:0:0:
256,192,88726,1,8,0:0:0:0:
256,192,89486,1,4,0:0:0:0:
256,192,89866,1,8,0:0:0:0:
256,192,90245,1,0,0:0:0:0:
256,192,90625,1,8,0:0:0:0:
256,192,91005,1,8,0:0:0:0:
256,192,91385,1,8,0:0:0:0:
256,192,91574,1,8,0:0:0:0:
256,192,91954,1,0,0:0:0:0:
256,192,92524,1,0,0:0:0:0:
256,192,92904,1,8,0:0:0:0:
256,192,93283,1,0,0:0:0:0:
256,192,93663,1,8,0:0:0:0:
256,192,94043,1,8,0:0:0:0:
256,192,94423,1,8,0:0:0:0:
256,192,94612,1,8,0:0:0:0:
256,192,94992,1,0,0:0:0:0:
256,192,95562,1,8,0:0:0:0:
256,192,95941,1,0,0:0:0:0:
256,192,96131,1,0,0:0:0:0:
256,192,96891,1,0,0:0:0:0:
256,192,97081,1,8,0:0:0:0:
256,192,97460,1,0,0:0:0:0:
256,192,97650,1,0,0:0:0:0:
256,192,98410,1,0,0:0:0:0:
256,192,98600,1,8,0:0:0:0:
256,192,99169,1,8,0:0:0:0:
256,192,99549,1,8,0:0:0:0:
256,192,99929,1,8,0:0:0:0:
256,192,100309,1,8,0:0:0:0:
256,192,100498,1,0,0:0:0:0:
256,192,100878,1,0,0:0:0:0:
256,192,101258,1,8,0:0:0:0:
256,192,101638,1,8,0:0:0:0:
256,192,102017,1,0,0:0:0:0:
256,192,102207,1,0,0:0:0:0:
256,192,102967,1,0,0:0:0:0:
256,192,103157,1,8,0:0:0:0:
256,192,103536,1,8,0:0:0:0:
256,192,103726,1,0,0:0:0:0:
256,192,104486,1,0,0:0:0:0:
256,192,104676,1,8,0:0:0:0:
256,192,105245,1,8,0:0:0:0:
256,192,105625,1,8,0:0:0:0:
256,192,106005,1,8,0:0:0:0:
256,192,106574,1,8,0:0:0:0:
256,192,106954,1,0,0:0:0:0:
256,192,107334,1,0,0:0:0:0:
256,192,107714,1,8,0:0:0:0:
256,192,108093,1,8,0:0:0:0:
256,192,108473,1,0,0:0:0:0:
256,192,108853,1,8,0:0:0:0:
256,192,109233,1,4,0:0:0:0:
256,192,111131,1,8,0:0:0:0:
256,192,111511,1,8,0:0:0:0:
256,192,111891,1,4,0:0:0:0:
256,192,112271,1,12,0:0:0:0:
256,192,112650,1,0,0:0:0:0:
256,192,112840,1,0,0:0:0:0:
256,192,113979,1,0,0:0:0:0:
256,192,114359,1,8,0:0:0:0:
256,192,114739,1,0,0:0:0:0:
256,192,115309,1,8,0:0:0:0:
256,192,115878,1,0,0:0:0:0:
256,192,116258,1,0,0:0:0:0:
256,192,116638,1,8,0:0:0:0:
256,192,117017,1,0,0:0:0:0:
256,192,117397,1,8,0:0:0:0:
256,192,117587,1,8,0:0:0:0:
256,192,118347,1,8,0:0:0:0:
256,192,119106,1,0,0:0:0:0:
256,192,119676,1,8,0:0:0:0:
256,192,120435,1,8,0:0:0:0:
256,192,120625,1,0,0:0:0:0:
256,192,121005,1,0,0:0:0:0:
256,192,121385,1,8,0:0:0:0:
256,192,121954,1,8,0:0:0:0:
256,192,122714,1,8,0:0:0:0:
256,192,123093,1,8,0:0:0:0:
256,192,123473,1,0,0:0:0:0:
256,192,123663,1,8,0:0:0:0:
256,192,124043,1,0,0:0:0:0:
256,192,124423,1,8,0:0:0:0:
256,192,124992,1,8,0:0:0:0:
256,192,125182,1,0,0:0:0:0:
256,192,125752,1,8,0:0:0:0:
256,192,125941,1,0,0:0:0:0:
256,192,126321,1,0,0:0:0:0:
256,192,126701,1,8,0:0:0:0:
256,192,127460,1,8,0:0:0:0:
256,192,128030,1,0,0:0:0:0:
256,192,128410,1,8,0:0:0:0:
256,192,128789,1,4,0:0:0:0:
256,192,129169,1,4,0:0:0:0:
256,192,129739,1,8,0:0:0:0:
256,192,130308,1,8,0:0:0:0:
256,192,130498,1,0,0:0:0:0:
256,192,131068,1,8,0:0:0:0:
256,192,131258,1,0,0:0:0:0:
256,192,131827,1,8,0:0:0:0:
256,192,132017,1,0,0:0:0:0:
256,192,132397,1,0,0:0:0:0:
256,192,132777,1,8,0:0:0:0:
256,192,133536,1,12,0:0:0:0:
256,192,133916,1,8,0:0:0:0:
256,192,134106,1,4,0:0:0:0:
256,192,134676,1,0,0:0:0:0:
256,192,134865,1,12,0:0:0:0:
256,192,135245,1,12,0:0:0:0:
256,192,135815,1,12,0:0:0:0:
256,192,136574,1,4,0:0:0:0:
256,192,137903,1,12,0:0:0:0:
256,192,138853,1,8,0:0:0:0:
256,192,139233,1,0,0:0:0:0:
256,192,139612,1,12,0:0:0:0:
256,192,140182,1,12,0:0:0:0:
256,192,140752,1,12,0:0:0:0:
256,192,141321,1,12,0:0:0:0:
256,192,141701,1,12,0:0:0:0:
