osu file format v14

[General]
AudioFilename: audio.mp3
AudioLeadIn: 0
PreviewTime: 53020
Countdown: 0
SampleSet: Soft
StackLeniency: 0.3
Mode: 0
LetterboxInBreaks: 0
WidescreenStoryboard: 0

[Editor]
DistanceSpacing: 1
BeatDivisor: 2
GridSize: 16
TimelineZoom: 1

[Metadata]
Title:Sekai ga Cafe ni Nacchatta!
TitleUnicode:セカイがカフェになっちゃった!
Artist:Petit Rabbit's with beans
ArtistUnicode:Petit Rabbit's with beans
Creator:Momochikun
Version:Easy
Source:ご注文はうさぎですか?? ~Dear My Sister~
Tags:gochiusa ova movie gochuumon wa usagi desu ka?? dear my sister is the order a rabbit?? rabbit house tea party event song white fox kirara max hoto cocoa sakura ayane kafuu chino minase inori tedeza rize taneda risa ujimatsu chiya satou satomi kirima syaro uchida maaya jouga maya tokui sora natsu megumi murakawa rie 佐倉綾音 水瀬いのり 種田梨沙 佐藤聡美 内田真礼 ココア チノ リゼ シャロ 千夜 条河 麻耶 奈津 恵 徳井青空 村川梨衣
BeatmapID:1468434
BeatmapSetID:694026

[Difficulty]
HPDrainRate:2
CircleSize:3
OverallDifficulty:2
ApproachRate:3
SliderMultiplier:0.9
SliderTickRate:1

[Events]
//Background and Video events
0,0,"bg.jpg",0,0
//Break Periods
//Storyboard Layer 0 (Background)
//Storyboard Layer 1 (Fail)
//Storyboard Layer 2 (Pass)
//Storyboard Layer 3 (Foreground)
//Storyboard Sound Samples

[TimingPoints]
4413,379.746835443038,4,2,1,50,1,0
4413,-100,4,2,1,50,0,0
9919,-100,4,2,1,50,0,0
10488,-100,4,2,1,60,0,0
15805,-100,4,2,1,60,0,0
16185,-100,4,2,1,90,0,0
16564,-100,4,2,1,80,0,1
16659,-100,4,2,1,80,0,0
25299,-100,4,2,1,60,0,0
25678,-100,4,2,1,80,0,0
28716,-100,4,2,1,60,0,0
37830,-100,4,2,1,70,0,0
41058,-100,4,2,1,60,0,0
51311,-100,4,2,1,65,0,0
53020,-100,4,2,1,70,0,0
71248,-100,4,2,1,75,0,0
72197,-100,4,2,1,80,0,0
72767,-100,4,2,1,75,0,0
75045,-100,4,2,1,80,0,0
76944,-100,4,2,1,90,0,0
77039,-100,4,2,1,60,0,0
77324,-100,4,2,1,80,0,1
88716,-100,4,2,1,80,0,0
89286,-100,4,2,1,50,0,0
89476,-100,4,2,1,80,0,1
95362,-100,4,2,1,50,0,1
95552,-100,4,2,1,80,0,1
109033,-100,4,2,1,55,0,1
109223,-100,4,2,1,80,0,0
109318,-100,4,2,1,50,0,0
110742,-100,4,2,1,25,0,0
111501,-100,4,2,1,50,0,0
111881,-100,4,2,1,90,0,0
112261,-100,4,2,1,80,0,1
112356,-100,4,2,1,70,0,0
120995,-100,4,2,1,50,0,0
121375,-100,4,2,1,70,0,0
124413,-100,4,2,1,80,0,1
133242,-100,4,2,1,50,0,1
133526,-100,4,2,1,80,0,1
135805,-100,4,2,1,70,0,1
136375,-100,4,2,1,55,0,1
136564,-100,4,2,1,80,0,0
137894,-100,4,2,1,80,0,0
138463,-100,4,2,1,50,0,0
138843,-100,4,2,1,80,0,0
140742,-100,4,2,1,80,0,0
141311,-100,4,2,1,80,0,0

[Colours]
Combo1 : 179,255,255
Combo2 : 53,154,255
Combo3 : 130,215,255
Combo4 : 145,145,255

[HitObjects]
256,48,4413,6,0,P|193:64|155:75,1,90,4|0,0:0|0:0,0:0:0:0:
205,153,5172,2,0,P|171:208|152:243,1,90,0|0,0:0|0:0,0:0:0:0:
144,319,5931,2,0,P|208:359|315:350,1,180,2|2,0:0|0:0,0:0:0:0:
468,267,7450,6,0,P|495:218|487:158,1,90,2|0,0:0|0:0,0:0:0:0:
425,127,8210,2,0,P|398:176|406:236,1,90,2|0,0:0|0:0,0:0:0:0:
325,263,8969,2,0,L|188:303,2,135,2|0|0,0:0|0:0|0:0,0:0:0:0:
371,340,10488,6,0,L|500:302,2,135,4|4|12,0:0|0:0|0:3,0:0:0:0:
325,263,12007,2,0,P|311:205|339:129,2,135,4|4|4,0:0|0:0|0:3,0:0:0:0:
246,307,13526,6,0,P|185:332|102:309,1,135,4|4,0:0|0:0,0:0:0:0:
60,251,14476,1,0,1:0:0:0:
100,170,14856,2,0,L|230:129,1,135,8|0,0:0|1:0,0:0:0:0:
387,44,16185,1,2,0:3:0:0:
471,75,16564,6,0,B|499:124|499:124|462:249,1,180,4|2,0:0|0:0,0:0:0:0:
410,315,17704,1,8,0:0:0:0:
333,268,18083,2,0,P|282:276|238:302,1,90,2|8,0:0|0:0,0:0:0:0:
173,344,18843,2,0,L|72:320,1,90,2|8,0:0|0:0,0:0:0:0:
20,260,19602,6,0,L|-2:163,1,90,4|12,0:0|0:0,0:0:0:0:
50,97,20362,2,0,P|106:132|194:117,2,135,0|4|8,0:0|0:0|0:0,0:0:0:0:
127,50,21881,2,0,P|185:27|221:29,1,90,0|8,0:0|0:0,0:0:0:0:
297,54,22640,6,0,P|361:118|359:214,1,180,4|2,0:0|0:0,0:0:0:0:
288,253,23780,1,8,0:0:0:0:
202,281,24159,2,0,P|154:271|103:262,2,90,0|8|0,1:0|0:0|1:0,0:0:0:0:
254,354,25299,1,4,0:3:0:0:
339,326,25678,6,0,P|405:302|468:304,1,135,4|4,0:0|0:0,0:0:0:0:
466,213,26628,2,0,L|486:106,1,90,0|4,1:0|0:0,0:0:0:0:
398,91,27387,2,0,P|329:97|258:58,1,135,0|0,1:0|1:0,0:0:0:0:
94,33,28716,6,0,B|65:99|65:99|90:163|68:215,1,180,4|0,0:0|0:0,0:0:0:0:
36,287,29856,1,8,0:0:0:0:
105,344,30235,2,0,P|148:364|203:364,1,90,0|8,0:0|0:0,0:0:0:0:
272,330,30995,2,0,P|291:289|294:245,1,90,0|8,0:0|0:0,0:0:0:0:
253,164,31754,6,0,P|329:125|435:150,1,180,2|0,0:0|0:0,0:0:0:0:
482,204,32894,1,8,0:0:0:0:
416,265,33273,2,0,L|379:359,1,90,0|8,0:0|0:0,0:0:0:0:
298,316,34033,2,0,L|199:342,1,90,0|8,0:0|0:0,0:0:0:0:
156,267,34792,6,0,L|243:244,1,90,4|8,0:0|0:0,0:0:0:0:
309,183,35552,2,0,P|372:152|462:164,2,135,0|0|8,0:0|0:0|0:0,0:0:0:0:
261,106,37071,2,0,L|173:128,1,90,0|8,0:0|0:0,0:0:0:0:
91,93,37830,6,0,P|54:137|53:231,1,135,4|4,0:0|0:0,0:0:0:0:
85,293,38780,1,2,0:0:0:0:
171,318,39159,2,0,P|208:274|209:180,1,135,4|8,0:0|0:0,0:0:0:0:
267,125,40109,2,0,P|312:129|375:146,1,90,0|8,0:0|0:0,0:0:0:0:
437,101,40868,6,0,L|455:189,1,90,4|8,0:0|0:0,0:0:0:0:
381,240,41628,2,0,P|359:304|369:378,2,135,0|0|8,0:0|0:0|0:0,0:0:0:0:
300,198,43147,2,0,P|253:206|206:231,1,90,0|8,0:0|0:0,0:0:0:0:
133,262,43906,6,0,P|113:221|106:177,1,90,0|8,0:0|0:0,0:0:0:0:
142,94,44666,2,0,B|64:72|64:72|-7:105,2,135,0|2|8,0:0|0:0|0:0,0:0:0:0:
226,61,46185,2,0,P|276:69|315:68,1,90,0|8,0:0|0:0,0:0:0:0:
392,113,46944,6,0,P|399:157|398:202,1,90,4|8,0:0|0:0,0:0:0:0:
380,290,47704,2,0,P|454:308|528:297,2,135,0|0|8,0:0|0:0|0:0,0:0:0:0:
297,253,49223,2,0,L|188:279,1,90,0|8,0:0|0:0,0:0:0:0:
157,200,49982,6,0,L|244:179,1,90,4|8,0:0|0:0,0:0:0:0:
317,126,50742,2,0,B|289:90|243:89|243:89|183:104,1,135,0|4,0:0|0:0,0:0:0:0:
108,78,51691,2,0,P|78:120|75:211,1,135,8|0,0:0|1:0,0:0:0:0:
103,285,52640,1,8,0:0:0:0:
186,318,53020,6,0,B|259:343|314:303|314:303|360:314|375:345,1,180,4|0,0:0|0:0,0:0:0:0:
437,284,54159,1,8,0:0:0:0:
412,197,54539,2,0,P|342:147|249:140,1,180,0|2,0:0|0:0,0:0:0:0:
168,177,55678,1,8,0:0:0:0:
84,142,56058,6,0,P|67:97|62:49,2,90,2|8|0,0:0|0:0|0:0,0:0:0:0:
39,220,57197,1,8,0:0:0:0:
90,294,57577,2,0,P|141:309|192:309,1,90,0|8,0:0|0:0,0:0:0:0:
256,353,58337,2,0,P|307:338|358:338,1,90,2|8,0:0|0:0,0:0:0:0:
416,283,59096,6,0,P|418:238|432:195,1,90,4|8,0:0|0:0,0:0:0:0:
390,115,59856,2,0,P|450:66|515:41,2,135,0|4|8,0:0|0:0|0:0,0:0:0:0:
307,151,61375,2,0,P|262:155|192:124,1,90,2|8,0:0|0:0,0:0:0:0:
150,85,62134,6,0,L|50:119,1,90,4|8,0:0|0:0,0:0:0:0:
96,198,62894,2,0,L|65:342,2,135,0|4|8,0:0|0:0|0:0,0:0:0:0:
180,228,64413,2,0,P|230:242|296:237,1,90,0|0,1:0|1:0,0:0:0:0:
340,189,65172,6,0,P|354:139|349:73,1,90,4|8,0:0|0:0,0:0:0:0:
283,46,65931,2,0,P|211:52|154:13,2,135,0|4|8,0:0|0:0|0:0,0:0:0:0:
366,11,67450,2,0,P|430:26|457:49,1,90,0|8,0:0|0:0,0:0:0:0:
490,119,68210,6,0,L|474:215,1,90,4|8,0:0|0:0,0:0:0:0:
394,246,68969,2,0,B|368:288|368:288|397:381,2,135,0|4|8,0:0|0:0|0:0,0:0:0:0:
317,198,70488,2,0,P|263:212|216:197,1,90,0|8,0:0|0:0,0:0:0:0:
159,149,71248,6,0,L|15:129,2,135,4|4|8,0:0|0:0|0:3,0:0:0:0:
218,81,72767,2,0,L|362:61,2,135,4|4|8,0:0|0:0|0:0,0:0:0:0:
251,164,74286,6,0,P|279:208|279:262,1,90,4|8,0:0|0:0,0:0:0:0:
221,311,75045,1,4,0:0:0:0:
299,355,75425,1,0,1:0:0:0:
378,313,75805,2,0,L|475:337,1,90,4|8,0:0|0:0,0:0:0:0:
499,251,76564,1,0,1:0:0:0:
450,175,76944,1,2,0:3:0:0:
372,128,77324,6,0,P|317:137|273:158,1,90,4|8,0:0|0:0,0:0:0:0:
203,113,78083,2,0,P|170:158|154:204,1,90,2|8,0:0|0:0,0:0:0:0:
78,232,78843,2,0,P|141:326|222:333,1,180,2|2,0:0|0:0,0:0:0:0:
264,273,79982,1,8,0:0:0:0:
323,340,80362,6,0,P|377:328|415:321,1,90,2|8,0:0|0:0,0:0:0:0:
389,234,81121,2,0,P|433:242|477:252,1,90,2|8,0:0|0:0,0:0:0:0:
501,165,81881,2,0,P|442:136|412:26,1,180,2|0,0:0|0:0,0:0:0:0:
324,58,83020,1,8,0:0:0:0:
235,39,83400,6,0,P|198:69|170:118,1,90,4|8,0:0|0:0,0:0:0:0:
230,175,84159,2,0,L|78:221,2,135,0|2|8,0:0|0:0|0:0,0:0:0:0:
319,183,85678,2,0,L|285:276,1,90,0|8,0:0|0:0,0:0:0:0:
375,289,86438,6,0,L|398:383,1,90,4|8,0:0|0:0,0:0:0:0:
479,340,87197,2,0,P|457:264|432:182,2,135,0|4|8,0:0|0:0|0:0,0:0:0:0:
396,376,88716,1,0,1:0:0:0:
317,331,89096,1,8,0:0:0:0:
233,297,89476,6,0,P|182:313|144:337,1,90,4|8,0:0|0:0,0:0:0:0:
63,308,90235,2,0,P|40:268|28:225,1,90,2|8,0:0|0:0,0:0:0:0:
87,157,90995,2,0,P|71:80|26:6,2,135,2|0|8,0:0|0:0|0:0,0:0:0:0:
162,205,92514,6,0,L|252:183,1,90,2|8,0:0|0:0,0:0:0:0:
300,109,93273,2,0,L|387:130,1,90,2|8,0:0|0:0,0:0:0:0:
456,188,94033,2,0,P|434:94|421:25,2,135,2|0|8,0:0|0:0|0:0,0:0:0:0:
379,235,95552,6,0,P|363:300|349:366,2,135,4|4|8,0:0|0:0|0:0,0:0:0:0:
317,168,97071,2,0,P|257:133|174:139,1,135,4|4,0:0|0:0,0:0:0:0:
88,217,98210,1,8,0:0:0:0:
10,262,98590,6,0,P|65:301|137:295,1,135,4|4,0:0|0:0,0:0:0:0:
210,255,99539,1,0,1:0:0:0:
292,290,99919,2,0,L|314:129,1,135,4|8,0:0|0:0,0:0:0:0:
243,95,100868,2,0,L|146:119,1,90,8|8,0:0|0:0,0:0:0:0:
86,174,101628,6,0,P|27:146|7:54,1,135,4|4,0:0|0:0,0:0:0:0:
126,32,102767,1,8,0:0:0:0:
212,55,103147,2,0,L|360:29,2,135,4|4|8,0:0|0:0|0:0,0:0:0:0:
254,134,104666,6,0,P|289:194|285:265,1,135,4|4,0:0|0:0,0:0:0:0:
223,321,105615,1,0,1:0:0:0:
137,350,105995,2,0,P|70:329|39:261,1,135,4|8,0:0|0:2,0:0:0:0:
91,201,106944,2,0,L|66:102,2,90,8|8|8,0:2|0:2|0:2,0:0:0:0:
171,159,108083,6,0,L|146:60,2,90,8|8|8,0:2|0:2|0:0,0:0:0:0:
240,216,109223,1,4,0:0:0:0:
499,42,111881,5,2,0:3:0:0:
422,89,112261,2,0,P|369:107|323:133,1,90,12|8,0:0|0:2,0:0:0:0:
254,91,113020,2,0,P|172:80|97:55,2,135,0|0|8,0:0|0:0|0:0,0:0:0:0:
217,173,114539,2,0,P|199:213|197:260,1,90,0|8,0:0|0:0,0:0:0:0:
270,310,115299,6,0,P|310:292|357:290,1,90,4|8,0:0|0:0,0:0:0:0:
431,241,116058,2,0,P|463:189|452:96,2,135,0|4|8,0:0|0:0|0:0,0:0:0:0:
353,194,117577,2,0,P|313:176|266:174,1,90,4|8,0:0|0:0,0:0:0:0:
185,212,118337,6,0,L|91:193,1,90,4|8,0:0|0:0,0:0:0:0:
114,282,119096,2,0,L|271:313,2,135,0|4|8,0:0|0:0|0:0,0:0:0:0:
26,262,120615,2,0,P|8:209|21:155,1,90,0|4,0:0|0:3,0:0:0:0:
60,99,121375,6,0,P|128:73|193:82,1,135,4|4,0:0|0:0,0:0:0:0:
239,154,122324,1,2,1:2:0:0:
296,223,122704,2,0,P|364:249|429:240,1,135,12|8,0:0|0:0,0:0:0:0:
488,177,123653,2,0,L|466:75,1,90,8|2,0:0|0:3,0:0:0:0:
396,34,124413,6,0,P|320:49|254:122,1,180,4|2,0:0|0:0,0:0:0:0:
217,205,125552,1,8,0:0:0:0:
133,171,125931,2,0,L|46:194,2,90,0|8|0,0:0|0:0|0:0,0:0:0:0:
149,259,127071,1,8,0:0:0:0:
234,286,127450,6,0,L|320:262,1,90,4|12,0:0|0:0,0:0:0:0:
394,210,128210,2,0,P|440:257|439:340,2,135,0|4|8,0:0|0:0|0:0,0:0:0:0:
326,150,129729,2,0,P|305:106|305:49,1,90,4|8,0:0|0:0,0:0:0:0:
219,30,130488,6,0,B|176:49|120:33|120:33|85:81|18:83,1,180,4|2,0:0|0:0,0:0:0:0:
25,162,131628,1,8,0:0:0:0:
95,217,132007,2,0,P|141:235|215:234,1,90,2|8,1:2|0:0,0:0:0:0:
266,208,132767,2,0,P|282:249|287:294,1,90,0|8,1:0|0:0,0:0:0:0:
369,332,133526,6,0,L|508:306,1,135,4|4,0:0|0:0,0:0:0:0:
484,218,134476,1,0,1:0:0:0:
418,156,134856,2,0,L|285:180,1,135,4|8,0:0|0:0,0:0:0:0:
206,223,135805,2,0,P|156:213|121:177,1,90,0|8,1:0|0:0,0:0:0:0:
80,110,136564,5,4,0:0:0:0:
386,37,137894,2,0,B|421:72|421:72|398:181,1,135,4|4,0:0|0:0,0:0:0:0:
324,198,138843,2,0,P|261:208|230:224,1,90,8|8,0:3|0:0,0:0:0:0:
155,254,139602,6,0,P|102:260|28:196,2,135,4|4|4,0:0|0:0|0:0,0:0:0:0:
271,321,141311,2,0,P|323:306|379:301,1,90,4|4,0:0|0:0,0:0:0:0:
