osu file format v14

[General]
AudioFilename: audio.mp3
AudioLeadIn: 0
PreviewTime: 53020
Countdown: 0
SampleSet: Soft
StackLeniency: 0.3
Mode: 0
LetterboxInBreaks: 0
WidescreenStoryboard: 0

[Editor]
DistanceSpacing: 1
BeatDivisor: 2
GridSize: 16
TimelineZoom: 1

[Metadata]
Title:Sekai ga Cafe ni Nacchatta!
TitleUnicode:セカイがカフェになっちゃった!
Artist:Petit Rabbit's with beans
ArtistUnicode:Petit Rabbit's with beans
Creator:Momochikun
Version:Normal
Source:ご注文はうさぎですか?? ~Dear My Sister~
Tags:gochiusa ova movie gochuumon wa usagi desu ka?? dear my sister is the order a rabbit?? rabbit house tea party event song white fox kirara max hoto cocoa sakura ayane kafuu chino minase inori tedeza rize taneda risa ujimatsu chiya satou satomi kirima syaro uchida maaya jouga maya tokui sora natsu megumi murakawa rie 佐倉綾音 水瀬いのり 種田梨沙 佐藤聡美 内田真礼 ココア チノ リゼ シャロ 千夜 条河 麻耶 奈津 恵 徳井青空 村川梨衣
BeatmapID:1499232
BeatmapSetID:694026

[Difficulty]
HPDrainRate:3
CircleSize:3.5
OverallDifficulty:4
ApproachRate:5
SliderMultiplier:1.1
SliderTickRate:1

[Events]
//Background and Video events
0,0,"bg.jpg",0,0
//Break Periods
//Storyboard Layer 0 (Background)
//Storyboard Layer 1 (Fail)
//Storyboard Layer 2 (Pass)
//Storyboard Layer 3 (Foreground)
//Storyboard Sound Samples

[TimingPoints]
4413,379.746835443038,4,2,1,50,1,0
4413,-100,4,2,1,50,0,0
9919,-100,4,2,1,50,0,0
10488,-100,4,2,1,60,0,0
15805,-100,4,2,1,60,0,0
16185,-100,4,2,1,90,0,0
16564,-100,4,2,1,80,0,1
16659,-100,4,2,1,80,0,0
25299,-100,4,2,1,60,0,0
25678,-100,4,2,1,80,0,0
28716,-100,4,2,1,60,0,0
37830,-100,4,2,1,70,0,0
41058,-100,4,2,1,60,0,0
51311,-100,4,2,1,65,0,0
53020,-100,4,2,1,70,0,0
71248,-100,4,2,1,75,0,0
72197,-100,4,2,1,80,0,0
72767,-100,4,2,1,75,0,0
75045,-100,4,2,1,80,0,0
76944,-100,4,2,1,90,0,0
77039,-100,4,2,1,60,0,0
77324,-100,4,2,1,80,0,1
88716,-100,4,2,1,80,0,0
89286,-100,4,2,1,50,0,0
89476,-100,4,2,1,80,0,1
95362,-100,4,2,1,50,0,1
95552,-100,4,2,1,80,0,1
109033,-100,4,2,1,55,0,1
109223,-100,4,2,1,80,0,0
109318,-100,4,2,1,50,0,0
110742,-100,4,2,1,25,0,0
111501,-100,4,2,1,50,0,0
111881,-100,4,2,1,90,0,0
112261,-100,4,2,1,80,0,1
112356,-100,4,2,1,70,0,0
120995,-100,4,2,1,50,0,0
121375,-100,4,2,1,70,0,0
124413,-100,4,2,1,80,0,1
133242,-100,4,2,1,50,0,1
133526,-100,4,2,1,80,0,1
135805,-100,4,2,1,70,0,1
136375,-100,4,2,1,55,0,1
136564,-100,4,2,1,80,0,0
137894,-100,4,2,1,80,0,0
138463,-100,4,2,1,50,0,0
138843,-100,4,2,1,80,0,0
140742,-100,4,2,1,80,0,0
141311,-100,4,2,1,80,0,0

[Colours]
Combo1 : 179,255,255
Combo2 : 53,154,255
Combo3 : 130,215,255
Combo4 : 145,145,255

[HitObjects]
256,336,4413,6,0,P|299:328|322:324,2,55,4|0|0,0:0|0:0|0:0,0:0:0:0:
180,256,5172,2,0,P|137:248|114:244,2,55,0|0|0,0:0|0:0|0:0,0:0:0:0:
267,189,5931,1,2,0:0:0:0:
267,189,6121,2,0,L|285:123,1,55,0|0,0:0|0:0,0:0:0:0:
283,80,6501,2,0,P|346:51|392:56,1,110,0|0,0:0|0:0,0:0:0:0:
433,81,7071,1,0,0:0:0:0:
495,170,7450,6,0,L|481:230,2,55,2|0|0,0:0|0:0|0:0,0:0:0:0:
392,209,8210,2,0,L|362:263,2,55,2|0|0,0:0|0:0|0:0,0:0:0:0:
293,160,8969,2,0,L|240:192,1,55,2|0,0:0|0:0,0:0:0:0:
198,216,9349,1,2,0:0:0:0:
198,216,9539,2,0,P|126:182|112:137,1,110,0|0,0:0|0:0,0:0:0:0:
127,103,10109,1,0,0:0:0:0:
203,24,10488,6,0,L|352:53,1,110,4|8,0:0|0:0,0:0:0:0:
362,25,11058,2,0,P|399:72|398:136,1,110,4|4,0:0|0:3,0:0:0:0:
364,160,11628,1,12,0:3:0:0:
273,221,12007,2,0,L|124:250,1,110,4|8,0:0|0:0,0:0:0:0:
114,222,12577,2,0,P|77:269|78:333,1,110,4|4,0:0|0:3,0:0:0:0:
112,357,13147,1,4,0:3:0:0:
217,327,13526,6,0,L|305:344,1,55,4|0,0:0|1:0,0:0:0:0:
320,362,13906,1,8,0:0:0:0:
320,362,14096,2,0,P|352:309|336:245,1,110,4|0,0:0|1:0,0:0:0:0:
319,215,14666,1,8,0:0:0:0:
319,215,14856,2,0,P|287:162|303:98,1,110,8|0,0:0|1:0,0:0:0:0:
322,70,15425,1,0,1:0:0:0:
104,34,16185,2,0,L|44:54,1,55,2|0,0:3|1:0,0:0:0:0:
16,94,16564,6,0,P|0:157|-4:202,1,110,4|8,0:0|0:0,0:0:0:0:
28,246,17134,1,0,0:0:0:0:
28,246,17324,2,0,P|84:222|139:230,1,110,2|8,0:0|0:0,0:0:0:0:
206,307,18083,2,0,L|190:360,2,55,2|0|8,0:0|0:0|0:0,0:0:0:0:
239,263,18653,1,0,0:0:0:0:
239,263,18843,2,0,P|295:287|350:279,1,110,2|8,0:0|0:0,0:0:0:0:
430,215,19602,6,0,P|454:159|446:104,1,110,4|12,0:0|0:0,0:0:0:0:
415,67,20172,2,0,L|296:91,1,110,2|0,0:0|0:0,0:0:0:0:
254,71,20742,1,8,0:0:0:0:
254,71,20931,2,0,P|205:77|132:35,2,110,4|2|2,0:0|0:0|0:0,0:0:0:0:
274,122,21881,2,0,P|249:173|237:241,1,110,0|8,0:0|0:0,0:0:0:0:
244,334,22640,6,0,B|313:309|313:309|368:333,1,110,4|8,0:0|0:0,0:0:0:0:
400,337,23210,1,0,0:0:0:0:
453,352,23400,2,0,P|478:301|490:233,1,110,2|8,0:0|0:0,0:0:0:0:
474,196,23969,1,4,0:0:0:0:
474,196,24159,2,0,L|490:138,2,55,0|0|8,1:0|1:0|0:0,0:0:0:0:
396,116,24919,2,0,P|339:125|280:100,1,110,0|4,1:0|0:3,0:0:0:0:
194,54,25678,6,0,L|139:71,2,55,4|0|8,0:0|0:0|0:0,0:0:0:0:
209,107,26248,2,0,P|177:164|174:230,1,110,4|0,0:0|1:0,0:0:0:0:
204,251,26818,1,8,0:0:0:0:
204,251,27007,1,4,0:0:0:0:
166,352,27387,2,0,L|51:325,1,110,0|0,1:0|1:0,0:0:0:0:
35,276,27957,1,0,1:0:0:0:
68,171,28337,1,8,0:0:0:0:
172,204,28716,6,0,P|218:211|300:177,1,110,4|8,0:0|0:0,0:0:0:0:
352,112,29476,2,0,P|398:105|480:139,1,110,0|8,0:0|0:0,0:0:0:0:
496,161,30045,2,0,L|473:270,1,110,0|0,0:0|0:0,0:0:0:0:
437,310,30615,1,8,0:0:0:0:
437,310,30805,2,0,P|391:303|309:337,1,110,2|0,0:0|0:0,0:0:0:0:
284,350,31375,1,8,0:0:0:0:
212,266,31754,6,0,P|166:273|84:239,1,110,2|8,0:0|0:0,0:0:0:0:
32,172,32514,2,0,L|154:129,1,110,0|8,0:0|0:0,0:0:0:0:
186,157,33083,2,0,P|215:108|207:40,1,110,0|2,0:0|0:0,0:0:0:0:
264,35,33653,1,8,0:0:0:0:
264,35,33843,2,0,L|367:71,1,110,0|0,0:0|0:0,0:0:0:0:
418,93,34413,1,8,0:0:0:0:
477,185,34792,6,0,P|495:242|485:298,1,110,4|8,0:0|0:0,0:0:0:0:
384,330,35552,2,0,P|327:312|271:322,1,110,0|8,0:0|0:0,0:0:0:0:
228,343,36121,2,0,P|205:293|212:220,1,110,0|0,0:0|0:0,0:0:0:0:
240,195,36691,1,8,0:0:0:0:
146,136,37071,2,0,L|29:167,1,110,0|8,0:0|0:0,0:0:0:0:
82,62,37830,6,0,L|188:33,1,110,4|8,0:0|0:0,0:0:0:0:
232,67,38400,2,0,P|297:96|365:82,1,110,4|2,0:0|0:0,0:0:0:0:
383,68,38969,1,8,0:0:0:0:
383,68,39159,2,0,P|426:127|415:195,1,110,4|2,0:0|0:0,0:0:0:0:
396,207,39729,2,0,L|386:263,1,55,8|4,0:0|0:0,0:0:0:0:
371,314,40109,2,0,P|306:343|238:329,1,110,0|8,0:0|0:0,0:0:0:0:
179,276,40868,6,0,B|112:255|112:255|45:274,2,110,4|8|0,0:0|0:0|0:0,0:0:0:0:
267,210,42007,1,8,0:0:0:0:
267,210,42197,2,0,P|283:153|254:90,1,110,0|0,0:0|0:0,0:0:0:0:
225,70,42767,1,8,0:0:0:0:
225,70,42957,2,0,L|95:97,1,110,2|0,0:0|0:0,0:0:0:0:
77,130,43526,1,8,0:0:0:0:
120,231,43906,6,0,P|104:288|133:351,1,110,0|8,0:0|0:0,0:0:0:0:
228,316,44666,2,0,L|214:375,2,55,0|2|8,0:0|0:0|0:0,0:0:0:0:
276,289,45235,2,0,P|330:273|405:287,1,110,2|2,0:0|0:0,0:0:0:0:
433,299,45805,1,8,0:0:0:0:
433,299,45995,2,0,P|470:245|459:194,1,110,0|0,0:0|0:0,0:0:0:0:
443,152,46564,2,0,L|425:97,1,55,8|0,0:0|0:0,0:0:0:0:
386,61,46944,6,0,L|268:36,2,110,4|8|0,0:0|0:0|0:0,0:0:0:0:
307,138,48083,1,8,0:0:0:0:
307,138,48273,2,0,P|231:158|181:199,1,110,0|0,0:0|0:0,0:0:0:0:
165,213,48843,2,0,P|115:171|120:109,1,110,8|0,0:0|0:0,0:0:0:0:
22,193,49602,2,0,L|2:259,1,55,8|0,0:0|0:0,0:0:0:0:
28,296,49982,6,0,B|64:318|64:318|145:300,1,110,4|8,0:0|0:0,0:0:0:0:
222,242,50742,2,0,B|258:220|258:220|339:238,1,110,0|8,0:0|0:0,0:0:0:0:
374,257,51311,2,0,P|399:208|385:122,1,110,4|8,0:0|0:0,0:0:0:0:
372,105,51881,1,8,0:0:0:0:
284,37,52261,2,0,L|205:56,1,55,0|0,1:0|1:0,0:0:0:0:
200,95,52640,2,0,L|121:114,1,55,8|0,0:0|1:0,0:0:0:0:
113,152,53020,6,0,P|87:229|90:278,1,110,4|8,0:0|0:0,0:0:0:0:
61,364,53780,2,0,P|138:338|187:341,1,110,0|8,0:0|0:0,0:0:0:0:
217,357,54349,2,0,L|334:329,1,110,2|0,0:0|0:0,0:0:0:0:
362,291,54919,1,8,0:0:0:0:
398,186,55299,2,0,L|291:211,1,110,2|8,0:0|0:0,0:0:0:0:
191,164,56058,6,0,L|211:103,1,55,2|0,0:0|0:0,0:0:0:0:
198,57,56438,2,0,P|147:31|81:46,1,110,8|0,0:0|0:0,0:0:0:0:
27,123,57197,1,8,0:0:0:0:
27,123,57387,2,0,L|48:255,1,110,2|0,0:0|0:0,0:0:0:0:
57,285,57957,1,8,0:0:0:0:
154,324,58337,2,0,P|205:350|271:335,1,110,2|8,0:0|0:0,0:0:0:0:
301,312,58906,5,0,0:0:0:0:
301,312,59096,2,0,P|355:279|426:290,1,110,4|8,0:0|0:0,0:0:0:0:
449,303,59666,2,0,L|478:189,1,110,2|0,0:0|0:0,0:0:0:0:
449,148,60235,1,8,0:0:0:0:
449,148,60425,2,0,P|394:133|359:64,1,110,4|2,0:0|0:0,0:0:0:0:
392,44,60995,1,8,0:0:0:0:
284,18,61375,2,0,P|239:77|241:142,1,110,2|8,0:0|0:0,0:0:0:0:
270,214,62134,6,0,P|209:230|152:212,1,110,4|8,0:0|0:0,0:0:0:0:
123,182,62704,2,0,L|-7:214,2,110,0|0|4,0:0|0:0|0:0,0:0:0:0:
186,92,63843,1,0,0:0:0:0:
186,92,64033,2,0,L|292:65,1,110,8|0,0:0|1:0,0:0:0:0:
342,89,64602,2,0,L|327:160,2,55,8|0|8,0:0|1:0|0:0,0:0:0:0:
390,63,65172,6,0,P|444:88|468:138,1,110,4|8,0:0|0:0,0:0:0:0:
496,236,65931,2,0,P|471:290|421:314,1,110,0|8,0:0|0:0,0:0:0:0:
375,297,66501,2,0,L|237:330,1,110,4|2,0:0|0:0,0:0:0:0:
223,290,67071,2,0,L|235:235,1,55,8|2,0:0|0:0,0:0:0:0:
174,144,67640,2,0,L|162:89,2,55,0|8|2,0:0|0:0|0:0,0:0:0:0:
228,153,68210,6,0,P|285:126|371:141,1,110,4|8,0:0|0:0,0:0:0:0:
434,89,68969,2,0,P|461:146|446:232,1,110,0|8,0:0|0:0,0:0:0:0:
419,228,69539,2,0,L|312:267,1,110,4|0,0:0|0:0,0:0:0:0:
273,301,70109,1,8,0:0:0:0:
273,301,70299,2,0,P|210:280|165:282,1,110,0|0,0:0|0:0,0:0:0:0:
117,304,70868,1,8,0:0:0:0:
31,232,71248,6,0,P|5:175|12:109,1,110,4|8,0:0|0:0,0:0:0:0:
47,92,71818,2,0,L|175:118,1,110,4|4,0:0|0:3,0:0:0:0:
192,153,72387,1,8,0:3:0:0:
286,96,72767,2,0,P|343:70|409:77,1,110,4|8,0:0|0:0,0:0:0:0:
426,112,73337,2,0,L|400:240,1,110,4|8,0:0|0:0,0:0:0:0:
365,257,73906,1,8,0:0:0:0:
273,317,74286,6,0,P|216:343|150:336,1,110,4|8,0:0|0:0,0:0:0:0:
68,298,75045,2,0,L|54:233,1,55,4|2,0:0|1:2,0:0:0:0:
94,203,75425,2,0,L|108:138,1,55,0|2,1:0|1:2,0:0:0:0:
76,101,75805,2,0,L|22:112,2,55,4|8|8,0:0|0:0|0:0,0:0:0:0:
165,36,76564,2,0,P|202:73|203:137,1,110,0|2,1:0|0:3,0:0:0:0:
228,179,77134,5,0,0:0:0:0:
228,179,77324,2,0,B|271:163|271:163|356:181,1,110,4|8,0:0|0:0,0:0:0:0:
439,146,78083,2,0,B|455:189|455:189|437:274,1,110,2|8,0:0|0:0,0:0:0:0:
356,321,78843,2,0,B|313:337|313:337|228:319,1,110,2|8,0:0|0:0,0:0:0:0:
206,289,79413,2,0,P|133:312|102:348,1,110,0|0,0:0|0:0,0:0:0:0:
58,353,79982,1,8,0:0:0:0:
67,243,80362,6,0,P|54:180|37:125,1,110,2|8,0:0|0:0,0:0:0:0:
131,73,81121,2,0,P|194:60|249:43,1,110,2|8,0:0|0:0,0:0:0:0:
344,75,81881,2,0,P|375:130|374:181,1,110,2|8,0:0|0:0,0:0:0:0:
332,210,82450,2,0,P|415:181|474:197,1,110,2|0,0:0|0:0,0:0:0:0:
483,209,83020,1,8,0:0:0:0:
501,317,83400,6,0,P|446:314|397:290,1,110,4|8,0:0|0:0,0:0:0:0:
345,307,83969,2,0,L|241:340,2,110,2|2|2,0:0|0:0|0:0,0:0:0:0:
254,243,85109,2,0,L|195:228,1,55,0|8,0:0|0:0,0:0:0:0:
149,249,85488,2,0,P|119:204|135:144,1,110,2|0,0:0|0:0,0:0:0:0:
166,111,86058,1,8,0:0:0:0:
266,67,86438,6,0,P|319:84|375:79,1,110,4|8,0:0|0:0,0:0:0:0:
474,121,87197,2,0,L|389:204,1,110,0|8,0:0|0:0,0:0:0:0:
353,234,87767,2,0,P|312:293|320:353,1,110,4|0,0:0|0:0,0:0:0:0:
258,343,88337,2,0,L|139:376,1,110,8|0,0:0|1:0,0:0:0:0:
107,339,88906,2,0,L|53:324,1,55,2|8,0:0|0:0,0:0:0:0:
24,277,89286,5,4,0:3:0:0:
24,277,89476,2,0,P|51:220|39:147,1,110,4|8,0:0|0:0,0:0:0:0:
137,108,90235,2,0,P|194:81|267:93,1,110,2|8,0:0|0:0,0:0:0:0:
332,143,90995,2,0,P|389:170|462:158,1,110,2|8,0:0|0:0,0:0:0:0:
486,148,91564,2,0,P|451:217|456:282,1,110,0|0,0:0|0:0,0:0:0:0:
473,297,92134,1,8,0:0:0:0:
372,342,92514,6,0,L|257:369,1,110,2|8,0:0|0:0,0:0:0:0:
192,284,93273,2,0,L|299:258,1,110,2|8,0:0|0:0,0:0:0:0:
400,214,94033,2,0,L|446:269,2,55,2|0|8,0:0|0:0|0:0,0:0:0:0:
350,190,94602,2,0,P|288:165|242:169,1,110,0|0,0:0|0:0,0:0:0:0:
197,141,95172,1,8,0:0:0:0:
95,97,95552,6,0,P|56:161|57:215,1,110,4|8,0:0|0:0,0:0:0:0:
18,237,96121,2,0,P|75:251|129:266,1,110,4|0,0:0|1:0,0:0:0:0:
169,296,96691,1,8,0:0:0:0:
272,333,97071,2,0,P|311:269|310:215,1,110,4|8,0:0|0:0,0:0:0:0:
349,193,97640,2,0,P|292:179|238:164,1,110,4|0,0:0|1:3,0:0:0:0:
198,134,98210,1,8,0:0:0:0:
116,59,98590,6,0,L|52:78,2,55,4|0|8,0:0|1:0|0:0,0:0:0:0:
155,21,99159,2,0,P|208:35|261:48,1,110,4|0,0:0|1:0,0:0:0:0:
315,37,99729,1,8,0:0:0:0:
315,37,99919,2,0,P|356:95|355:148,1,110,4|0,0:0|1:2,0:0:0:0:
326,177,100488,2,0,L|304:303,2,110,8|8|8,0:0|0:0|0:0,0:0:0:0:
229,123,101628,6,0,P|171:164|118:163,1,110,4|8,0:0|0:0,0:0:0:0:
79,155,102197,2,0,L|101:281,1,110,4|0,0:0|1:0,0:0:0:0:
70,311,102767,1,8,0:0:0:0:
172,350,103147,2,0,P|240:332|289:352,1,110,4|8,0:0|0:0,0:0:0:0:
326,366,103716,2,0,P|351:315|344:242,1,110,4|0,0:0|1:0,0:0:0:0:
323,214,104286,1,8,0:0:0:0:
358,109,104666,6,0,P|406:90|445:89,2,55,4|0|8,0:0|1:0|0:0,0:0:0:0:
307,87,105235,2,0,P|246:91|197:62,1,110,4|0,0:0|1:0,0:0:0:0:
159,36,105805,1,8,0:0:0:0:
159,36,105995,2,0,P|114:93|102:158,1,110,4|0,0:0|0:0,0:0:0:0:
107,182,106564,2,0,L|37:269,2,110,8|8|8,0:2|0:2|0:2,0:0:0:0:
188,256,107704,6,0,L|210:373,1,110,8|8,0:2|0:2,0:0:0:0:
305,312,108463,2,0,L|284:203,1,110,8|8,0:2|0:0,0:0:0:0:
271,150,109033,1,8,0:3:0:0:
271,150,109223,1,4,0:0:0:0:
256,192,109413,12,2,110742,0:0:0:0:
256,48,111881,5,2,0:3:0:0:
165,110,112261,2,0,P|94:135|18:122,1,110,12|8,0:0|0:2,0:0:0:0:
39,242,113020,2,0,P|110:217|186:230,1,110,0|8,0:0|0:0,0:0:0:0:
185,254,113590,2,0,L|298:231,1,110,0|2,0:0|0:0,0:0:0:0:
343,253,114159,2,0,L|384:290,1,55,8|2,0:0|0:0,0:0:0:0:
419,185,114729,2,0,L|378:148,2,55,0|8|0,0:0|0:0|0:0,0:0:0:0:
472,170,115299,6,0,P|497:124|483:63,1,110,4|8,0:0|0:0,0:0:0:0:
447,30,115868,1,2,0:0:0:0:
337,15,116248,2,0,L|270:29,1,55,2|8,0:0|0:0,0:0:0:0:
249,69,116628,2,0,P|197:90|123:78,2,110,4|4|2,0:0|0:0|0:0,0:0:0:0:
294,99,117577,2,0,L|310:220,1,110,4|8,0:0|0:0,0:0:0:0:
231,287,118337,6,0,L|216:177,1,110,4|8,0:0|0:0,0:0:0:0:
122,121,119096,2,0,P|68:171|59:237,1,110,0|8,0:0|0:0,0:0:0:0:
34,254,119666,2,0,P|94:240|146:242,1,110,4|0,0:0|0:0,0:0:0:0:
187,271,120235,2,0,L|328:232,1,110,8|0,0:0|0:0,0:0:0:0:
398,210,120995,1,4,0:3:0:0:
357,107,121375,6,0,L|369:49,2,55,4|2|8,0:0|0:2|0:0,0:0:0:0:
310,136,121944,2,0,P|255:110|201:121,1,110,4|2,0:0|1:2,0:0:0:0:
165,153,122514,1,8,0:0:0:0:
165,153,122704,2,0,P|139:208|150:262,1,110,12|4,0:0|0:0,0:0:0:0:
230,326,123463,1,2,1:2:0:0:
230,326,123653,2,0,L|287:313,1,55,8|8,0:0|0:0,0:0:0:0:
323,351,124033,2,0,L|380:338,1,55,2|8,0:3|0:3,0:0:0:0:
427,317,124413,6,0,P|450:268|430:195,1,110,4|8,0:0|0:0,0:0:0:0:
355,146,125172,2,0,P|353:200|322:244,1,110,2|8,0:0|0:0,0:0:0:0:
270,225,125742,1,4,0:0:0:0:
270,225,125931,2,0,L|191:242,2,55,0|2|8,0:0|0:0|0:0,0:0:0:0:
196,142,126691,2,0,L|75:115,1,110,0|8,0:0|0:0,0:0:0:0:
12,197,127450,6,0,P|13:251|44:295,1,110,4|12,0:0|0:0,0:0:0:0:
87,329,128020,2,0,P|152:302|215:311,1,110,0|2,0:0|0:0,0:0:0:0:
241,324,128590,1,8,0:0:0:0:
290,348,128780,2,0,P|321:303|322:249,1,110,4|4,0:0|0:0,0:0:0:0:
292,202,129349,1,8,0:0:0:0:
305,95,129729,2,0,L|179:128,1,110,4|8,0:0|0:0,0:0:0:0:
110,56,130488,6,0,L|216:28,2,110,4|8|2,0:0|0:0|0:0,0:0:0:0:
65,157,131628,2,0,L|40:223,1,55,8|4,0:0|0:0,0:0:0:0:
21,257,132007,2,0,P|80:288|137:284,1,110,2|8,1:2|0:0,0:0:0:0:
220,238,132767,2,0,L|294:257,1,55,0|0,1:0|1:0,0:0:0:0:
303,297,133147,2,0,L|356:283,1,55,8|8,0:0|0:3,0:0:0:0:
409,270,133526,6,0,B|428:237|428:237|406:147,1,110,4|8,0:0|0:0,0:0:0:0:
370,129,134096,2,0,P|313:140|245:97,1,110,4|0,0:0|1:0,0:0:0:0:
227,81,134666,1,8,0:0:0:0:
227,81,134856,2,0,L|106:115,2,110,4|4|4,0:0|0:0|0:0,0:0:0:0:
260,37,135805,1,0,1:0:0:0:
361,79,136185,2,0,L|392:151,1,55,8|4,0:0|0:3,0:0:0:0:
402,181,136564,5,4,0:0:0:0:
402,181,137894,2,0,P|357:231|249:209,1,165,4|4,0:0|0:0,0:0:0:0:
204,132,138843,1,8,0:3:0:0:
290,64,139223,2,0,L|236:30,1,55,8|8,0:0|0:0,0:0:0:0:
199,8,139602,6,0,L|83:48,1,110,4|8,0:0|0:0,0:0:0:0:
40,37,140172,2,0,L|4:176,1,110,4|8,0:0|0:3,0:0:0:0:
30,195,140742,2,0,L|45:248,1,55,4|4,0:0|0:3,0:0:0:0:
145,293,141311,2,0,L|132:363,2,55,4|8|4,0:0|0:0|0:0,0:0:0:0:
