osu file format v14

[General]
AudioFilename: audio.mp3
AudioLeadIn: 0
PreviewTime: 53020
Countdown: 0
SampleSet: Soft
StackLeniency: 0.3
Mode: 0
LetterboxInBreaks: 0
WidescreenStoryboard: 1

[Editor]
DistanceSpacing: 1.2
BeatDivisor: 4
GridSize: 8
TimelineZoom: 1.3

[Metadata]
Title:Sekai ga Cafe ni Nacchatta!
TitleUnicode:セカイがカフェになっちゃった!
Artist:Petit Rabbit's with beans
ArtistUnicode:Petit Rabbit's with beans
Creator:Momochikun
Version:Insane
Source:ご注文はうさぎですか?? ~Dear My Sister~
Tags:gochiusa ova movie gochuumon wa usagi desu ka?? dear my sister is the order a rabbit?? rabbit house tea party event song white fox kirara max hoto cocoa sakura ayane kafuu chino minase inori tedeza rize taneda risa ujimatsu chiya satou satomi kirima syaro uchida maaya jouga maya tokui sora natsu megumi murakawa rie 佐倉綾音 水瀬いのり 種田梨沙 佐藤聡美 内田真礼 ココア チノ リゼ シャロ 千夜 条河 麻耶 奈津 恵 徳井青空 村川梨衣
BeatmapID:1507940
BeatmapSetID:694026

[Difficulty]
HPDrainRate:7
CircleSize:4
OverallDifficulty:7.5
ApproachRate:8.5
SliderMultiplier:1.58
SliderTickRate:1

[Events]
//Background and Video events
0,0,"bg.jpg",0,0
//Break Periods
//Storyboard Layer 0 (Background)
//Storyboard Layer 1 (Fail)
//Storyboard Layer 2 (Pass)
//Storyboard Layer 3 (Foreground)
//Storyboard Sound Samples

[TimingPoints]
4413,379.746835443038,4,2,1,50,1,0
4413,-117.647058823529,4,2,1,50,0,0
9919,-181.818181818181,4,2,1,50,0,0
10488,-111.111111111111,4,2,1,60,0,0
15805,-166.666666666667,4,2,1,60,0,0
16185,-83.3333333333333,4,2,1,90,0,0
16564,-105.263157894737,4,2,1,80,0,1
16659,-100,4,2,1,80,0,0
18843,-105.263157894737,4,2,1,80,0,0
19223,-100,4,2,1,80,0,0
20931,-105.263157894737,4,2,1,80,0,0
21311,-100,4,2,1,80,0,0
23400,-111.111111111111,4,2,1,80,0,0
23780,-100,4,2,1,80,0,0
24159,-100,4,2,1,65,0,0
24539,-100,4,2,1,80,0,0
25299,-100,4,2,1,60,0,0
25678,-100,4,2,1,80,0,0
26248,-111.111111111111,4,2,1,80,0,0
27007,-166.666666666667,4,2,1,80,0,0
27387,-125,4,2,1,80,0,0
27767,-105.263157894737,4,2,1,80,0,0
28716,-100,4,2,1,60,0,0
37830,-100,4,2,1,70,0,0
39159,-105.263157894737,4,2,1,70,0,0
41058,-100,4,2,1,60,0,0
51311,-100,4,2,1,65,0,0
53020,-100,4,2,1,70,0,0
54349,-105.263157894737,4,2,1,70,0,0
54729,-100,4,2,1,70,0,0
55488,-111.111111111111,4,2,1,70,0,0
55868,-100,4,2,1,70,0,0
58526,-105.263157894737,4,2,1,70,0,0
60045,-100,4,2,1,70,0,0
62134,-105.263157894737,4,2,1,70,0,0
63463,-100,4,2,1,70,0,0
67830,-111.111111111111,4,2,1,70,0,0
68210,-100,4,2,1,70,0,0
71248,-100,4,2,1,75,0,0
72197,-100,4,2,1,80,0,0
72767,-100,4,2,1,75,0,0
75045,-100,4,2,1,80,0,0
76944,-100,4,2,1,90,0,0
77039,-100,4,2,1,60,0,0
77324,-100,4,2,1,80,0,1
83020,-105.263157894737,4,2,1,80,0,1
83400,-100,4,2,1,80,0,1
86438,-105.263157894737,4,2,1,80,0,1
87197,-100,4,2,1,80,0,1
88716,-100,4,2,1,80,0,0
89286,-100,4,2,1,50,0,0
89476,-100,4,2,1,80,0,1
95362,-100,4,2,1,50,0,1
95552,-100,4,2,1,80,0,1
102767,-105.263157894737,4,2,1,80,0,1
104666,-100,4,2,1,80,0,1
109033,-100,4,2,1,55,0,1
109223,-100,4,2,1,80,0,0
109318,-100,4,2,1,50,0,0
110742,-100,4,2,1,25,0,0
111501,-166.666666666667,4,2,1,50,0,0
111881,-83.3333333333333,4,2,1,90,0,0
112261,-105.263157894737,4,2,1,80,0,1
112356,-100,4,2,1,70,0,0
120995,-100,4,2,1,50,0,0
121375,-100,4,2,1,70,0,0
124128,-100,4,2,1,60,0,0
124413,-100,4,2,1,80,0,1
132007,-100,4,2,1,65,0,1
132387,-100,4,2,1,80,0,1
133242,-100,4,2,1,50,0,1
133526,-100,4,2,1,80,0,1
135805,-100,4,2,1,70,0,1
136375,-100,4,2,1,55,0,1
136564,-100,4,2,1,80,0,0
137894,-181.818181818181,4,2,1,80,0,0
138463,-181.818181818181,4,2,1,50,0,0
138843,-100,4,2,1,80,0,0
140742,-125,4,2,1,80,0,0
141311,-100,4,2,1,80,0,0

[Colours]
Combo1 : 179,255,255
Combo2 : 53,154,255
Combo3 : 130,215,255
Combo4 : 145,145,255

[HitObjects]
155,205,4413,6,0,P|184:221|206:246,1,67.1500012807846,4|0,0:0|0:0,0:0:0:0:
283,329,4792,2,0,P|320:278|398:257,1,134.300002561569,2|0,0:0|0:0,0:0:0:0:
378,353,5362,1,0,0:0:0:0:
317,128,5552,2,0,P|297:189|320:264,1,134.300002561569,0|2,0:0|0:0,0:0:0:0:
464,181,6121,6,0,P|430:173|404:155,1,67.1500012807846
376,66,6501,1,0,0:0:0:0:
256,152,6691,2,0,P|266:85|215:35,1,134.300002561569,2|0,0:0|0:0,0:0:0:0:
129,258,7450,6,0,L|117:188,1,67.1500012807846,2|0,0:0|0:0,0:0:0:0:
205,327,7830,1,0,0:0:0:0:
205,327,8210,1,2,0:0:0:0:
129,258,8400,1,0,0:0:0:0:
190,149,8590,6,0,P|131:109|66:120,1,134.300002561569,0|2,0:0|0:0,0:0:0:0:
65,277,9159,1,0,0:0:0:0:
65,277,9254,1,0,0:0:0:0:
65,277,9349,2,0,P|103:261|138:257,1,67.1500012807846,2|0,0:0|0:0,0:0:0:0:
283,311,9729,5,2,0:0:0:0:
283,311,9824,1,0,0:0:0:0:
283,311,9919,2,0,P|243:263|246:203,1,108.625003314972,0|0,0:0|0:0,0:0:0:0:
274,153,10488,6,0,P|345:128|430:144,1,142.199995660401,4|8,0:0|0:0,0:0:0:0:
497,295,11058,2,0,P|426:302|359:278,1,142.199995660401,4|4,0:0|0:3,0:0:0:0:
213,307,11628,1,4,0:3:0:0:
274,153,11818,1,4,0:3:0:0:
141,219,12007,6,0,P|137:164|175:127,1,106.6499967453,4|0,0:0|1:0,0:0:0:0:
195,117,12387,1,8,0:0:0:0:
228,291,12577,2,0,P|169:328|78:312,1,142.199995660401,4|4,0:0|0:3,0:0:0:0:
84,312,13052,1,0,0:0:0:0:
71,299,13147,1,4,0:3:0:0:
308,361,13337,5,8,0:0:0:0:
308,361,13431,1,8,0:0:0:0:
308,361,13526,2,0,P|348:347|384:348,1,71.0999978302003,4|0,0:0|1:0,0:0:0:0:
443,225,13906,1,8,0:0:0:0:
256,256,14096,2,0,P|226:206|240:135,1,106.6499967453,4|0,0:0|0:0,0:0:0:0:
277,92,14476,2,0,L|373:118,1,71.0999978302003,0|8,1:0|0:0,0:0:0:0:
148,314,14856,5,8,0:0:0:0:
148,314,15235,1,0,1:0:0:0:
380,245,15425,1,0,1:0:0:0:
226,139,15615,1,0,0:0:0:0:
300,213,15805,6,0,P|294:256|312:297,1,71.0999978302003,2|0,0:0|0:0,0:0:0:0:
355,345,16185,6,0,P|315:310|235:303,1,94.7999971069337,2|0,0:3|1:0,0:0:0:0:
220,319,16469,5,0,1:0:0:0:
253,306,16564,2,0,P|293:286|333:186,1,150.099995991898,4|8,0:0|0:0,0:0:0:0:
256,96,17134,1,2,0:0:0:0:
256,96,17229,1,8,0:0:0:0:
256,96,17324,2,0,L|168:122,1,79
393,130,17704,2,0,P|408:92|395:38,1,79,8|2,0:0|0:0,0:0:0:0:
315,36,18083,5,0,0:0:0:0:
416,213,18273,2,0,P|375:215|332:185,1,79,2|8,0:0|0:0,0:0:0:0:
256,96,18653,1,2,0:0:0:0:
488,170,18843,2,0,P|497:238|437:305,1,150.099995991898,0|8,0:0|0:0,0:0:0:0:
312,200,19413,1,0,0:0:0:0:
372,348,19602,5,4,0:0:0:0:
304,276,19792,1,0,0:0:0:0:
488,170,19982,1,12,0:0:0:0:
343,73,20172,1,2,0:0:0:0:
328,86,20267,1,8,0:0:0:0:
312,98,20362,2,0,P|269:101|228:77,1,79,0|2,0:0|0:0,0:0:0:0:
158,170,20742,1,8,0:0:0:0:
286,312,20931,6,0,P|305:241|252:186,1,150.099995991898,4|2,0:0|0:0,0:0:0:0:
97,278,21501,2,0,P|145:271|177:238,1,79,8|2,0:0|0:0,0:0:0:0:
256,48,21881,1,0,0:0:0:0:
233,60,21976,2,0,P|203:103|202:131,1,79,8|0,0:0|0:0,0:0:0:0:
259,189,22261,2,0,L|348:211,1,79,8|2,0:0|0:0,0:0:0:0:
483,356,22640,6,0,L|367:327,1,118.5,4|0,0:0|0:0,0:0:0:0:
288,350,23020,2,0,P|246:355|202:327,1,79,8|0,0:0|0:0,0:0:0:0:
263,138,23400,2,0,P|285:204|262:275,1,142.199995660401,2|8,0:0|0:0,0:0:0:0:
141,221,23969,1,4,0:0:0:0:
263,138,24159,5,0,1:0:0:0:
84,158,24349,1,0,1:0:0:0:
264,270,24539,1,8,0:0:0:0:
49,239,24729,1,2,0:0:0:0:
197,68,24919,5,0,1:0:0:0:
221,55,25014,1,0,0:0:0:0:
246,42,25109,2,0,L|285:50,1,39.5,8|8,0:0|0:0,0:0:0:0:
368,32,25299,2,0,L|397:76,1,39.5,4|0,0:3|0:0,0:0:0:0:
471,88,25488,2,0,L|459:146,1,39.5,4|0,0:3|0:0,0:0:0:0:
384,237,25678,6,0,P|368:194|374:157,1,79,4|0,0:0|0:0,0:0:0:0:
372,162,25963,1,8,0:0:0:0:
372,162,26058,1,8,0:0:0:0:
215,328,26248,2,0,P|260:259|256:192,1,142.199995660401,4|0,0:0|1:0,0:0:0:0:
128,91,26818,1,8,0:0:0:0:
170,236,27007,6,0,P|150:205|104:183,1,71.0999978302003,4|0,0:0|0:0,0:0:0:0:
183,258,27387,6,0,P|218:213|213:152,1,94.8,8|0,0:0|0:0,0:0:0:0:
189,286,27767,6,0,P|226:280|252:249,1,75.0499979959488,0|0,1:0|1:0,0:0:0:0:
460,89,28337,1,8,0:0:0:0:
430,98,28432,1,0,0:0:0:0:
401,107,28527,1,0,0:0:0:0:
371,116,28622,1,0,0:0:0:0:
344,126,28716,6,0,P|300:115|248:106,1,79,4|0,0:0|0:0,0:0:0:0:
118,199,29096,2,0,P|156:191|195:181,1,79,8|0,0:0|0:0,0:0:0:0:
344,126,29476,1,0,0:0:0:0:
288,263,29666,1,0,0:0:0:0:
395,222,29856,1,8,0:0:0:0:
270,76,30045,6,0,P|205:65|102:42,1,158,0|0,0:0|0:0,0:0:0:0:
54,108,30615,1,8,0:0:0:0:
161,157,30805,2,0,P|167:196|174:235,1,79,2|0,0:0|0:0,0:0:0:0:
264,263,31185,1,0,0:0:0:0:
160,325,31375,2,0,B|103:359|40:335|40:335|32:358|55:385,1,158,8|2,0:0|0:0,0:0:0:0:
98,250,31944,5,0,0:0:0:0:
264,263,32134,2,0,P|286:228|288:182,1,79,8|0,0:0|0:0,0:0:0:0:
202,106,32514,2,0,P|179:140|177:186,1,79,0|0,0:0|0:0,0:0:0:0:
289,191,32894,1,8,0:0:0:0:
296,67,33083,6,0,P|222:20|152:25,1,158,0|2,0:0|0:0,0:0:0:0:
154,24,33558,1,0,0:0:0:0:
154,24,33653,1,8,0:0:0:0:
75,147,33843,2,0,P|80:206|83:240,1,79,0|0,0:0|0:0,0:0:0:0:
81,225,34128,1,8,0:0:0:0:
81,225,34223,1,0,0:0:0:0:
187,184,34413,5,8,0:0:0:0:
71,62,34602,1,0,0:0:0:0:
256,104,34792,6,0,P|310:117|414:68,1,158,4|8,0:0|0:0,0:0:0:0:
496,187,35362,1,0,0:0:0:0:
496,187,35457,1,8,0:0:0:0:
496,187,35552,2,0,P|455:196|405:209,1,79,0|0,0:0|0:0,0:0:0:0:
311,159,35931,1,8,0:0:0:0:
250,301,36121,6,0,P|288:291|326:282,1,79,0|0,0:0|0:0,0:0:0:0:
394,344,36501,1,0,0:0:0:0:
262,206,36691,2,0,P|262:165|288:129,1,79,8|0,0:0|0:0,0:0:0:0:
459,66,37071,1,0,0:0:0:0:
386,18,37261,1,0,0:0:0:0:
300,29,37450,1,8,0:0:0:0:
168,192,37640,5,2,0:0:0:0:
168,192,37735,1,0,0:0:0:0:
168,192,37830,1,4,0:0:0:0:
257,102,38020,1,0,0:0:0:0:
145,58,38210,1,8,0:0:0:0:
311,245,38400,2,0,B|371:230|427:255|427:255|459:242|485:215,1,158,4|2,0:0|0:0,0:0:0:0:
333,345,38969,1,8,0:0:0:0:
143,200,39159,6,0,P|125:127|174:79,1,150.099995991898,4|2,0:0|0:0,0:0:0:0:
195,262,39729,2,0,P|153:279|114:273,1,75.0499979959488,8|4,0:0|0:0,0:0:0:0:
205,156,40109,1,2,0:0:0:0:
205,156,40204,1,8,0:0:0:0:
205,156,40299,1,0,0:0:0:0:
335,210,40488,2,0,P|353:253|343:297,1,75.0499979959488,8|0,0:0|0:0,0:0:0:0:
335,306,40773,1,8,0:0:0:0:
312,325,40868,5,4,0:0:0:0:
163,340,41058,2,0,B|109:314|50:344|50:344|14:320|-17:328,1,158
64,242,41628,2,0,P|72:205|60:167,1,79
16,82,42007,1,8,0:0:0:0:
146,141,42197,6,0,P|185:139|217:118,1,79
320,55,42577,2,0,P|354:36|393:37,1,79,0|8,0:0|0:0,0:0:0:0:
475,186,42957,1,0,0:0:0:0:
377,125,43147,1,0,0:0:0:0:
431,261,43337,2,0,L|413:350,1,79,0|8,0:0|0:0,0:0:0:0:
295,287,43716,1,0,0:0:0:0:
355,159,43906,5,0,0:0:0:0:
261,174,44096,1,0,0:0:0:0:
221,38,44286,1,8,0:0:0:0:
304,83,44476,1,0,0:0:0:0:
189,237,44666,1,0,0:0:0:0:
170,109,44856,5,2,0:0:0:0:
355,159,45045,1,8,0:0:0:0:
217,305,45235,2,0,P|192:275|190:232,1,79,2|0,0:0|0:0,0:0:0:0:
264,96,45615,1,2,0:0:0:0:
287,101,45710,1,0,0:0:0:0:
308,106,45805,1,8,0:0:0:0:
393,242,45995,6,0,P|353:256|314:254,1,79,0|0,0:0|0:0,0:0:0:0:
316,254,46280,1,8,0:0:0:0:
316,254,46375,1,0,0:0:0:0:
185,99,46564,1,8,0:0:0:0:
102,73,46754,1,0,0:0:0:0:
40,134,46944,6,0,P|38:179|54:213,1,79,4|0,0:0|0:0,0:0:0:0:
97,283,47324,1,8,0:0:0:0:
240,216,47514,1,0,0:0:0:0:
240,216,47609,1,8,0:0:0:0:
240,216,47704,2,0,P|286:197|317:198,1,79,0|0,0:0|0:0,0:0:0:0:
423,240,48083,1,8,0:0:0:0:
250,287,48273,6,0,P|215:240|231:131,1,158,0|0,0:0|0:0,0:0:0:0:
399,90,48843,1,8,0:0:0:0:
316,137,49033,1,0,0:0:0:0:
269,54,49223,1,0,0:0:0:0:
394,193,49413,5,0,0:0:0:0:
221,144,49602,1,8,0:0:0:0:
351,16,49792,1,0,0:0:0:0:
138,87,49982,6,0,L|126:178,1,79,4|0,0:0|0:0,0:0:0:0:
53,225,50362,1,8,0:0:0:0:
236,272,50552,1,0,0:0:0:0:
236,272,50647,1,8,0:0:0:0:
236,272,50742,2,0,L|246:193,1,79,0|0,0:0|0:0,0:0:0:0:
379,372,51121,5,8,0:0:0:0:
322,270,51311,1,4,0:0:0:0:
455,334,51501,5,2,0:0:0:0:
246,252,51691,1,8,0:0:0:0:
429,192,51881,5,8,0:0:0:0:
218,334,52071,1,0,0:0:0:0:
218,334,52166,1,8,0:0:0:0:
218,334,52261,2,0,L|159:350,1,40,0|0,1:0|0:0,0:0:0:0:
97,281,52450,2,0,L|59:270,1,40,0|0,1:0|0:0,0:0:0:0:
117,181,52640,5,8,0:0:0:0:
146,173,52734,1,10,0:0:0:0:
175,165,52829,1,0,1:0:0:0:
204,158,52924,1,8,0:0:0:0:
233,150,53020,6,0,P|272:143|319:164,1,79,4|0,0:0|0:0,0:0:0:0:
420,273,53400,2,0,P|380:276|335:253,1,79,8|0,0:0|0:0,0:0:0:0:
233,150,53780,2,0,L|216:61,1,79,0|0,0:0|0:0,0:0:0:0:
164,232,54159,1,8,0:0:0:0:
312,340,54349,6,0,P|327:266|263:210,1,150.099995991898,2|0,0:0|0:0,0:0:0:0:
100,186,54919,2,0,P|87:234|99:276,1,79,8|0,0:0|0:0,0:0:0:0:
172,325,55299,1,2,0:0:0:0:
100,186,55488,2,0,P|119:112|94:48,1,142.199995660401,0|0,0:0|0:0,0:0:0:0:
6,215,56058,5,2,0:0:0:0:
180,243,56248,1,0,0:0:0:0:
100,186,56438,1,8,0:0:0:0:
240,164,56628,1,0,0:0:0:0:
277,282,56818,2,0,L|286:364,1,79
147,337,57197,1,8,0:0:0:0:
309,209,57387,6,0,P|321:149|278:91,1,118.5,2|0,0:0|0:0,0:0:0:0:
260,72,57767,2,0,P|299:74|339:40,1,79,0|8,0:0|0:0,0:0:0:0:
233,179,58147,1,0,0:0:0:0:
389,123,58337,1,2,0:0:0:0:
280,253,58526,2,0,B|221:266|179:237|179:237|153:237|124:255,1,150.099995991898
325,351,59096,5,4,0:0:0:0:
325,351,59476,1,8,0:0:0:0:
233,179,59666,2,0,P|203:246|218:321,1,150.099995991898,2|0,0:0|0:0,0:0:0:0:
347,256,60235,1,8,0:0:0:0:
200,103,60425,6,0,P|134:133|84:219,1,158,4|2,0:0|0:0,0:0:0:0:
311,151,60995,2,0,P|336:114|338:62,1,79,8|0,0:0|0:0,0:0:0:0:
210,22,61375,1,2,0:0:0:0:
311,151,61564,1,0,0:0:0:0:
156,186,61754,1,8,0:0:0:0:
381,235,61944,1,0,0:0:0:0:
114,270,62134,6,0,P|83:222|95:121,1,150.099995991898,4|8,0:0|0:0,0:0:0:0:
316,39,62704,2,0,P|331:111|300:177,1,150.099995991898
278,198,63178,1,8,0:0:0:0:
251,211,63273,1,0,0:0:0:0:
141,346,63463,6,0,B|214:380|230:322|311:363,1,158,4|0,0:0|1:0,0:0:0:0:
419,301,64033,1,8,0:0:0:0:
316,189,64223,6,0,L|251:207,1,39.5,8|8,0:0|0:0,0:0:0:0:
157,152,64413,2,0,L|195:141,1,39.5,0|8,1:0|0:0,0:0:0:0:
183,253,64602,2,0,L|144:263,1,39.5,0|8,1:0|0:0,0:0:0:0:
60,203,64792,1,0,1:0:0:0:
46,168,64886,1,8,0:0:0:0:
47,132,64981,1,0,1:0:0:0:
64,99,65076,1,8,0:0:0:0:
89,74,65172,6,0,P|125:52|175:51,1,79,4|2,0:0|0:0,0:0:0:0:
277,199,65552,1,8,0:0:0:0:
157,152,65742,1,2,0:0:0:0:
157,152,65837,1,8,0:0:0:0:
157,152,65931,1,0,0:0:0:0:
356,173,66121,2,0,P|358:217|339:252,1,79,2|8,0:0|0:0,0:0:0:0:
295,92,66501,6,0,B|337:31|413:51|413:51|396:79,1,158,4|2,0:0|0:0,0:0:0:0:
356,173,67071,1,8,0:0:0:0:
233,262,67261,2,0,L|250:174,1,79,2|0,0:0|0:0,0:0:0:0:
247,184,67545,1,8,0:0:0:0:
247,184,67640,1,0,0:0:0:0:
58,365,67830,2,0,P|117:330|202:349,1,142.199995660401,8|4,0:0|0:0,0:0:0:0:
326,188,68400,5,2,0:0:0:0:
158,252,68590,1,8,0:0:0:0:
290,371,68780,1,2,0:0:0:0:
238,165,68969,5,0,0:0:0:0:
158,252,69159,1,2,0:0:0:0:
371,343,69349,1,8,0:0:0:0:
234,259,69539,6,0,B|177:274|177:274|139:260|139:260|83:278,1,158,4|0,0:0|0:0,0:0:0:0:
54,162,70109,1,8,0:0:0:0:
182,136,70299,2,0,L|230:123,1,39.5,0|8,0:0|0:0,0:0:0:0:
318,148,70488,2,0,L|331:196,1,39.5,0|8,0:0|0:0,0:0:0:0:
250,251,70678,2,0,L|239:212,1,39.5,0|0,0:0|0:0,0:0:0:0:
283,76,70868,2,0,L|321:65,2,39.5,8|8|0,0:0|0:0|0:0,0:0:0:0:
153,275,71248,5,4,0:0:0:0:
339,297,71438,1,0,0:0:0:0:
351,319,71533,1,8,0:0:0:0:
354,345,71628,1,8,0:0:0:0:
215,127,71818,2,0,P|143:116|81:93,1,118.5,4|8,0:0|0:0,0:0:0:0:
79,76,72197,5,4,0:3:0:0:
235,40,72387,1,8,0:3:0:0:
374,118,72577,1,4,0:3:0:0:
417,272,72767,1,4,0:0:0:0:
218,224,72957,5,0,0:0:0:0:
193,210,73052,1,8,0:0:0:0:
176,187,73147,1,8,0:0:0:0:
338,52,73337,2,0,P|370:104|374:182,1,118.5,4|0,0:0|0:0,0:0:0:0:
366,195,73716,1,8,0:0:0:0:
353,224,73811,1,8,0:0:0:0:
333,249,73906,1,8,0:0:0:0:
165,89,74096,5,8,0:0:0:0:
192,71,74191,1,8,0:0:0:0:
222,61,74286,2,0,P|283:43|350:57,1,118.5,4|0,0:0|0:0,0:0:0:0:
413,76,74666,2,0,P|415:127|417:170,1,79,8|0,0:0|0:0,0:0:0:0:
319,267,75045,5,4,0:0:0:0:
380,66,75235,1,2,1:2:0:0:
234,231,75425,1,0,1:0:0:0:
416,155,75615,1,2,1:2:0:0:
255,317,75805,5,4,0:0:0:0:
337,51,75995,1,8,0:0:0:0:
398,192,76185,1,8,0:0:0:0:
229,125,76375,5,8,0:3:0:0:
349,111,76564,2,0,L|356:204,1,79,0|0,1:0|0:0,0:0:0:0:
171,367,76944,1,2,0:3:0:0:
159,339,77038,1,8,0:0:0:0:
158,309,77133,1,0,0:0:0:0:
169,281,77228,1,0,0:0:0:0:
185,257,77324,6,0,P|226:260|270:237,1,79,4|0,0:0|0:0,0:0:0:0:
444,89,77704,2,0,L|298:123,1,118.5,8|0,0:0|0:0,0:0:0:0:
240,157,78083,6,0,P|217:120|223:69,1,79,2|0,0:0|0:0,0:0:0:0:
415,228,78463,2,0,P|405:309|360:349,1,118.5,8|0,0:0|0:0,0:0:0:0:
297,351,78843,5,2,0:0:0:0:
188,252,79033,1,0,0:0:0:0:
188,252,79128,1,0,0:0:0:0:
188,252,79223,1,8,0:0:0:0:
74,295,79413,5,0,0:0:0:0:
164,134,79602,1,2,0:0:0:0:
256,192,79792,1,0,0:0:0:0:
72,212,79982,2,0,P|53:176|66:127,1,79,8|0,0:0|0:0,0:0:0:0:
256,112,80362,5,2,0:0:0:0:
162,228,80552,1,0,0:0:0:0:
199,48,80742,2,0,P|238:30|296:37,1,79,8|0,0:0|0:0,0:0:0:0:
346,125,81121,5,2,0:0:0:0:
210,205,81311,1,0,0:0:0:0:
411,177,81501,2,0,P|430:141|427:100,1,79,8|0,0:0|0:0,0:0:0:0:
287,241,81881,6,0,L|296:324,1,79,2|0,0:0|0:0,0:0:0:0:
295,319,82166,1,0,0:0:0:0:
295,319,82261,1,8,0:0:0:0:
401,261,82450,1,2,0:0:0:0:
247,145,82640,1,0,0:0:0:0:
221,158,82735,2,0,P|188:182|154:210,1,79,8|0,0:0|0:0,0:0:0:0:
106,265,83020,6,0,P|118:195|52:149,1,150.099995991898,8|4,0:0|0:0,0:0:0:0:
23,286,83590,2,0,P|2:326|2:362,1,79,0|8,0:0|0:0,0:0:0:0:
32,178,83969,2,0,L|2:94,1,79,2|0,0:0|0:0,0:0:0:0:
130,211,84349,2,0,P|169:227|217:220,1,79,2|8,0:0|0:0,0:0:0:0:
343,143,84729,6,0,B|299:104|238:124|238:124|217:93|174:82,1,158,2|0,0:0|0:0,0:0:0:0:
279,207,85299,2,0,P|291:253|296:291,1,79,8|0,0:0|0:0,0:0:0:0:
295,284,85583,1,8,0:0:0:0:
295,284,85678,1,0,0:0:0:0:
224,347,85868,1,0,0:0:0:0:
395,267,86058,2,0,L|407:345,1,79,8|0,0:0|0:0,0:0:0:0:
486,249,86438,6,0,P|507:186|490:128,1,112.574996993923,4|0,0:0|0:0,0:0:0:0:
455,76,86818,2,0,B|341:103|341:103|308:135,1,150.099995991898,8|0,0:0|0:0,0:0:0:0:
265,212,87387,1,0,0:0:0:0:
370,296,87577,1,8,0:0:0:0:
168,233,87767,6,4,P|85:245|26:295,1,158,4|2,0:0|0:0,0:0:0:0:
94,379,88337,1,8,0:0:0:0:
248,278,88526,1,2,0:0:0:0:
149,116,88716,5,0,1:0:0:0:
2,180,88906,1,2,0:0:0:0:
56,337,89096,1,8,0:0:0:0:
215,233,89286,5,4,0:3:0:0:
241,207,89381,1,4,0:3:0:0:
266,181,89476,2,0,P|258:140|246:88,1,79,4|0,0:0|0:0,0:0:0:0:
446,270,89856,2,0,P|385:279|321:229,1,118.5,8|0,0:0|0:0,0:0:0:0:
241,207,90235,6,0,P|245:260|276:302,1,79,2|0,0:0|0:0,0:0:0:0:
374,155,90615,2,0,L|395:35,1,118.5,8|0,0:0|0:0,0:0:0:0:
315,15,90995,5,2,0:0:0:0:
469,100,91185,1,0,0:0:0:0:
300,214,91375,1,8,0:0:0:0:
395,39,91564,5,0,0:0:0:0:
248,113,91754,1,2,0:0:0:0:
431,200,91944,1,0,0:0:0:0:
431,200,92039,1,0,0:0:0:0:
431,200,92134,2,0,P|423:244|421:286,1,79,8|0,0:0|0:0,0:0:0:0:
256,48,92514,5,2,0:0:0:0:
348,146,92704,1,0,0:0:0:0:
167,253,92894,2,0,P|179:210|185:149,1,79,8|0,0:0|0:0,0:0:0:0:
379,45,93273,5,2,0:0:0:0:
304,226,93463,1,0,0:0:0:0:
467,67,93653,2,0,P|413:80|364:94,1,79,8|0,0:0|0:0,0:0:0:0:
225,173,94033,5,2,0:0:0:0:
390,218,94223,1,0,0:0:0:0:
207,55,94413,1,8,0:0:0:0:
230,204,94602,5,0,0:0:0:0:
236,235,94697,1,8,0:0:0:0:
243,267,94792,1,2,0:0:0:0:
319,115,94982,1,0,0:0:0:0:
99,229,95172,1,8,0:0:0:0:
208,337,95362,5,4,0:3:0:0:
208,337,95457,1,4,0:3:0:0:
208,337,95552,2,0,P|235:297|244:254,1,79,4|0,0:0|0:0,0:0:0:0:
207,124,95931,1,8,0:0:0:0:
356,321,96121,1,4,0:0:0:0:
356,321,96501,5,0,1:0:0:0:
286,127,96691,1,8,0:0:0:0:
156,233,96881,1,0,0:0:0:0:
432,264,97071,6,0,L|422:159,1,79,4|0,0:0|0:0,0:0:0:0:
468,123,97356,2,0,L|455:172,1,39.5,8|8,0:0|0:0,0:0:0:0:
256,352,97640,2,0,P|195:358|139:332,1,118.5,4|8,0:0|0:0,0:0:0:0:
120,317,98020,1,0,1:0:0:0:
272,192,98210,1,8,0:0:0:0:
130,224,98400,1,0,0:0:0:0:
256,352,98590,5,4,0:0:0:0:
204,147,98780,1,0,1:0:0:0:
92,213,98969,1,8,0:0:0:0:
331,266,99159,6,0,P|349:228|342:191,1,79,4|0,0:0|0:0,0:0:0:0:
215,113,99539,1,0,1:0:0:0:
187,107,99634,1,8,0:0:0:0:
159,101,99729,1,8,0:0:0:0:
239,278,99919,6,0,L|219:366,1,79,4|0,0:0|0:0,0:0:0:0:
63,329,100299,1,0,1:2:0:0:
159,101,100488,1,8,0:0:0:0:
137,229,100678,1,4,0:0:0:0:
56,150,100868,5,8,0:0:0:0:
29,158,100963,1,8,0:0:0:0:
2,167,101058,1,0,1:0:0:0:
234,259,101248,1,8,0:0:0:0:
183,62,101438,5,8,0:0:0:0:
156,70,101533,1,8,0:0:0:0:
129,79,101628,2,0,P|74:69|9:53,1,118.5,4|8,0:0|0:0,0:0:0:0:
2,27,102007,1,8,0:0:0:0:
202,162,102197,2,0,P|154:175|114:188,1,79,4|0,0:0|0:0,0:0:0:0:
73,284,102577,1,0,1:0:0:0:
262,333,102767,2,0,P|347:307|401:312,1,112.574996993923,8|8,0:0|0:0,0:0:0:0:
451,264,103147,6,0,P|414:268|357:229,1,75.0499979959488,4|0,0:0|0:0,0:0:0:0:
338,221,103431,2,0,L|330:182,1,37.5249989979744,8|8,0:0|0:0,0:0:0:0:
165,52,103716,2,0,B|219:38|270:27|270:27|292:45|311:63,1,150.099995991898,4|0,0:0|1:0,0:0:0:0:
359,197,104286,1,8,0:0:0:0:
223,151,104476,1,0,0:0:0:0:
334,46,104666,5,4,0:0:0:0:
248,253,104856,1,0,1:0:0:0:
403,176,105045,1,8,0:0:0:0:
143,218,105235,6,0,P|125:138|112:46,1,158,4|0,0:0|1:0,0:0:0:0:
256,96,105805,1,8,0:0:0:0:
44,197,105995,2,0,P|17:263|10:318,1,118.5,4|0,0:0|0:0,0:0:0:0:
23,353,106375,5,0,0:0:0:0:
91,174,106564,1,8,0:2:0:0:
58,342,106754,5,0,0:0:0:0:
252,277,106944,1,8,0:2:0:0:
44,197,107134,5,0,0:0:0:0:
193,358,107324,1,8,0:2:0:0:
186,122,107514,5,0,0:0:0:0:
8,237,107704,1,8,0:2:0:0:
95,104,107894,5,0,0:0:0:0:
225,309,108083,1,8,0:2:0:0:
126,180,108273,5,0,0:0:0:0:
347,242,108463,1,8,0:2:0:0:
151,342,108653,5,0,0:0:0:0:
256,160,108843,1,8,0:0:0:0:
263,125,108937,1,8,0:0:0:0:
260,92,109033,1,8,0:3:0:0:
244,62,109127,1,8,0:3:0:0:
220,38,109222,1,4,0:0:0:0:
256,192,109318,12,2,110742,0:0:0:0:
443,306,111501,6,0,P|460:271|455:225,1,71.0999978302003,2|0,0:0|0:0,0:0:0:0:
437,214,111881,6,0,P|370:236|374:165,1,142.199995660401,2|0,0:3|0:0,0:0:0:0:
379,155,112261,6,8,B|223:187,1,150.099995991898,12|8,0:0|0:2,0:0:0:0:
119,256,112830,1,2,0:0:0:0:
119,256,112925,1,8,0:0:0:0:
119,256,113020,2,0,P|90:297|76:329,1,79,0|0,0:0|0:0,0:0:0:0:
206,275,113400,1,8,0:0:0:0:
136,165,113590,6,0,P|86:148|56:139,1,79,0|0,0:0|0:0,0:0:0:0:
235,82,113969,2,0,P|274:72|319:62,1,79,2|8,0:0|0:0,0:0:0:0:
178,230,114349,1,2,0:0:0:0:
235,82,114539,1,0,0:0:0:0:
226,59,114634,1,8,0:0:0:0:
216,36,114729,1,0,0:0:0:0:
304,230,114919,5,8,0:0:0:0:
107,134,115109,1,0,0:0:0:0:
237,306,115299,6,0,P|263:228|277:129,1,158,4|8,0:0|0:0,0:0:0:0:
195,43,115868,2,0,P|179:84|172:131,1,79,2|0,0:0|0:0,0:0:0:0:
322,80,116248,1,2,0:0:0:0:
195,43,116438,1,8,0:0:0:0:
343,201,116628,6,0,P|419:213|492:160,1,158,4|4,0:0|0:0,0:0:0:0:
474,49,117197,2,0,P|419:67|389:75,1,79,8|2,0:0|0:0,0:0:0:0:
243,48,117577,1,4,0:0:0:0:
235,79,117672,1,8,0:0:0:0:
227,110,117767,1,0,0:0:0:0:
326,174,117957,1,8,0:0:0:0:
172,212,118147,5,8,0:0:0:0:
180,243,118242,1,8,0:0:0:0:
193,277,118337,2,0,P|183:330|177:368,1,79,4|0,0:0|0:0,0:0:0:0:
390,217,118716,2,0,P|398:152|343:96,1,118.5,8|0,0:0|0:0,0:0:0:0:
304,69,119096,2,0,P|279:108|277:139,1,79
217,223,119476,1,8,0:0:0:0:
290,345,119666,6,0,P|314:312|308:266,1,79,4|0,0:0|0:0,0:0:0:0:
277,139,120045,1,0,0:0:0:0:
161,240,120235,2,0,L|247:216,1,79,8|2,0:0|0:0,0:0:0:0:
484,269,120615,2,0,P|446:271|401:243,1,79,0|8,0:0|0:0,0:0:0:0:
402,213,120900,1,0,0:0:0:0:
402,213,120995,2,0,L|394:162,1,39.5,4|0,0:3|0:0,0:0:0:0:
319,87,121185,2,0,L|312:126,1,39.5,4|4,0:3|0:3,0:0:0:0:
255,231,121375,5,4,0:0:0:0:
319,87,121564,1,2,0:2:0:0:
153,261,121754,1,8,0:0:0:0:
256,32,121944,5,4,0:0:0:0:
256,32,122324,1,2,1:2:0:0:
141,124,122514,1,8,0:0:0:0:
404,85,122704,6,0,P|433:152|424:211,1,118.5,12|0,0:0|0:0,0:0:0:0:
417,237,123083,1,4,0:0:0:0:
288,169,123273,1,8,0:0:0:0:
435,275,123463,5,2,1:2:0:0:
256,336,123653,2,8,L|195:319,1,39.5,8|8,0:0|0:0,0:0:0:0:
120,344,123843,2,8,L|80:297,1,39.5,8|8,0:0|0:0,0:0:0:0:
41,222,124033,1,2,0:3:0:0:
80,209,124127,1,4,0:3:0:0:
117,223,124222,1,8,0:3:0:0:
149,246,124317,1,4,0:3:0:0:
188,237,124413,6,0,B|227:224|227:224|249:233|249:233|302:208|360:222,1,158,4|8,0:0|0:0,0:0:0:0:
478,170,124982,1,0,0:0:0:0:
378,323,125172,2,0,P|343:277|345:202,1,118.5,2|0,0:0|0:0,0:0:0:0:
374,150,125552,2,0,P|340:124|274:127,1,79,8|4,0:0|0:0,0:0:0:0:
109,222,125931,6,0,P|153:212|180:183,1,79,0|2,0:0|0:0,0:0:0:0:
216,86,126311,1,8,0:0:0:0:
95,29,126501,2,0,P|91:82|118:118,1,79,2|0,0:0|0:0,0:0:0:0:
177,190,126881,1,2,0:0:0:0:
284,230,127071,1,8,0:0:0:0:
216,86,127261,5,0,0:3:0:0:
202,54,127356,1,0,0:3:0:0:
188,24,127450,1,4,0:0:0:0:
360,66,127640,1,2,0:0:0:0:
239,245,127830,1,12,0:0:0:0:
312,135,128020,5,0,0:0:0:0:
312,135,128115,1,8,0:0:0:0:
312,135,128210,1,0,0:0:0:0:
158,182,128400,1,2,0:0:0:0:
356,313,128590,1,8,0:0:0:0:
194,116,128780,6,0,P|145:177|144:271,1,158,4|4,0:0|0:0,0:0:0:0:
390,187,129349,1,8,0:0:0:0:
266,68,129539,1,2,0:0:0:0:
282,247,129729,1,4,0:0:0:0:
255,237,129824,1,0,1:0:0:0:
236,216,129919,1,0,0:0:0:0:
390,187,130109,5,8,0:0:0:0:
194,116,130299,1,2,0:0:0:0:
331,344,130488,6,0,B|386:329|445:354|445:354|481:342|495:325,1,158,4|8,0:0|0:0,0:0:0:0:
464,192,131058,1,0,0:0:0:0:
464,192,131153,1,0,0:0:0:0:
464,192,131248,2,0,L|381:211,1,79,2|0,0:0|0:0,0:0:0:0:
251,116,131628,2,0,L|328:98,1,79,8|4,0:0|0:0,0:0:0:0:
221,241,132007,5,2,1:2:0:0:
350,355,132197,1,0,1:2:0:0:
314,203,132387,1,8,0:0:0:0:
157,312,132577,1,2,0:0:0:0:
386,261,132767,6,0,P|400:226|398:195,1,39.5,0|8,1:0|0:0,0:0:0:0:
382,136,132957,2,0,P|358:106|330:92,1,39.5,0|8,1:0|0:0,0:0:0:0:
276,64,133147,1,8,0:0:0:0:
232,69,133241,1,4,0:3:0:0:
195,94,133336,1,8,0:3:0:0:
159,119,133431,1,4,0:3:0:0:
115,116,133526,6,0,P|98:53|93:35,1,79,4|2,0:0|0:0,0:0:0:0:
54,213,133906,1,8,0:0:0:0:
256,304,134096,2,0,B|317:318|370:289|370:289|395:307|394:334,1,158,4|0,0:0|1:0,0:0:0:0:
346,186,134666,1,8,0:0:0:0:
170,237,134856,6,0,P|107:195|108:106,1,158,4|4,0:0|0:0,0:0:0:0:
225,140,135425,1,8,0:0:0:0:
116,31,135615,1,4,0:0:0:0:
256,16,135805,2,0,L|319:34,1,39.5,0|8,1:0|0:0,0:0:0:0:
378,11,135995,2,0,L|423:58,1,39.5,0|0,0:0|0:0,0:0:0:0:
486,66,136185,2,8,L|501:129,1,39.5,8|8,0:0|0:0,0:0:0:0:
465,188,136375,5,4,0:3:0:0:
457,212,136469,1,4,0:3:0:0:
449,237,136564,1,4,0:0:0:0:
224,288,137704,5,0,0:0:0:0:
238,300,137799,1,0,0:0:0:0:
256,306,137894,2,4,B|267:255|245:226|245:226|261:200|261:171,1,130.350003977966
117,333,138843,5,8,0:3:0:0:
79,321,138937,1,0,0:0:0:0:
48,295,139032,1,8,0:0:0:0:
31,259,139127,1,8,0:0:0:0:
29,219,139223,2,0,L|41:164,1,39.5,8|8,0:0|0:0,0:0:0:0:
115,86,139413,2,0,L|123:125,1,39.5,8|8,0:0|0:0,0:0:0:0:
207,196,139602,6,0,P|245:181|296:184,1,79,4|0,0:0|0:0,0:0:0:0:
339,125,139887,2,8,L|384:139,1,39.5,8|8,0:0|0:0,0:0:0:0:
153,352,140172,2,0,P|105:356|39:316,1,118.5,4|4,0:0|0:3,0:0:0:0:
23,295,140552,1,8,0:3:0:0:
256,160,140742,6,0,P|278:95|247:33,1,126.4,4|0,0:0|0:0,0:0:0:0:
200,261,141311,5,4,0:0:0:0:
356,123,141501,1,8,0:0:0:0:
95,29,141691,1,4,0:0:0:0:
