osu file format v14

[General]
AudioFilename: audio.mp3
AudioLeadIn: 0
PreviewTime: 53020
Countdown: 0
SampleSet: Soft
StackLeniency: 0.3
Mode: 0
LetterboxInBreaks: 0
WidescreenStoryboard: 0

[Editor]
DistanceSpacing: 1.2
BeatDivisor: 4
GridSize: 8
TimelineZoom: 1.2

[Metadata]
Title:Sekai ga Cafe ni Nacchatta!
TitleUnicode:セカイがカフェになっちゃった!
Artist:Petit Rabbit's with beans
ArtistUnicode:Petit Rabbit's with beans
Creator:Momochikun
Version:Hard
Source:ご注文はうさぎですか?? ~Dear My Sister~
Tags:gochiusa ova movie gochuumon wa usagi desu ka?? dear my sister is the order a rabbit?? rabbit house tea party event song white fox kirara max hoto cocoa sakura ayane kafuu chino minase inori tedeza rize taneda risa ujimatsu chiya satou satomi kirima syaro uchida maaya jouga maya tokui sora natsu megumi murakawa rie 佐倉綾音 水瀬いのり 種田梨沙 佐藤聡美 内田真礼 ココア チノ リゼ シャロ 千夜 条河 麻耶 奈津 恵 徳井青空 村川梨衣
BeatmapID:1472286
BeatmapSetID:694026

[Difficulty]
HPDrainRate:5
CircleSize:4
OverallDifficulty:6
ApproachRate:7
SliderMultiplier:1.4
SliderTickRate:1

[Events]
//Background and Video events
0,0,"bg.jpg",0,0
//Break Periods
//Storyboard Layer 0 (Background)
//Storyboard Layer 1 (Fail)
//Storyboard Layer 2 (Pass)
//Storyboard Layer 3 (Foreground)
//Storyboard Sound Samples

[TimingPoints]
4413,379.746835443038,4,2,1,50,1,0
4413,-105.263157894737,4,2,1,50,0,0
9919,-181.818181818181,4,2,1,50,0,0
10488,-105.263157894737,4,2,1,60,0,0
15805,-133.333333333333,4,2,1,60,0,0
16564,-100,4,2,1,80,0,1
16659,-100,4,2,1,80,0,0
25299,-100,4,2,1,60,0,0
25678,-100,4,2,1,80,0,0
28716,-100,4,2,1,60,0,0
37830,-100,4,2,1,70,0,0
41058,-100,4,2,1,60,0,0
51311,-100,4,2,1,65,0,0
53020,-100,4,2,1,70,0,0
71248,-100,4,2,1,75,0,0
72197,-100,4,2,1,80,0,0
72767,-100,4,2,1,75,0,0
75045,-100,4,2,1,80,0,0
76944,-100,4,2,1,90,0,0
77039,-100,4,2,1,60,0,0
77324,-100,4,2,1,80,0,1
88716,-100,4,2,1,80,0,0
89286,-100,4,2,1,50,0,0
89476,-100,4,2,1,80,0,1
95362,-100,4,2,1,50,0,1
95552,-100,4,2,1,80,0,1
109033,-100,4,2,1,55,0,1
109223,-100,4,2,1,80,0,0
109318,-100,4,2,1,50,0,0
110742,-100,4,2,1,25,0,0
111501,-142.857142857143,4,2,1,50,0,0
111881,-125,4,2,1,90,0,0
112261,-100,4,2,1,80,0,1
112356,-100,4,2,1,70,0,0
120995,-100,4,2,1,50,0,0
121375,-100,4,2,1,70,0,0
124413,-100,4,2,1,80,0,1
133242,-100,4,2,1,50,0,1
133526,-100,4,2,1,80,0,1
135805,-100,4,2,1,70,0,1
136375,-100,4,2,1,55,0,1
136564,-100,4,2,1,80,0,0
137894,-142.857142857143,4,2,1,80,0,0
138463,-100,4,2,1,50,0,0
138843,-100,4,2,1,80,0,0
140742,-100,4,2,1,80,0,0
141311,-100,4,2,1,80,0,0

[Colours]
Combo1 : 179,255,255
Combo2 : 53,154,255
Combo3 : 130,215,255
Combo4 : 145,145,255

[HitObjects]
136,88,4413,6,0,L|114:157,1,66.4999982242585,4|0,0:0|0:0,0:0:0:0:
58,224,4792,2,0,P|121:196|185:205,1,132.999996448517,2|0,0:0|0:0,0:0:0:0:
264,249,5362,1,0,0:0:0:0:
264,249,5552,2,0,P|329:256|388:229,1,132.999996448517,0|2,0:0|0:0,0:0:0:0:
457,187,6121,2,0,P|457:153|467:122,2,66.4999982242585
376,142,6691,2,0,P|347:124|325:99,1,66.4999982242585,2|0,0:0|0:0,0:0:0:0:
304,22,7071,1,0,0:0:0:0:
82,95,7450,6,0,L|70:163,2,66.4999982242585,2|0|0,0:0|0:0|0:0,0:0:0:0:
166,246,8210,2,0,L|177:311,2,66.4999982242585,2|0|0,0:0|0:0|0:0,0:0:0:0:
346,246,8969,2,0,L|334:311,1,66.4999982242585,2|0,0:0|0:0,0:0:0:0:
334,311,9254,1,0,0:0:0:0:
334,311,9349,1,2,0:0:0:0:
460,193,9729,5,2,0:0:0:0:
408,138,9919,2,0,P|361:115|307:114,1,96.250002937317,0|0,0:0|0:0,0:0:0:0:
293,126,10488,6,0,P|230:151|150:144,1,132.999996448517,4|8,0:0|0:0,0:0:0:0:
83,37,11058,2,0,P|149:34|210:59,1,132.999996448517,4|4,0:0|0:3,0:0:0:0:
177,211,11628,2,0,P|165:181|165:148,1,66.4999982242585,4|12,0:3|0:3,0:0:0:0:
293,126,12007,6,0,P|304:156|305:189,1,66.4999982242585,4|0,0:0|0:0,0:0:0:0:
254,260,12387,1,8,0:0:0:0:
114,256,12577,2,0,P|88:189|95:118,1,132.999996448517,4|4,0:0|0:3,0:0:0:0:
91,128,13052,1,0,0:0:0:0:
91,128,13147,1,4,0:3:0:0:
177,53,13337,5,8,0:0:0:0:
177,53,13431,1,8,0:0:0:0:
177,53,13526,2,0,L|245:68,2,66.4999982242585,4|0|8,0:0|1:0|0:0,0:0:0:0:
283,144,14096,2,0,P|324:110|310:20,1,132.999996448517,4|0,0:0|1:0,0:0:0:0:
241,67,14666,1,8,0:0:0:0:
365,108,14856,6,0,P|430:78|493:90,1,132.999996448517,8|0,0:0|1:0,0:0:0:0:
437,182,15425,1,0,1:0:0:0:
416,265,15615,1,0,0:0:0:0:
395,349,15805,6,0,P|383:295|377:238,1,105.000004005432,2|2,0:0|0:3,0:0:0:0:
299,183,16375,5,0,1:0:0:0:
299,183,16469,1,0,1:0:0:0:
299,183,16564,2,0,P|228:173|150:211,1,140,4|8,0:0|0:0,0:0:0:0:
85,172,17134,1,0,0:0:0:0:
105,283,17324,2,0,P|176:286|250:242,1,140,0|8,0:0|0:0,0:0:0:0:
315,285,17894,1,2,0:0:0:0:
401,225,18083,6,0,L|382:134,1,70,0|2,0:0|0:0,0:0:0:0:
315,285,18463,2,0,L|329:353,1,70,8|2,0:0|0:0,0:0:0:0:
420,316,18843,2,0,P|456:323|501:323,2,70,0|2|8,0:0|0:0|0:0,0:0:0:0:
256,192,19602,6,0,P|221:199|189:211,1,70,4|0,0:0|0:0,0:0:0:0:
83,248,19982,2,0,P|63:212|68:166,1,70,12|2,0:0|0:0,0:0:0:0:
62,183,20267,1,8,0:0:0:0:
62,183,20362,1,0,0:0:0:0:
32,80,20552,2,0,L|103:104,1,70,2|8,0:0|0:0,0:0:0:0:
201,48,20931,6,0,P|263:57|338:20,1,140,4|2,0:0|0:0,0:0:0:0:
410,56,21501,2,0,P|428:94|431:121,1,70,8|2,0:0|0:0,0:0:0:0:
397,199,21881,2,0,L|386:248,2,35,0|8|0,0:0|0:0|0:0,0:0:0:0:
315,176,22261,1,8,0:0:0:0:
253,232,22450,1,0,0:0:0:0:
215,307,22640,6,0,P|150:332|62:313,1,140,4|8,0:0|0:0,0:0:0:0:
40,248,23210,1,0,0:0:0:0:
137,199,23400,2,0,P|149:134|90:76,1,140,2|8,0:0|0:0,0:0:0:0:
29,45,23969,1,4,0:0:0:0:
105,81,24159,5,0,1:0:0:0:
188,70,24349,1,0,1:0:0:0:
249,12,24539,1,8,0:0:0:0:
188,70,24729,1,2,0:0:0:0:
270,127,24919,2,0,L|409:100,1,140,0|4,1:0|0:3,0:0:0:0:
509,202,25488,5,8,0:3:0:0:
509,202,25583,1,0,0:0:0:0:
509,202,25678,2,0,L|439:215,1,70,4|0,0:0|0:0,0:0:0:0:
381,276,26058,1,8,0:0:0:0:
269,320,26248,2,0,P|205:313|143:256,1,140,4|0,0:0|1:0,0:0:0:0:
207,205,26818,5,8,0:0:0:0:
105,330,27007,2,0,P|76:289|113:199,2,140,4|8|0,0:0|0:0|1:0,0:0:0:0:
215,374,27957,1,0,1:0:0:0:
256,144,28337,2,0,L|268:94,3,35,8|0|0|0,0:0|0:0|0:0|0:0,0:0:0:0:
273,68,28716,6,0,P|335:37|419:53,1,140,4|8,0:0|0:0,0:0:0:0:
446,117,29286,1,0,0:0:0:0:
389,179,29476,2,0,L|416:261,2,70,0|0|8,0:0|0:0|0:0,0:0:0:0:
315,227,30045,6,0,P|246:234|184:203,1,140,0|0,0:0|0:0,0:0:0:0:
133,136,30615,1,8,0:0:0:0:
49,129,30805,2,0,P|17:178|12:264,1,140,2|0,0:0|0:0,0:0:0:0:
104,327,31375,2,0,P|123:297|126:245,1,70,8|0,0:0|0:0,0:0:0:0:
210,300,31754,6,0,P|239:319|291:322,1,70,2|0,0:0|0:0,0:0:0:0:
310,222,32134,2,0,P|280:202|228:199,2,70,8|0|0,0:0|0:0|0:0,0:0:0:0:
394,272,32704,2,0,P|415:237|414:192,1,70,0|8,0:0|0:0,0:0:0:0:
393,111,33083,6,0,B|342:96|342:96|309:107|309:107|246:89,1,140,0|2,0:0|0:0,0:0:0:0:
202,29,33653,1,8,0:0:0:0:
132,112,33843,2,0,B|105:209|105:209|118:260,1,140
211,333,34413,2,0,P|232:297|232:250,1,70,8|0,0:0|0:0,0:0:0:0:
212,165,34792,5,4,0:0:0:0:
132,112,34982,2,0,L|52:133,1,70,0|8,0:0|0:0,0:0:0:0:
212,165,35362,2,0,L|347:129,1,140,0|0,0:0|0:0,0:0:0:0:
413,181,35931,1,8,0:0:0:0:
364,270,36121,6,0,B|311:260|270:294|270:294|247:267|267:244,1,140,0|0,0:0|0:0,0:0:0:0:
337,350,36691,2,0,P|387:372|431:372,1,70,8|0,0:0|0:0,0:0:0:0:
334,207,37071,2,0,P|353:257|384:289,1,70,0|0,0:0|0:0,0:0:0:0:
440,109,37450,2,0,P|418:159|418:203,1,70,8|2,0:0|0:0,0:0:0:0:
460,293,37830,5,4,0:0:0:0:
382,346,38020,2,0,P|336:340|296:309,1,70,0|8,0:0|0:0,0:0:0:0:
256,248,38400,2,0,P|143:275|102:294,1,140,4|2,0:0|0:0,0:0:0:0:
49,328,38969,1,8,0:0:0:0:
18,226,39159,6,0,B|46:180|-2:143|39:87,1,140,4|2,0:0|0:0,0:0:0:0:
154,15,39729,2,0,P|105:24|72:30,1,70,8|4,0:0|0:0,0:0:0:0:
170,114,40109,2,0,P|204:107|238:101,1,70,0|0,0:0|0:0,0:0:0:0:
300,159,40488,1,8,0:0:0:0:
249,218,40678,6,0,L|233:263,2,35,0|8|4,0:0|0:0|0:0,0:0:0:0:
365,210,41058,2,0,P|384:179|377:127,1,70,0|8,0:0|0:0,0:0:0:0:
359,65,41438,1,0,0:0:0:0:
442,75,41628,2,0,L|513:59,2,70,0|0|8,0:0|0:0|0:0,0:0:0:0:
328,38,42197,6,0,P|263:25|185:70,1,140,0|0,0:0|0:0,0:0:0:0:
154,127,42767,1,8,0:0:0:0:
214,202,42957,2,0,P|149:215|71:170,1,140,2|0,0:0|0:0,0:0:0:0:
13,138,43526,1,8,0:0:0:0:
31,247,43716,6,0,P|23:288|26:328,1,70,0|0,0:0|0:0,0:0:0:0:
86,372,44096,1,0,0:0:0:0:
164,342,44286,2,0,L|240:359,1,70,8|0,0:0|0:0,0:0:0:0:
294,299,44666,2,0,P|330:288|383:292,1,70,0|2,0:0|0:0,0:0:0:0:
438,323,45045,1,8,0:0:0:0:
496,262,45235,6,0,P|484:183|420:142,1,140,2|2,0:0|0:0,0:0:0:0:
357,128,45805,1,8,0:0:0:0:
420,69,45995,2,0,P|347:89|275:71,1,140
214,30,46564,1,8,0:0:0:0:
148,82,46754,1,0,0:0:0:0:
135,167,46944,6,0,L|218:189,1,70,4|0,0:0|0:0,0:0:0:0:
270,238,47324,1,8,0:0:0:0:
206,307,47514,2,0,P|178:264|204:182,1,140,0|0,0:0|0:0,0:0:0:0:
270,238,48083,1,8,0:0:0:0:
320,167,48273,6,0,P|361:220|347:286,1,140,0|0,0:0|0:0,0:0:0:0:
411,357,48843,2,0,L|336:372,1,70,8|0,0:0|0:0,0:0:0:0:
258,304,49223,2,0,P|255:269|270:238,1,70,0|0,0:0|0:0,0:0:0:0:
147,223,49602,2,0,P|170:197|203:186,1,70,8|0,0:0|0:0,0:0:0:0:
165,103,49982,6,0,P|126:88|95:91,2,70,4|0|8,0:0|0:0|0:0,0:0:0:0:
233,50,50552,2,0,P|306:32|385:42,1,140,0|0,0:0|0:0,0:0:0:0:
438,86,51121,2,0,L|426:158,1,70,8|4,0:0|0:0,0:0:0:0:
360,243,51501,5,2,0:0:0:0:
286,281,51691,1,8,0:0:0:0:
225,223,51881,1,8,0:0:0:0:
262,148,52071,1,0,0:0:0:0:
345,161,52261,1,0,1:0:0:0:
360,243,52450,1,0,1:0:0:0:
258,307,52640,2,0,L|229:345,3,35,8|10|0|8,0:0|0:0|1:0|0:0,0:0:0:0:
201,364,53020,6,0,P|160:361|124:332,1,70,4|0,0:0|0:0,0:0:0:0:
157,264,53400,2,0,P|130:232|125:186,1,70,8|0,0:0|0:0,0:0:0:0:
196,163,53780,2,0,P|199:122|227:86,1,70,0|0,0:0|0:0,0:0:0:0:
249,10,54159,1,8,0:0:0:0:
288,89,54349,6,0,P|212:84|151:25,1,140,2|0,0:0|0:0,0:0:0:0:
82,22,54919,2,0,L|30:75,1,70,8|0,0:0|0:0,0:0:0:0:
55,153,55299,1,0,0:0:0:0:
98,246,55488,2,0,P|159:287|233:284,1,140
318,321,56058,6,0,P|322:286|326:251,2,70,2|0|8,0:0|0:0|0:0,0:0:0:0:
386,370,56628,1,0,0:0:0:0:
437,298,56818,2,0,P|471:304|510:302,1,70,0|0,0:0|0:0,0:0:0:0:
477,223,57197,1,8,0:0:0:0:
413,167,57387,6,0,P|324:178|267:202,1,140,2|0,0:0|0:0,0:0:0:0:
197,168,57957,2,0,P|179:136|181:83,1,70,8|0,0:0|0:0,0:0:0:0:
262,86,58337,1,0,0:0:0:0:
200,8,58526,2,0,P|124:14|71:49,1,140
52,131,59096,6,0,B|62:183|62:183|84:207|84:207|97:269,1,140,4|8,0:0|0:0,0:0:0:0:
179,269,59666,2,0,L|166:198,1,70,2|0,0:0|0:0,0:0:0:0:
11,266,60045,2,0,L|23:334,1,70,0|8,0:0|0:0,0:0:0:0:
153,351,60425,6,0,P|213:359|278:310,1,140,4|2,0:0|0:0,0:0:0:0:
365,222,60995,2,0,P|358:262|358:304,1,70,8|0,0:0|0:0,0:0:0:0:
481,260,61375,1,2,0:0:0:0:
473,176,61564,1,0,0:0:0:0:
418,112,61754,1,8,0:0:0:0:
341,77,61944,1,0,0:0:0:0:
267,118,62134,6,0,P|206:128|118:91,1,140,4|8,0:0|0:0,0:0:0:0:
74,26,62704,2,0,P|135:16|223:53,1,140,0|0,0:0|0:0,0:0:0:0:
267,118,63273,1,8,0:0:0:0:
195,207,63463,6,0,P|144:178|137:94,1,140,4|0,0:0|1:0,0:0:0:0:
195,207,64033,2,0,L|106:227,1,70,8|8,0:0|0:0,0:0:0:0:
235,299,64413,2,0,L|292:315,3,35,0|8|8|0,1:0|0:0|0:0|0:0,0:0:0:0:
343,289,64792,2,0,L|371:340,3,35,0|8|8|8,1:0|0:0|0:0|0:0,0:0:0:0:
438,308,65172,6,0,L|426:378,1,70,4|2,0:0|0:0,0:0:0:0:
454,224,65552,2,0,L|465:155,1,70,8|2,0:0|0:0,0:0:0:0:
365,102,65931,2,0,L|353:170,2,70,0|2|8,0:0|0:0|0:0,0:0:0:0:
296,52,66501,6,0,B|245:78|210:37|154:73,1,140,4|2,0:0|0:0,0:0:0:0:
100,129,67071,1,8,0:0:0:0:
33,179,67261,2,0,P|35:246|87:308,1,140,2|0,0:0|0:0,0:0:0:0:
161,349,67830,6,0,P|179:312|281:256,1,140,8|4,0:0|0:0,0:0:0:0:
341,239,68400,1,2,0:0:0:0:
422,257,68590,1,8,0:0:0:0:
476,321,68780,1,2,0:0:0:0:
409,371,68969,2,0,L|333:338,1,70,0|2,0:0|0:0,0:0:0:0:
256,336,69349,1,8,0:0:0:0:
179,252,69539,6,0,P|161:194|190:115,1,140,4|0,0:0|0:0,0:0:0:0:
256,72,70109,1,8,0:0:0:0:
326,120,70299,2,0,P|350:185|333:252,1,140,2|0,0:0|0:0,0:0:0:0:
256,336,70868,2,0,L|256:266,1,70,8|0,0:0|0:0,0:0:0:0:
208,184,71248,6,0,L|131:205,1,70,4|0,0:0|0:0,0:0:0:0:
140,202,71533,1,8,0:0:0:0:
140,202,71628,1,8,0:0:0:0:
256,266,71818,2,0,P|325:298|399:289,1,140,4|4,0:0|0:3,0:0:0:0:
413,195,72387,2,0,L|336:216,1,70,8|4,0:3|0:3,0:0:0:0:
257,318,72767,6,0,L|189:299,1,70,4|0,0:0|0:0,0:0:0:0:
189,299,73052,1,8,0:0:0:0:
189,299,73147,1,8,0:0:0:0:
81,243,73337,2,0,B|95:344|95:344|138:377,1,140,4|8,0:0|0:0,0:0:0:0:
186,270,73906,1,8,0:0:0:0:
159,158,74096,5,8,0:0:0:0:
142,144,74191,1,8,0:0:0:0:
122,135,74286,2,0,P|66:121|12:131,1,105,4|0,0:0|0:0,0:0:0:0:
30,101,74666,2,0,P|49:67|43:23,1,70,8|0,0:0|0:0,0:0:0:0:
167,84,75045,2,0,P|167:118|185:148,1,70,4|2,0:0|1:2,0:0:0:0:
287,114,75425,2,0,P|317:96|351:95,1,70,0|2,1:0|1:2,0:0:0:0:
447,68,75805,5,4,0:0:0:0:
503,129,75995,1,8,0:0:0:0:
456,199,76185,1,8,0:0:0:0:
374,218,76375,1,8,0:3:0:0:
292,237,76564,2,0,L|313:151,1,70,0|0,1:0|0:0,0:0:0:0:
406,293,76944,1,2,0:3:0:0:
400,313,77039,1,8,0:0:0:0:
395,333,77134,1,0,0:0:0:0:
292,237,77324,6,0,P|254:239|218:259,1,70,4|0,0:0|0:0,0:0:0:0:
147,313,77704,2,0,P|76:298|37:240,1,140,8|2,0:0|0:0,0:0:0:0:
77,171,78273,1,0,0:0:0:0:
140,85,78463,6,0,B|190:68|190:68|222:80|222:80|291:60,1,140,8|2,0:0|0:0,0:0:0:0:
344,109,79033,2,0,L|414:88,1,70,0|8,0:0|0:0,0:0:0:0:
476,142,79413,1,0,0:0:0:0:
423,207,79602,2,0,P|412:251|409:280,1,70,2|0,0:0|0:0,0:0:0:0:
374,352,79982,1,8,0:0:0:0:
303,306,80172,1,0,0:0:0:0:
222,280,80362,6,0,L|147:300,2,70,2|0|8,0:0|0:0|0:0,0:0:0:0:
256,192,80931,1,0,0:0:0:0:
290,104,81121,2,0,L|365:84,2,70,2|0|8,0:0|0:0|0:0,0:0:0:0:
123,75,81881,6,0,P|105:118|110:162,1,70,2|0,0:0|0:0,0:0:0:0:
133,220,82261,1,8,0:0:0:0:
78,283,82450,2,0,P|136:249|218:262,1,140,2|0,0:0|0:0,0:0:0:0:
193,379,83020,2,0,P|162:352|157:306,1,70,8|0,0:0|0:0,0:0:0:0:
230,221,83400,6,0,B|286:211|335:233|335:233|385:219,1,140,4|8,0:0|0:0,0:0:0:0:
419,289,83969,2,0,P|403:220|391:133,1,140,2|2,0:0|0:0,0:0:0:0:
454,92,84539,1,8,0:0:0:0:
383,46,84729,6,0,P|314:36|235:75,1,140,2|0,0:0|0:0,0:0:0:0:
166,72,85299,2,0,P|156:111|159:149,1,70,8|0,0:0|0:0,0:0:0:0:
273,206,85678,2,0,P|283:167|280:129,1,70,0|0,0:0|0:0,0:0:0:0:
168,222,86058,2,0,P|167:256|176:290,1,70,8|0,0:0|0:0,0:0:0:0:
256,336,86438,6,0,L|400:364,2,140,4|8|0,0:0|0:0|0:0,0:0:0:0:
176,290,87387,1,0,0:0:0:0:
197,208,87577,1,8,0:0:0:0:
256,112,87767,6,0,B|307:68|367:91|367:91|333:115,1,140,4|0,0:0|0:0,0:0:0:0:
330,244,88337,2,0,P|317:205|320:165,1,70,8|0,0:0|0:0,0:0:0:0:
426,146,88716,2,0,P|454:175|466:216,1,70,0|2,1:0|0:0,0:0:0:0:
486,283,89096,1,8,0:0:0:0:
374,329,89286,5,4,0:3:0:0:
374,329,89381,1,4,0:3:0:0:
374,329,89476,2,0,L|299:351,1,70,4|0,0:0|0:0,0:0:0:0:
218,294,89856,2,0,P|155:303|80:278,1,140,8|2,0:0|0:0,0:0:0:0:
43,198,90425,1,0,0:0:0:0:
92,121,90615,6,0,P|155:112|230:137,1,140,8|2,0:0|0:0,0:0:0:0:
275,204,91185,2,0,P|319:200|355:180,1,70,0|8,0:0|0:0,0:0:0:0:
416,144,91564,1,0,0:0:0:0:
416,144,91754,2,0,P|436:184|438:214,2,70,2|0|8,0:0|0:0|0:0,0:0:0:0:
280,43,92514,6,0,L|199:60,1,70,2|0,0:0|0:0,0:0:0:0:
145,121,92894,2,0,L|76:106,2,70,8|0|2,0:0|0:0|0:0,0:0:0:0:
191,191,93463,1,0,0:0:0:0:
145,261,93653,6,0,B|92:276|40:250|40:250|16:269|10:293,1,140,8|2,0:0|0:0,0:0:0:0:
23,171,94223,2,0,P|32:135|32:89,1,70,0|8,0:0|0:0,0:0:0:0:
101,53,94602,2,0,P|176:33|253:40,1,140,0|0,0:0|0:0,0:0:0:0:
305,86,95172,1,8,0:0:0:0:
256,176,95362,5,4,0:3:0:0:
256,176,95457,1,4,0:3:0:0:
256,176,95552,2,0,L|239:248,2,70,4|0|8,0:0|0:0|0:0,0:0:0:0:
352,198,96121,1,4,0:0:0:0:
151,218,96501,1,0,1:0:0:0:
86,271,96691,2,0,L|103:340,1,70,8|0,0:0|0:0,0:0:0:0:
229,380,97071,6,0,P|254:339|245:279,1,105,4|8,0:0|0:0,0:0:0:0:
235,258,97450,1,8,0:0:0:0:
125,167,97640,2,0,B|104:205|130:253|130:253|112:281|71:269,1,140,4|0,0:0|1:0,0:0:0:0:
207,183,98210,2,0,L|225:105,1,70,8|0,0:0|0:0,0:0:0:0:
349,246,98590,5,4,0:0:0:0:
291,185,98780,1,0,1:0:0:0:
265,105,98969,1,8,0:0:0:0:
272,21,99159,2,0,L|419:55,1,140,4|0,0:0|1:0,0:0:0:0:
459,119,99729,1,8,0:0:0:0:
398,199,99919,6,0,P|342:226|314:302,1,140,4|0,0:0|1:2,0:0:0:0:
427,370,100488,2,0,P|391:358|348:360,1,70,8|4,0:0|0:0,0:0:0:0:
240,259,100868,2,0,P|205:258|172:246,1,70,8|0,0:0|1:0,0:0:0:0:
109,190,101248,1,8,0:0:0:0:
30,254,101438,5,8,0:0:0:0:
30,254,101533,1,8,0:0:0:0:
30,254,101628,2,0,P|11:201|39:119,1,140,4|8,0:0|0:0,0:0:0:0:
150,52,102197,2,0,P|169:105|141:187,1,140,4|0,0:0|1:0,0:0:0:0:
114,274,102767,1,8,0:0:0:0:
114,274,102957,1,0,0:0:0:0:
208,320,103147,6,0,P|270:331|345:293,1,140,4|8,0:0|0:0,0:0:0:0:
425,192,103716,2,0,P|363:181|288:219,1,140,4|0,0:0|1:0,0:0:0:0:
397,353,104286,2,0,P|413:313|407:267,1,70,8|0,0:0|0:0,0:0:0:0:
354,150,104666,5,4,0:0:0:0:
324,71,104856,1,0,1:0:0:0:
392,22,105045,1,8,0:0:0:0:
324,71,105235,2,0,B|242:91|242:91|190:63,1,140,4|0,0:0|1:0,0:0:0:0:
112,38,105805,1,8,0:0:0:0:
68,119,105995,6,0,L|79:203,1,70,4|0,0:0|0:0,0:0:0:0:
187,218,106375,1,0,0:0:0:0:
187,218,106564,2,0,L|177:287,1,70,8|0,0:2|0:0,0:0:0:0:
325,218,106944,2,0,L|334:287,1,70,8|0,0:2|0:0,0:0:0:0:
434,188,107324,2,0,L|444:119,1,70,8|0,0:2|0:0,0:0:0:0:
338,66,107704,5,8,0:2:0:0:
360,154,107894,1,0,0:0:0:0:
265,81,108083,2,0,P|271:33|297:2,1,70,8|0,0:2|0:0,0:0:0:0:
407,94,108463,1,8,0:2:0:0:
286,176,108653,1,0,0:0:0:0:
369,245,108843,2,0,B|422:258|470:229|470:229|504:252|477:274,1,140,8|4,0:0|0:0,0:0:0:0:
256,192,109318,12,2,110742,0:0:0:0:
256,320,111501,6,0,P|217:325|170:302,1,73.4999977569581,2|0,0:0|0:0,0:0:0:0:
140,333,111881,2,0,L|166:206,1,112,2|12,0:3|0:0,0:0:0:0:
339,93,112640,6,0,L|319:185,1,70,8|2,0:2|0:0,0:0:0:0:
324,161,112925,1,8,0:0:0:0:
324,161,113020,1,0,0:0:0:0:
277,231,113210,1,0,0:0:0:0:
201,193,113400,1,8,0:0:0:0:
118,207,113590,6,0,P|71:262|78:336,1,140,0|2,0:0|0:0,0:0:0:0:
143,372,114159,1,8,0:0:0:0:
213,325,114349,2,0,P|282:313|370:336,1,140,2|0,0:0|0:0,0:0:0:0:
364,243,114919,6,0,B|385:202|368:169|368:169|392:131|384:95,1,140,8|4,0:0|0:0,0:0:0:0:
307,69,115488,1,0,0:0:0:0:
237,115,115678,1,8,0:0:0:0:
153,125,115868,2,0,P|108:80|127:-1,1,140,2|2,0:0|0:0,0:0:0:0:
191,50,116438,1,8,0:0:0:0:
65,102,116628,6,0,P|39:139|35:178,1,70,4|0,0:0|0:0,0:0:0:0:
89,225,117007,2,0,P|96:269|121:299,1,70,4|8,0:0|0:0,0:0:0:0:
192,268,117387,1,2,0:0:0:0:
192,268,117577,2,0,P|229:294|268:298,1,70,4|0,0:0|0:0,0:0:0:0:
330,266,117957,1,8,0:0:0:0:
292,167,118147,5,0,0:0:0:0:
292,167,118242,1,0,0:0:0:0:
292,167,118337,2,0,P|297:99|315:22,2,140,4|8|0,0:0|0:0|0:0,0:0:0:0:
398,252,119286,2,0,L|310:269,2,70,0|8|4,0:0|0:0|0:0,0:0:0:0:
459,193,119856,5,0,0:0:0:0:
464,109,120045,1,0,0:0:0:0:
382,94,120235,2,0,P|339:90|308:71,1,70,8|2,0:0|0:0,0:0:0:0:
241,37,120615,1,0,0:0:0:0:
125,63,120805,1,8,0:0:0:0:
125,63,120900,1,0,0:0:0:0:
125,63,120995,2,0,L|115:120,2,35,4|0|4,0:3|0:0|0:3,0:0:0:0:
25,154,121375,6,0,P|35:204|45:228,1,70,4|2,0:0|0:2,0:0:0:0:
100,282,121754,1,8,0:0:0:0:
254,209,121944,2,0,P|187:179|98:194,1,140,4|2,0:0|1:2,0:0:0:0:
100,282,122514,1,8,0:0:0:0:
212,339,122704,6,0,P|279:369|368:354,1,140,12|4,0:0|0:0,0:0:0:0:
457,280,123273,2,0,L|446:351,1,70,8|2,0:0|1:2,0:0:0:0:
368,231,123653,2,0,L|349:165,3,35,8|8|8|8,0:0|0:0|0:0|0:0,0:0:0:0:
295,151,124033,2,0,L|314:85,3,35,2|4|8|4,0:3|0:3|0:3|0:3,0:0:0:0:
333,45,124413,6,0,B|280:73|241:32|192:71,1,140,4|8,0:0|0:0,0:0:0:0:
150,138,124982,1,0,0:0:0:0:
65,86,125172,2,0,P|56:149|103:223,1,140,2|8,0:0|0:0,0:0:0:0:
172,235,125742,1,4,0:0:0:0:
247,270,125931,5,0,0:0:0:0:
237,354,126121,1,2,0:0:0:0:
155,370,126311,1,8,0:0:0:0:
114,296,126501,1,2,0:0:0:0:
172,235,126691,2,0,P|212:238|259:220,1,70,0|2,0:0|0:0,0:0:0:0:
299,139,127071,6,0,P|269:211|291:286,1,140,8|4,0:0|0:0,0:0:0:0:
376,316,127640,2,0,L|389:243,1,70,2|12,0:0|0:0,0:0:0:0:
469,152,128020,1,0,0:0:0:0:
469,152,128115,1,8,0:0:0:0:
469,152,128210,2,0,L|481:220,2,70,0|2|8,0:0|0:0|0:0,0:0:0:0:
408,59,128780,6,0,P|348:23|272:35,1,140,4|4,0:0|0:0,0:0:0:0:
296,113,129349,1,8,0:0:0:0:
311,195,129539,1,2,0:0:0:0:
327,277,129729,2,0,L|318:320,2,35,4|0|0,0:0|1:0|0:0,0:0:0:0:
236,297,130109,2,0,P|193:306|158:298,1,70,8|2,0:0|0:0,0:0:0:0:
85,349,130488,6,0,L|65:211,1,140,4|8,0:0|0:0,0:0:0:0:
3,151,131058,1,0,0:0:0:0:
148,124,131248,2,0,L|168:262,1,140,2|8,0:0|0:0,0:0:0:0:
237,310,131818,1,4,0:0:0:0:
318,293,132007,5,2,1:2:0:0:
393,255,132197,1,0,1:2:0:0:
351,181,132387,1,8,0:0:0:0:
272,152,132577,1,2,0:0:0:0:
329,90,132767,2,0,P|338:48|339:10,1,70,0|0,1:0|1:0,0:0:0:0:
367,21,133052,1,8,0:0:0:0:
392,32,133147,2,0,L|447:19,2,35,8|4|8,0:0|0:3|0:3,0:0:0:0:
450,116,133526,6,0,P|452:150|460:184,1,70,4|2,0:0|0:0,0:0:0:0:
414,255,133906,1,8,0:0:0:0:
329,323,134096,2,0,P|266:334|183:301,1,140,4|0,0:0|1:0,0:0:0:0:
104,272,134666,1,8,0:0:0:0:
183,221,134856,6,0,P|188:305|141:370,1,140,4|4,0:0|0:0,0:0:0:0:
20,290,135425,2,0,P|19:251|42:210,1,70,8|4,0:0|0:0,0:0:0:0:
118,125,135805,2,0,L|149:86,3,35,0|8|0|0,1:0|0:0|0:0|0:0,0:0:0:0:
186,34,136185,2,0,L|227:22,3,35,8|8|4|4,0:0|0:0|0:3|0:3,0:0:0:0:
288,62,136564,5,4,0:0:0:0:
120,256,137704,5,0,0:0:0:0:
120,256,137894,2,0,B|164:270|164:270|226:241|273:268,1,146.999995513916,4|4,0:0|0:0,0:0:0:0:
457,309,138843,5,8,0:3:0:0:
421,221,139033,1,8,0:0:0:0:
409,195,139128,1,8,0:0:0:0:
397,169,139223,2,0,P|404:140|414:113,3,35,8|8|8|8,0:0|0:0|0:0|0:0,0:0:0:0:
383,105,139602,6,0,L|294:124,1,70,4|0,0:0|0:0,0:0:0:0:
275,102,139887,2,0,L|212:85,1,35,8|8,0:0|0:0,0:0:0:0:
99,206,140172,2,0,P|151:214|217:175,1,105,4|4,0:0|0:3,0:0:0:0:
226,207,140552,1,8,0:3:0:0:
75,120,140742,6,0,P|73:218|118:268,1,140,4|0,0:0|0:0,0:0:0:0:
175,364,141311,5,4,0:0:0:0:
200,285,141501,1,8,0:0:0:0:
226,207,141691,1,4,0:0:0:0:
