osu file format v14

[General]
AudioFilename: c'est trop mignon les lapins.mp3
AudioLeadIn: 0
PreviewTime: 58204
Countdown: 0
SampleSet: Normal
StackLeniency: 0.5
Mode: 1
LetterboxInBreaks: 0
WidescreenStoryboard: 1

[Editor]
Bookmarks: 8188,14421,26889,39357,51824,57863,88447
DistanceSpacing: 0.4
BeatDivisor: 4
GridSize: 32
TimelineZoom: 2.5

[Metadata]
Title:Tenkuu Cafeteria (TV Size)
TitleUnicode:天空カフェテリア (TV Size)
Artist:Petit Rabbit's
ArtistUnicode:Petit Rabbit's
Creator:realy0_
Version:Lapin?
Source:ご注文はうさぎですか? BLOOM
Tags:Gochuumon wa Usagi desu ka? Is the order a rabbit? ごちうさ Gochiusa Sara Rabbit House 保登 ココア Hoto Cocoa Kokoa 佐倉綾音 Sakura Ayane あやねる Ayaneru 香風 チノ Kafuu Chino 水瀬いのり Minase Inori いのりん Inorin 天々座 理世 リゼ Tedeza Rize 種田梨沙 Taneda Risa たねちゃん Tanechan 宇治松 千夜 Ujimatsu Chiya 佐藤聡美 Satou Hoshikawa Satomi シャロ 桐間 紗路 Kirima Syaro Sharo 内田真礼 Uchida Maaya 星川サラ Japanese Anime 3rd Third Season Opening Theme pop jpop j-pop Rabbits
BeatmapID:2651738
BeatmapSetID:1267305

[Difficulty]
HPDrainRate:5
CircleSize:5
OverallDifficulty:6
ApproachRate:5
SliderMultiplier:1.4
SliderTickRate:1

[Events]
//Background and Video events
0,0,"chino.jpg",0,-20
Video,1085,"taiko.mp4"
//Break Periods
//Storyboard Layer 0 (Background)
//Storyboard Layer 1 (Fail)
//Storyboard Layer 2 (Pass)
//Storyboard Layer 3 (Foreground)
//Storyboard Layer 4 (Overlay)
//Storyboard Sound Samples

[TimingPoints]
-3305,389.61038961039,4,1,0,50,1,0
1370,-125,4,1,0,50,0,0
2539,-121.212121212121,4,1,0,50,0,0
2928,-125,4,1,0,50,0,0
3707,-124.223602484472,4,1,0,50,0,0
3902,-123.456790123457,4,1,0,50,0,0
4097,-122.699386503067,4,1,0,50,0,0
4292,-121.951219512195,4,1,0,50,0,0
4487,-121.212121212121,4,1,0,50,0,0
4876,-125,4,1,0,50,0,0
5071,-121.212121212121,4,1,0,50,0,0
5266,-125,4,1,0,50,0,0
5656,-123.076923076923,4,1,0,50,0,0
5850,-121.212121212121,4,1,0,50,0,0
6045,-125,4,1,0,50,0,0
6824,-124.223602484472,4,1,0,50,0,0
7019,-123.456790123457,4,1,0,50,0,0
7214,-122.699386503067,4,1,0,50,0,0
7409,-121.951219512195,4,1,0,50,0,0
7604,-121.212121212121,4,1,0,50,0,0
7993,-125,4,1,0,50,0,0
8188,-121.212121212121,4,1,0,50,0,0
8383,-125,4,1,0,50,0,0
9162,-99.9999999999999,4,1,0,70,0,0
9454,-107.52688172043,4,1,0,70,0,0
9552,-106.382978723404,4,1,0,70,0,0
9746,-111.111111111111,4,1,0,70,0,0
10136,-105.263157894737,4,1,0,70,0,0
10331,-108.695652173913,4,1,0,70,0,0
10526,-100,4,1,0,70,0,0
10720,-105.263157894737,4,1,0,70,0,0
11110,-101.010101010101,4,1,0,70,0,0
11305,-105.263157894737,4,1,0,70,0,0
11402,-103.092783505155,4,1,0,70,0,0
11500,-101.010101010101,4,1,0,70,0,0
11695,-102.040816326531,4,1,0,70,0,0
11792,-100,4,1,0,70,0,0
11987,-97.0873786407767,4,1,0,70,0,0
12084,-98.5221674876847,4,1,0,70,0,0
12279,-90.9090909090909,4,1,0,70,0,0
12474,-94.3396226415094,4,1,0,70,0,0
12571,-91.743119266055,4,1,0,70,0,0
12669,-89.2857142857143,4,1,0,70,0,0
12863,-83.3333333333333,4,1,0,70,0,0
13253,-90.9090909090909,4,1,0,70,0,0
13448,-83.3333333333333,4,1,0,70,0,0
13643,-86.9565217391304,4,1,0,70,0,0
14032,-76.9230769230769,4,1,0,70,0,0
14422,-83.3333333333333,4,1,0,70,0,0
14617,-76.9230769230769,4,1,0,70,0,0
14811,-92.5925925925926,4,1,0,70,0,0
14876,-91.743119266055,4,1,0,70,0,0
14941,-90.9090909090909,4,1,0,70,0,0
15006,-89.2857142857143,4,1,0,70,0,0
15104,-87.719298245614,4,1,0,70,0,0
15201,-86.2068965517241,4,1,0,70,0,0
15298,-84.7457627118644,4,1,0,70,0,0
15396,-83.3333333333333,4,1,0,80,0,1
15591,-90.9090909090909,4,1,0,80,0,1
18415,-88.8888888888889,4,1,0,80,0,1
18513,-86.9565217391304,4,1,0,80,0,1
18707,-90.9090909090909,4,1,0,80,0,1
21045,-86.9565217391304,4,1,0,80,0,1
21143,-87.719298245614,4,1,0,80,0,1
21240,-88.4955752212389,4,1,0,80,0,1
21337,-89.2857142857143,4,1,0,80,0,1
21435,-90.0900900900901,4,1,0,80,0,1
21532,-90.9090909090909,4,1,0,80,0,1
21630,-86.9565217391304,4,1,0,80,0,1
21824,-90.9090909090909,4,1,0,80,0,1
24746,-86.9565217391304,4,1,0,80,0,1
24941,-90.9090909090909,4,1,0,80,0,1
25039,-91.5982427793105,4,1,0,80,0,1
25136,-92.2979229275424,4,1,0,80,0,1
25331,-93.7297602299004,4,1,0,80,0,1
25428,-94.462513024019,4,1,0,80,0,1
25526,-95.2068129995382,4,1,0,80,0,1
25720,-96.7311637823046,4,1,0,80,0,1
25915,-98.3051214019097,4,1,0,80,0,1
26110,-99.9310475771717,4,1,0,80,0,0
26889,-95.2380952380952,4,1,0,80,0,0
27084,-99.9310475771717,4,1,0,80,0,0
27279,-104.166666666667,4,1,0,80,0,0
27344,-104.89877268436,4,1,0,80,0,0
27409,-105.64124234101,4,1,0,80,0,0
27474,-106.382978723404,4,1,0,80,0,0
27669,-108.695652173913,4,1,0,80,0,0
27766,-109.89010989011,4,1,0,80,0,0
27863,-111.111111111111,4,1,0,60,0,0
31175,-110.600872419682,4,1,0,60,0,0
31370,-110.095298490373,4,1,0,60,0,0
31565,-109.594205535165,4,1,0,60,0,0
31759,-109.097772332587,4,1,0,60,0,0
31954,-108.605816275885,4,1,0,60,0,0
32149,-108.118277070384,4,1,0,60,0,0
32344,-107.634979646225,4,1,0,60,0,0
32539,-107.156098575038,4,1,0,60,0,0
32928,-106.211007283951,4,1,0,60,0,0
33123,-107.52688172043,4,1,0,60,0,0
33318,-105.282330361213,4,1,0,60,0,0
33415,-105.960264900662,4,1,0,60,0,0
33513,-106.666666666667,4,1,0,60,0,0
33707,-108.108108108108,4,1,0,60,0,0
33902,-112.359550561798,4,1,0,60,0,0
34000,-111.731843575419,4,1,0,60,0,0
34097,-111.111111111111,4,1,0,60,0,0
37409,-112.149490785237,4,1,0,60,0,0
37604,-113.207589889657,4,1,0,60,0,0
37798,-114.285714285714,4,1,0,60,0,0
37993,-115.384571005934,4,1,0,60,0,0
38188,-116.504899613553,4,1,0,60,0,0
38383,-117.647058823529,4,1,0,60,0,0
39357,-114.285714285714,4,1,0,60,0,0
39552,-117.647058823529,4,1,0,60,0,0
39746,-114.942528735632,4,1,0,60,0,0
39941,-109.89010989011,4,1,0,60,0,0
40039,-108.695652173913,4,1,0,60,0,0
40136,-107.52688172043,4,1,0,60,0,0
40233,-106.382978723404,4,1,0,60,0,0
40331,-105.263157894737,4,1,0,65,0,0
45883,-105.960264900662,4,1,0,65,0,0
45980,-106.666666666667,4,1,0,65,0,0
46078,-107.38255033557,4,1,0,65,0,0
46175,-108.108108108108,4,1,0,65,0,0
46370,-109.58904109589,4,1,0,65,0,0
46565,-111.111111111111,4,1,0,65,0,0
46954,-105.263157894737,4,1,0,65,0,0
47149,-106.382978723404,4,1,0,65,0,0
47246,-106.951871657754,4,1,0,65,0,0
47344,-107.52688172043,4,1,0,65,0,0
47733,-109.89010989011,4,1,0,65,0,0
47928,-111.111111111111,4,1,0,65,0,0
48123,-105.263157894737,4,1,0,65,0,0
48707,-106.382978723404,4,1,0,65,0,0
48805,-104.712041884817,4,1,0,65,0,0
48902,-103.092783505155,4,1,0,65,0,0
49097,-102.040816326531,4,1,0,65,0,0
49292,-101.010101010101,4,1,0,65,0,0
49487,-100,4,1,0,65,0,0
49682,-99.009900990099,4,1,0,65,0,0
49876,-105.263157894737,4,1,0,65,0,0
50266,-104.166666666667,4,1,0,65,0,0
50461,-102.040816326531,4,1,0,65,0,0
50558,-102.564102564103,4,1,0,65,0,0
50656,-103.092783505155,4,1,0,65,0,0
50753,-103.626943005181,4,1,0,65,0,0
50850,-104.166666666667,4,1,0,65,0,0
51045,-100,4,1,0,65,0,0
51240,-100,4,1,0,65,0,0
51435,-105.263157894737,4,1,0,65,0,0
51630,-104.166666666667,4,1,0,65,0,0
51824,-102.040816326531,4,1,0,65,0,0
51922,-101.010101010101,4,1,0,65,0,0
52019,-100,4,1,0,65,0,0
52214,-98.0392156862745,4,1,0,65,0,0
52311,-97.0873786407767,4,1,0,65,0,0
52409,-96.1538461538461,4,1,0,65,0,0
52604,-94.3396226415094,4,1,0,70,0,0
52993,-100,4,1,0,70,0,0
53188,-98.5221674876847,4,1,0,70,0,0
53383,-101.010101010101,4,1,0,70,0,0
53480,-99.502487562189,4,1,0,70,0,0
53578,-98.0392156862745,4,1,0,70,0,0
53772,-98.0392156862745,4,1,0,70,0,0
53967,-96.6183574879227,4,1,0,70,0,0
54162,-98.0392156862745,4,1,0,70,0,0
54259,-96.6183574879227,4,1,0,70,0,0
54357,-95.2380952380952,4,1,0,70,0,0
54454,-93.8967136150235,4,1,0,70,0,0
54552,-92.5925925925926,4,1,0,70,0,0
54746,-94.3396226415094,4,1,0,70,0,0
54941,-96.1538461538461,4,1,0,70,0,0
55039,-94.7867298578199,4,1,0,70,0,0
55136,-93.1677307974319,4,1,0,70,0,0
55331,-92.5925925925926,4,1,0,70,0,0
55526,-90.0900900900901,4,1,0,70,0,0
55623,-88.4955752212389,4,1,0,70,0,0
55720,-86.9565217391304,4,1,0,70,0,0
55818,-85.4700854700855,4,1,0,70,0,0
55915,-83.3333333333333,4,1,0,75,0,0
56110,-84.7457627118644,4,1,0,75,0,0
56207,-82.6446280991736,4,1,0,75,0,0
56305,-80,4,1,0,75,0,0
56500,-82.6446280991736,4,1,0,75,0,0
56597,-80.6451612903226,4,1,0,75,0,0
56695,-78.7401574803149,4,1,0,75,0,0
56889,-81.3008130081301,4,1,0,75,0,0
57084,-78.125,4,1,0,75,0,0
57279,-75.187969924812,4,1,0,75,0,0
57474,-83.3744647359364,4,1,0,75,0,0
57669,-90.9580428739831,4,1,0,75,0,0
58253,-80,4,1,0,75,0,0
58837,-71.4285714285714,4,1,0,90,0,1
59032,-86.9565217391304,4,1,0,90,0,1
61565,-83.3333333333333,4,1,0,90,0,1
61759,-80,4,1,0,90,0,1
61954,-76.9230769230769,4,1,0,90,0,1
62149,-86.9565217391304,4,1,0,90,0,1
64584,-85.1063829787234,4,1,0,90,0,1
64682,-83.3333333333333,4,1,0,90,0,1
64876,-86.9565217391304,4,1,0,90,0,1
64974,-84.7457627118644,4,1,0,90,0,1
65071,-82.6446280991736,4,1,0,90,0,1
65169,-80.6451612903226,4,1,0,90,0,1
65266,-76.9230769230769,4,1,0,90,0,1
65656,-86.9565217391304,4,1,0,90,0,1
67019,-87.431693989071,4,1,0,90,0,1
67214,-87.9120879120879,4,1,0,90,0,1
67409,-88.3977900552486,4,1,0,90,0,1
67604,-88.8888888888889,4,1,0,90,0,1
67701,-89.1364902506964,4,1,0,90,0,1
67798,-89.3854748603352,4,1,0,90,0,1
67896,-89.6358543417367,4,1,0,90,0,1
67993,-89.8876404494382,4,1,0,90,0,1
68188,-90.3954802259887,4,1,0,90,0,1
68383,-90.9090909090909,4,1,0,90,0,1
68675,-88.4955752212389,4,1,0,90,0,1
68772,-86.9565217391304,4,1,0,90,0,1
68967,-88.4955752212389,4,1,0,90,0,1
69162,-83.3333333333333,4,1,0,90,0,1
69259,-84.7457627118644,4,1,0,90,0,1
69357,-86.2068965517241,4,1,0,90,0,1
69552,-80,4,1,0,90,0,1
69746,-83.3333333333333,4,1,0,90,0,1
69844,-80,4,1,0,90,0,1
69941,-76.9230769230769,4,1,0,90,0,1
70136,-86.9565217391304,4,1,0,90,0,1
70331,-90.9090909090909,4,1,0,90,0,1
70526,-76.9230769230769,4,1,0,90,0,0
70915,-83.3333333333333,4,1,0,90,0,0
71013,-85.1063829787234,4,1,0,90,0,0
71110,-86.9565217391304,4,1,0,90,0,0
71305,-76.9230769230769,4,1,0,90,0,1
71500,-86.9565217391304,4,1,0,90,0,1
73935,-85.1063829787234,4,1,0,90,0,1
74032,-83.3333333333333,4,1,0,90,0,1
74227,-80,4,1,0,90,0,1
74422,-76.9230769230769,4,1,0,90,0,1
74617,-86.9565217391304,4,1,0,90,0,1
77149,-83.3333333333333,4,1,0,90,0,1
77344,-80,4,1,0,90,0,1
77441,-81.9672131147541,4,1,0,90,0,1
77539,-84.0336134453781,4,1,0,90,0,1
77636,-86.2068965517241,4,1,0,90,0,1
77733,-80,4,1,0,90,0,0
78026,-89.2857142857143,4,1,0,90,0,0
78123,-86.9565217391304,4,1,0,90,0,0
78318,-90.9090909090909,4,1,0,90,0,0
78707,-86.9565217391304,4,1,0,90,0,0
78902,-90.9090909090909,4,1,0,90,0,0
79097,-83.3333333333333,4,1,0,90,0,0
79292,-90.9090909090909,4,1,0,90,0,0
79682,-95.2380952380952,4,1,0,90,0,0
79876,-100,4,1,0,90,0,0
79974,-98.0392156862745,4,1,0,90,0,0
80071,-96.1538461538461,4,1,0,90,0,0
80266,-97.0873786407767,4,1,0,90,0,0
80363,-95.2380952380952,4,1,0,90,0,0
80558,-91.743119266055,4,1,0,90,0,0
80656,-93.0232558139535,4,1,0,90,0,0
80850,-83.3333333333333,4,1,0,90,0,1
81045,-90.9090909090909,4,1,0,90,0,1
81143,-88.8888888888889,4,1,0,90,0,1
81240,-86.9565217391304,4,1,0,90,0,1
81435,-76.9230769230769,4,1,0,90,0,1
81824,-86.9565217391304,4,1,0,90,0,1
82019,-80,4,1,0,90,0,1
82214,-83.3333333333333,4,1,0,90,0,1
82604,-76.9230769230769,4,1,0,90,0,1
82993,-83.3333333333333,4,1,0,90,0,1
83188,-76.9230769230769,4,1,0,90,0,0
83383,-92.5925925925926,4,1,0,90,0,0
83448,-91.743119266055,4,1,0,90,0,0
83513,-90.9090909090909,4,1,0,90,0,0
83578,-89.2857142857143,4,1,0,90,0,0
83675,-87.719298245614,4,1,0,90,0,0
83772,-86.2068965517241,4,1,0,90,0,0
83870,-84.7457627118644,4,1,0,90,0,0
83967,-83.3333333333333,4,1,0,80,0,1
84162,-90.9090909090909,4,1,0,80,0,1
87084,-86.9565217391304,4,1,0,80,0,1
87279,-90.9090909090909,4,1,0,80,0,1
87376,-91.6030254647251,4,1,0,80,0,1
87474,-92.3077207100679,4,1,0,80,0,1
87669,-93.7499707031342,4,1,0,80,0,1
87766,-94.4882187364469,4,1,0,80,0,1
87863,-95.2380952380952,4,1,0,80,0,1
88058,-96.774224765879,4,1,0,80,0,1
88253,-98.3606234883202,4,1,0,80,0,1
88448,-100,4,1,0,80,0,0
89227,-97.0873786407767,4,1,0,80,0,0
89422,-100,4,1,0,80,0,0

[Colours]
Combo1 : 255,168,255
Combo2 : 255,197,168
Combo3 : 168,168,255
Combo4 : 255,168,168

[HitObjects]
250,154,2149,5,8,1:0:0:0:
250,154,2344,1,8,1:0:0:0:
251,155,2733,1,0,1:0:0:0:
251,155,3123,1,0,1:0:0:0:
251,155,3318,1,8,1:0:0:0:
254,150,3513,1,0,1:0:0:0:
254,150,3707,1,8,1:0:0:0:
254,150,3902,1,8,1:0:0:0:
254,150,4097,1,0,1:0:0:0:
254,150,4292,1,0,1:0:0:0:
254,150,4487,1,8,1:0:0:0:
229,112,4876,1,0,1:0:0:0:
229,112,5071,1,8,1:0:0:0:
237,97,5461,1,8,1:0:0:0:
237,97,5656,1,0,1:0:0:0:
245,84,5850,1,8,1:0:0:0:
244,135,6240,1,0,1:0:0:0:
244,135,6435,1,8,1:0:0:0:
279,127,6630,1,8,1:0:0:0:
281,119,6824,1,0,1:0:0:0:
275,122,7019,1,0,1:0:0:0:
281,119,7214,1,8,1:0:0:0:
268,136,7409,1,0,1:0:0:0:
259,122,7604,1,8,1:0:0:0:
355,174,7993,1,0,1:0:0:0:
351,177,8188,1,8,1:0:0:0:
336,136,8578,1,0,1:0:0:0:
329,111,9162,1,12,1:0:0:0:
259,158,9454,1,0,1:0:0:0:
259,158,9552,1,8,1:0:0:0:
263,162,9746,1,4,1:0:0:0:
338,238,10136,1,8,1:0:0:0:
338,238,10331,1,0,1:0:0:0:
307,130,10526,1,12,1:0:0:0:
325,67,10915,1,0,1:0:0:0:
321,67,11110,1,8,1:0:0:0:
322,74,11305,1,0,1:0:0:0:
322,74,11402,1,0,1:0:0:0:
322,74,11500,1,8,1:0:0:0:
419,132,11695,1,0,1:0:0:0:
418,132,11792,1,8,1:0:0:0:
331,82,11987,1,8,1:0:0:0:
331,82,12084,1,0,1:0:0:0:
261,157,12279,1,12,1:0:0:0:
276,61,12474,1,0,1:0:0:0:
240,190,12571,1,8,1:0:0:0:
276,61,12669,1,0,1:0:0:0:
281,52,12863,1,12,1:0:0:0:
291,162,13253,1,0,1:0:0:0:
291,162,13448,1,12,1:0:0:0:
298,154,13643,1,4,1:0:0:0:
356,68,14032,1,12,1:0:0:0:
356,68,14227,1,12,1:0:0:0:
354,68,14422,1,4,1:0:0:0:
354,68,14617,1,12,1:0:0:0:
339,92,14811,1,0,1:0:0:0:
341,117,14876,1,0,1:0:0:0:
341,117,14941,1,0,1:0:0:0:
339,92,15006,1,8,1:0:0:0:
85,139,15104,1,0,1:0:0:0:
280,41,15201,1,8,1:0:0:0:
279,27,15298,1,8,1:0:0:0:
280,41,15396,1,4,1:0:0:0:
279,191,15591,1,0,1:0:0:0:
279,191,15785,1,8,1:0:0:0:
257,86,15980,1,0,1:0:0:0:
279,191,16078,1,8,1:0:0:0:
301,171,16175,1,0,1:0:0:0:
295,191,16370,1,0,1:0:0:0:
298,181,16565,1,8,1:0:0:0:
291,201,16759,1,0,1:0:0:0:
292,169,16857,1,0,1:0:0:0:
291,201,16954,1,8,1:0:0:0:
289,210,17149,1,0,1:0:0:0:
291,201,17344,1,8,1:0:0:0:
288,210,17539,1,0,1:0:0:0:
288,210,17733,1,8,1:0:0:0:
285,178,17831,1,8,1:0:0:0:
285,178,17928,1,0,1:0:0:0:
285,178,18026,1,0,1:0:0:0:
285,178,18123,1,8,1:0:0:0:
285,178,18415,1,0,1:0:0:0:
285,178,18513,1,12,1:0:0:0:
366,129,18707,1,0,1:0:0:0:
366,129,18902,1,8,1:0:0:0:
346,167,19097,1,8,1:0:0:0:
346,167,19195,1,8,1:0:0:0:
346,167,19292,1,0,1:0:0:0:
369,183,19487,1,0,1:0:0:0:
400,206,19682,1,8,1:0:0:0:
330,89,19876,1,0,1:0:0:0:
260,161,19974,1,8,1:0:0:0:
251,163,20071,1,0,1:0:0:0:
329,88,20266,1,8,1:0:0:0:
329,88,20363,1,8,1:0:0:0:
251,163,20461,1,0,1:0:0:0:
329,88,20656,1,8,1:0:0:0:
328,89,20850,1,0,1:0:0:0:
194,129,21045,1,8,1:0:0:0:
283,127,21143,1,0,1:0:0:0:
275,100,21240,1,8,1:0:0:0:
266,157,21337,1,8,1:0:0:0:
293,64,21435,1,0,1:0:0:0:
294,65,21532,1,0,1:0:0:0:
420,36,21630,1,12,1:0:0:0:
279,191,21824,1,0,1:0:0:0:
279,191,22019,1,8,1:0:0:0:
257,86,22214,1,8,1:0:0:0:
301,176,22311,1,8,1:0:0:0:
301,171,22409,1,0,1:0:0:0:
295,191,22604,1,0,1:0:0:0:
298,181,22798,1,8,1:0:0:0:
291,201,22993,1,0,1:0:0:0:
292,169,23091,1,8,1:0:0:0:
291,201,23188,1,0,1:0:0:0:
289,210,23383,1,0,1:0:0:0:
291,201,23578,1,8,1:0:0:0:
288,210,23772,1,0,1:0:0:0:
288,210,23870,1,0,1:0:0:0:
288,210,23967,1,8,1:0:0:0:
285,178,24162,1,0,1:0:0:0:
285,178,24259,1,0,1:0:0:0:
285,178,24357,1,8,1:0:0:0:
285,178,24454,1,8,1:0:0:0:
285,178,24552,1,0,1:0:0:0:
285,178,24746,1,12,1:0:0:0:
366,129,24941,1,0,1:0:0:0:
366,129,25039,1,0,1:0:0:0:
366,129,25136,1,8,1:0:0:0:
346,167,25331,1,0,1:0:0:0:
346,167,25428,1,8,1:0:0:0:
346,167,25526,1,0,1:0:0:0:
369,183,25720,1,0,1:0:0:0:
400,206,25915,1,8,1:0:0:0:
330,89,26110,1,4,1:0:0:0:
329,88,26500,1,4,1:0:0:0:
329,88,26889,1,12,1:0:0:0:
328,89,27084,1,4,1:0:0:0:
264,159,27279,1,8,1:0:0:0:
255,170,27344,1,0,1:0:0:0:
255,170,27409,1,0,1:0:0:0:
264,159,27474,1,8,1:0:0:0:
252,176,27669,1,8,1:0:0:0:
252,176,27766,1,8,1:0:0:0:
252,176,27863,1,4,1:0:0:0:
248,62,28253,1,8,1:0:0:0:
248,62,28643,1,0,1:0:0:0:
385,87,28837,1,8,1:0:0:0:
341,83,28935,1,8,1:0:0:0:
385,87,29032,1,0,1:0:0:0:
252,4,29227,1,8,1:0:0:0:
323,179,29617,1,0,1:0:0:0:
323,179,29811,1,8,1:0:0:0:
296,86,30006,1,0,1:0:0:0:
296,86,30201,1,8,1:0:0:0:
291,77,30298,1,8,1:0:0:0:
291,77,30396,1,0,1:0:0:0:
291,75,30591,1,8,1:0:0:0:
232,167,30883,1,0,1:0:0:0:
342,20,30980,1,8,1:0:0:0:
253,89,31175,1,0,1:0:0:0:
377,118,31370,1,8,1:0:0:0:
377,118,31565,1,8,1:0:0:0:
377,118,31759,1,0,1:0:0:0:
271,17,31954,1,8,1:0:0:0:
403,138,32149,1,8,1:0:0:0:
255,18,32344,1,0,1:0:0:0:
255,18,32539,1,8,1:0:0:0:
326,134,32928,1,8,1:0:0:0:
326,134,33123,1,0,1:0:0:0:
326,134,33318,1,8,1:0:0:0:
330,113,33415,1,8,1:0:0:0:
328,111,33513,1,0,1:0:0:0:
328,111,33707,1,8,1:0:0:0:
326,108,33902,1,0,1:0:0:0:
258,139,34000,1,8,1:0:0:0:
326,108,34097,1,4,1:0:0:0:
246,59,34487,1,8,1:0:0:0:
246,59,34876,1,0,1:0:0:0:
383,84,35071,1,8,1:0:0:0:
339,80,35169,1,0,1:0:0:0:
383,84,35266,1,8,1:0:0:0:
250,1,35461,1,0,1:0:0:0:
321,176,35850,1,8,1:0:0:0:
321,176,36045,1,8,1:0:0:0:
294,83,36240,1,0,1:0:0:0:
294,83,36435,1,8,1:0:0:0:
289,74,36532,1,8,1:0:0:0:
289,74,36630,1,0,1:0:0:0:
289,72,36824,1,8,1:0:0:0:
230,164,37117,1,0,1:0:0:0:
340,17,37214,1,8,1:0:0:0:
251,86,37409,1,0,1:0:0:0:
375,115,37604,1,8,1:0:0:0:
375,115,37798,1,8,1:0:0:0:
375,115,37993,1,0,1:0:0:0:
269,14,38188,1,0,1:0:0:0:
401,135,38383,1,8,1:0:0:0:
253,15,38578,1,4,1:0:0:0:
324,131,38967,1,4,1:0:0:0:
324,131,39357,1,12,1:0:0:0:
326,108,39552,1,4,1:0:0:0:
356,52,39746,1,8,1:0:0:0:
253,16,39941,1,8,1:0:0:0:
253,16,40039,1,8,1:0:0:0:
324,105,40136,1,0,1:0:0:0:
256,136,40233,1,0,1:0:0:0:
324,105,40331,1,12,1:0:0:0:
281,146,40526,1,0,1:0:0:0:
276,49,40720,1,8,1:0:0:0:
276,49,40915,1,8,1:0:0:0:
257,69,41110,1,0,1:0:0:0:
307,199,41402,1,0,1:0:0:0:
344,172,41500,1,8,1:0:0:0:
343,135,41695,1,8,1:0:0:0:
343,135,41889,1,0,1:0:0:0:
343,135,42084,1,0,1:0:0:0:
343,135,42279,1,8,1:0:0:0:
301,182,42571,1,8,1:0:0:0:
345,133,42669,1,0,1:0:0:0:
271,123,42863,1,8,1:0:0:0:
269,99,43058,1,0,1:0:0:0:
251,164,43253,1,8,1:0:0:0:
273,107,43350,1,8,1:0:0:0:
246,151,43448,1,0,1:0:0:0:
245,149,43643,1,0,1:0:0:0:
245,149,43837,1,8,1:0:0:0:
245,149,44032,1,8,1:0:0:0:
262,93,44227,1,0,1:0:0:0:
245,149,44422,1,8,1:0:0:0:
262,93,44617,1,0,1:0:0:0:
262,93,44811,1,8,1:0:0:0:
207,119,44909,1,8,1:0:0:0:
207,119,45006,1,0,1:0:0:0:
271,119,45201,1,8,1:0:0:0:
240,123,45396,1,0,1:0:0:0:
240,123,45591,1,8,1:0:0:0:
388,158,45785,1,8,1:0:0:0:
231,117,45883,1,8,1:0:0:0:
388,158,45980,1,0,1:0:0:0:
231,117,46078,1,0,1:0:0:0:
365,129,46175,1,8,1:0:0:0:
365,129,46370,1,8,1:0:0:0:
365,129,46565,1,4,1:0:0:0:
365,129,46954,1,8,1:0:0:0:
233,85,47149,1,8,1:0:0:0:
232,85,47246,1,8,1:0:0:0:
233,85,47344,1,0,1:0:0:0:
365,129,47733,1,8,1:0:0:0:
365,129,47928,1,0,1:0:0:0:
365,129,48123,1,12,1:0:0:0:
215,94,48513,1,8,1:0:0:0:
215,95,48707,1,0,1:0:0:0:
215,95,48805,1,0,1:0:0:0:
365,129,48902,1,8,1:0:0:0:
284,166,49097,1,0,1:0:0:0:
284,166,49292,1,8,1:0:0:0:
284,166,49487,1,8,1:0:0:0:
267,127,49682,1,4,1:0:0:0:
256,106,49876,1,8,1:0:0:0:
256,107,49974,1,0,1:0:0:0:
254,108,50071,1,8,1:0:0:0:
253,108,50266,1,0,1:0:0:0:
197,3,50461,1,8,1:0:0:0:
329,60,50558,1,0,1:0:0:0:
322,48,50656,1,8,1:0:0:0:
328,60,50753,1,8,1:0:0:0:
326,61,50850,1,0,1:0:0:0:
293,72,51045,1,12,1:0:0:0:
248,128,51435,1,0,1:0:0:0:
249,133,51630,1,8,1:0:0:0:
249,134,51824,1,8,1:0:0:0:
307,93,51922,1,0,1:0:0:0:
248,134,52019,1,8,1:0:0:0:
248,134,52214,1,0,1:0:0:0:
246,135,52311,1,0,1:0:0:0:
246,135,52409,1,8,1:0:0:0:
243,132,52604,1,4,1:0:0:0:
197,15,52993,1,0,1:0:0:0:
335,98,53188,1,8,1:0:0:0:
332,99,53383,1,0,1:0:0:0:
332,99,53480,1,0,1:0:0:0:
332,99,53578,1,8,1:0:0:0:
331,99,53772,1,0,1:0:0:0:
329,101,53967,1,8,1:0:0:0:
326,103,54162,1,0,1:0:0:0:
326,103,54259,1,0,1:0:0:0:
326,103,54357,1,8,1:0:0:0:
325,103,54454,1,8,1:0:0:0:
325,103,54552,1,0,1:0:0:0:
320,105,54746,1,8,1:0:0:0:
322,98,54941,1,0,1:0:0:0:
300,111,55039,1,0,1:0:0:0:
300,111,55136,1,8,1:0:0:0:
213,52,55331,1,0,1:0:0:0:
257,145,55526,1,8,1:0:0:0:
257,145,55623,1,8,1:0:0:0:
257,145,55720,1,0,1:0:0:0:
262,145,55818,1,0,1:0:0:0:
246,151,55915,1,12,1:0:0:0:
250,70,56110,1,0,1:0:0:0:
254,224,56207,1,0,1:0:0:0:
334,143,56305,1,8,1:0:0:0:
252,212,56500,1,8,1:0:0:0:
285,89,56597,1,0,1:0:0:0:
284,80,56695,1,8,1:0:0:0:
280,94,56889,1,0,1:0:0:0:
262,113,57084,1,0,1:0:0:0:
263,103,57279,1,12,1:0:0:0:
251,114,57669,1,4,1:0:0:0:
251,114,57863,1,4,1:0:0:0:
223,135,58253,1,12,1:0:0:0:
223,135,58448,1,12,1:0:0:0:
190,67,58837,1,4,1:0:0:0:
248,82,59130,1,8,1:0:0:0:
313,167,59227,1,0,1:0:0:0:
248,82,59422,1,8,1:0:0:0:
258,83,59617,1,0,1:0:0:0:
253,42,59714,1,0,1:0:0:0:
258,83,59811,1,8,1:0:0:0:
253,42,59909,1,8,1:0:0:0:
271,72,60006,1,0,1:0:0:0:
271,72,60201,1,8,1:0:0:0:
252,43,60396,1,0,1:0:0:0:
252,43,60493,1,8,1:0:0:0:
274,71,60591,1,0,1:0:0:0:
249,46,60785,1,0,1:0:0:0:
364,76,60980,1,8,1:0:0:0:
370,105,61175,1,8,1:0:0:0:
315,132,61272,1,8,1:0:0:0:
315,132,61370,1,0,1:0:0:0:
361,77,61565,1,8,1:0:0:0:
361,77,61759,1,8,1:0:0:0:
355,81,61954,1,4,1:0:0:0:
281,172,62246,1,0,1:0:0:0:
231,142,62344,1,8,1:0:0:0:
240,133,62441,1,0,1:0:0:0:
273,131,62539,1,8,1:0:0:0:
409,105,62733,1,0,1:0:0:0:
361,171,62928,1,8,1:0:0:0:
281,15,63026,1,8,1:0:0:0:
281,15,63123,1,0,1:0:0:0:
281,15,63220,1,0,1:0:0:0:
375,165,63318,1,8,1:0:0:0:
375,165,63513,1,0,1:0:0:0:
305,109,63610,1,0,1:0:0:0:
218,71,63707,1,8,1:0:0:0:
378,76,63902,1,0,1:0:0:0:
378,76,64000,1,8,1:0:0:0:
378,76,64097,1,0,1:0:0:0:
389,39,64292,1,8,1:0:0:0:
300,192,64487,1,0,1:0:0:0:
333,102,64584,1,0,1:0:0:0:
227,196,64682,1,8,1:0:0:0:
333,102,64876,1,8,1:0:0:0:
251,182,64974,1,0,1:0:0:0:
216,83,65071,1,8,1:0:0:0:
216,83,65169,1,8,1:0:0:0:
329,111,65266,1,4,1:0:0:0:
259,158,65656,1,8,1:0:0:0:
263,162,65850,1,0,1:0:0:0:
263,162,65948,1,8,1:0:0:0:
263,162,66045,1,0,1:0:0:0:
359,237,66240,1,8,1:0:0:0:
359,237,66435,1,0,1:0:0:0:
266,80,66630,1,8,1:0:0:0:
266,80,66727,1,8,1:0:0:0:
298,62,66824,1,0,1:0:0:0:
298,62,67019,1,0,1:0:0:0:
298,62,67214,1,8,1:0:0:0:
268,20,67409,1,0,1:0:0:0:
392,115,67604,1,8,1:0:0:0:
392,115,67701,1,8,1:0:0:0:
392,115,67798,1,0,1:0:0:0:
317,51,67896,1,0,1:0:0:0:
392,115,67993,1,8,1:0:0:0:
317,51,68188,1,8,1:0:0:0:
317,51,68383,1,0,1:0:0:0:
237,161,68675,1,0,1:0:0:0:
236,62,68772,1,8,1:0:0:0:
236,62,68967,1,0,1:0:0:0:
236,62,69162,1,8,1:0:0:0:
412,56,69259,1,8,1:0:0:0:
412,56,69357,1,0,1:0:0:0:
329,136,69552,1,8,1:0:0:0:
333,118,69746,1,0,1:0:0:0:
333,118,69844,1,0,1:0:0:0:
333,118,69941,1,12,1:0:0:0:
333,107,70136,1,0,1:0:0:0:
333,107,70331,1,0,1:0:0:0:
338,105,70526,1,12,1:0:0:0:
330,87,70915,1,8,1:0:0:0:
330,87,71013,1,8,1:0:0:0:
330,87,71110,1,0,1:0:0:0:
316,53,71305,1,12,1:0:0:0:
313,167,71597,1,0,1:0:0:0:
248,82,71695,1,8,1:0:0:0:
248,82,71889,1,8,1:0:0:0:
258,83,72084,1,0,1:0:0:0:
253,42,72182,1,0,1:0:0:0:
258,83,72279,1,8,1:0:0:0:
253,42,72376,1,8,1:0:0:0:
271,72,72474,1,0,1:0:0:0:
271,72,72669,1,8,1:0:0:0:
252,43,72863,1,0,1:0:0:0:
252,43,72961,1,0,1:0:0:0:
274,71,73058,1,8,1:0:0:0:
249,46,73253,1,0,1:0:0:0:
315,132,73350,1,8,1:0:0:0:
364,76,73448,1,0,1:0:0:0:
370,105,73643,1,8,1:0:0:0:
315,132,73837,1,0,1:0:0:0:
315,132,73935,1,0,1:0:0:0:
361,77,74032,1,8,1:0:0:0:
361,77,74227,1,8,1:0:0:0:
355,80,74422,1,12,1:0:0:0:
246,162,74714,1,8,1:0:0:0:
231,142,74811,1,0,1:0:0:0:
240,133,74909,1,0,1:0:0:0:
273,131,75006,1,8,1:0:0:0:
409,105,75201,1,0,1:0:0:0:
361,171,75396,1,8,1:0:0:0:
281,15,75493,1,0,1:0:0:0:
281,15,75591,1,8,1:0:0:0:
281,15,75688,1,8,1:0:0:0:
375,165,75785,1,0,1:0:0:0:
375,165,75980,1,8,1:0:0:0:
306,108,76078,1,0,1:0:0:0:
218,71,76175,1,8,1:0:0:0:
378,76,76370,1,0,1:0:0:0:
378,76,76565,1,8,1:0:0:0:
389,39,76759,1,8,1:0:0:0:
333,102,76857,1,8,1:0:0:0:
300,192,76954,1,0,1:0:0:0:
227,196,77149,1,8,1:0:0:0:
333,102,77344,1,8,1:0:0:0:
333,102,77441,1,0,1:0:0:0:
216,83,77539,1,0,1:0:0:0:
216,83,77636,1,0,1:0:0:0:
329,111,77733,1,12,1:0:0:0:
259,158,78026,1,0,1:0:0:0:
259,158,78123,1,8,1:0:0:0:
263,162,78318,1,4,1:0:0:0:
338,238,78707,1,8,1:0:0:0:
338,238,78902,1,0,1:0:0:0:
307,130,79097,1,12,1:0:0:0:
325,67,79487,1,0,1:0:0:0:
321,67,79682,1,8,1:0:0:0:
322,74,79876,1,0,1:0:0:0:
322,74,79974,1,0,1:0:0:0:
322,74,80071,1,8,1:0:0:0:
419,132,80266,1,0,1:0:0:0:
418,132,80363,1,8,1:0:0:0:
331,82,80558,1,8,1:0:0:0:
331,82,80656,1,0,1:0:0:0:
261,157,80850,1,12,1:0:0:0:
276,61,81045,1,0,1:0:0:0:
240,190,81143,1,8,1:0:0:0:
276,61,81240,1,0,1:0:0:0:
281,52,81435,1,12,1:0:0:0:
291,162,81824,1,0,1:0:0:0:
291,162,82019,1,12,1:0:0:0:
298,154,82214,1,4,1:0:0:0:
356,68,82604,1,12,1:0:0:0:
356,68,82798,1,12,1:0:0:0:
354,68,82993,1,4,1:0:0:0:
354,68,83188,1,12,1:0:0:0:
404,141,83383,1,0,1:0:0:0:
404,141,83448,1,0,1:0:0:0:
404,141,83513,1,0,1:0:0:0:
280,190,83578,1,8,1:0:0:0:
420,36,83675,1,8,1:0:0:0:
420,36,83772,1,0,1:0:0:0:
420,36,83870,1,0,1:0:0:0:
420,36,83967,1,12,1:0:0:0:
279,191,84162,1,0,1:0:0:0:
279,191,84357,1,8,1:0:0:0:
257,86,84552,1,0,1:0:0:0:
301,176,84649,1,8,1:0:0:0:
301,171,84746,1,0,1:0:0:0:
295,191,84941,1,0,1:0:0:0:
298,181,85136,1,8,1:0:0:0:
291,201,85331,1,8,1:0:0:0:
292,169,85428,1,8,1:0:0:0:
291,201,85526,1,0,1:0:0:0:
289,210,85720,1,0,1:0:0:0:
291,201,85915,1,8,1:0:0:0:
288,210,86110,1,0,1:0:0:0:
288,210,86207,1,0,1:0:0:0:
288,210,86305,1,8,1:0:0:0:
285,178,86500,1,0,1:0:0:0:
285,178,86597,1,0,1:0:0:0:
285,178,86695,1,8,1:0:0:0:
285,178,86792,1,8,1:0:0:0:
285,178,86889,1,0,1:0:0:0:
285,178,87084,1,12,1:0:0:0:
366,129,87279,1,0,1:0:0:0:
366,129,87376,1,0,1:0:0:0:
366,129,87474,1,8,1:0:0:0:
346,167,87669,1,0,1:0:0:0:
346,167,87766,1,8,1:0:0:0:
346,167,87863,1,0,1:0:0:0:
369,183,88058,1,0,1:0:0:0:
400,206,88253,1,8,1:0:0:0:
330,89,88448,1,4,1:0:0:0:
329,88,88837,1,4,1:0:0:0:
329,88,89227,1,12,1:0:0:0:
328,89,89422,1,4,1:0:0:0:
