osu file format v14

[General]
AudioFilename: c'est trop mignon les lapins.mp3
AudioLeadIn: 0
PreviewTime: 58204
Countdown: 0
SampleSet: Normal
StackLeniency: 0.5
Mode: 1
LetterboxInBreaks: 0
WidescreenStoryboard: 1

[Editor]
Bookmarks: 8188,14421,26889,39357,51824,57863,88447
DistanceSpacing: 0.4
BeatDivisor: 8
GridSize: 32
TimelineZoom: 1.4

[Metadata]
Title:Tenkuu Cafeteria (TV Size)
TitleUnicode:天空カフェテリア (TV Size)
Artist:Petit Rabbit's
ArtistUnicode:Petit Rabbit's
Creator:realy0_
Version:Futsuu
Source:ご注文はうさぎですか? BLOOM
Tags:Gochuumon wa Usagi desu ka? Is the order a rabbit? ごちうさ Gochiusa Sara Rabbit House 保登 ココア Hoto Cocoa Kokoa 佐倉綾音 Sakura Ayane あやねる Ayaneru 香風 チノ Kafuu Chino 水瀬いのり Minase Inori いのりん Inorin 天々座 理世 リゼ Tedeza Rize 種田梨沙 Taneda Risa たねちゃん Tanechan 宇治松 千夜 Ujimatsu Chiya 佐藤聡美 Satou Hoshikawa Satomi シャロ 桐間 紗路 Kirima Syaro Sharo 内田真礼 Uchida Maaya 星川サラ Japanese Anime 3rd Third Season Opening Theme pop jpop j-pop Rabbits
BeatmapID:2651736
BeatmapSetID:1267305

[Difficulty]
HPDrainRate:6.5
CircleSize:5
OverallDifficulty:3
ApproachRate:5
SliderMultiplier:1.4
SliderTickRate:1

[Events]
//Background and Video events
Video,1085,"taiko.mp4"
0,0,"rize.jpg",0,-25
//Break Periods
//Storyboard Layer 0 (Background)
//Storyboard Layer 1 (Fail)
//Storyboard Layer 2 (Pass)
//Storyboard Layer 3 (Foreground)
//Storyboard Layer 4 (Overlay)
//Storyboard Sound Samples

[TimingPoints]
-3305,389.61038961039,4,1,0,50,1,0
1370,-125,4,1,0,50,0,0
9162,-108.108108108108,4,1,0,70,0,0
15396,-108.108108108108,4,1,0,80,0,1
26110,-108.108108108108,4,1,0,80,0,0
27863,-108.108108108108,4,1,0,60,0,0
40331,-108.108108108108,4,1,0,65,0,0
52604,-108.108108108108,4,1,0,70,0,0
55915,-108.108108108108,4,1,0,75,0,0
58837,-108.108108108108,4,1,0,90,0,1
70526,-108.108108108108,4,1,0,90,0,0
71305,-108.108108108108,4,1,0,90,0,1
77733,-108.108108108108,4,1,0,90,0,0
80850,-108.108108108108,4,1,0,90,0,1
83188,-108.108108108108,4,1,0,90,0,0
83967,-108.108108108108,4,1,0,80,0,1
88448,-108.108108108108,4,1,0,80,0,0

[Colours]
Combo1 : 255,168,255
Combo2 : 255,197,168
Combo3 : 168,168,255
Combo4 : 255,168,168

[HitObjects]
146,181,2149,5,8,1:0:0:0:
146,181,2344,1,8,1:0:0:0:
146,181,2733,1,0,1:0:0:0:
146,181,3318,1,8,1:0:0:0:
145,181,3707,1,0,1:0:0:0:
145,181,4097,1,0,1:0:0:0:
145,181,4487,1,8,1:0:0:0:
145,181,4876,1,0,1:0:0:0:
145,181,5071,1,8,1:0:0:0:
187,9,5850,1,0,1:0:0:0:
187,10,6435,1,8,1:0:0:0:
180,107,6824,1,8,1:0:0:0:
180,107,7214,1,0,1:0:0:0:
180,107,7604,1,8,1:0:0:0:
180,107,7993,1,0,1:0:0:0:
180,107,8188,1,8,1:0:0:0:
320,165,9162,1,4,1:0:0:0:
149,177,9552,1,0,1:0:0:0:
304,79,9746,1,12,1:0:0:0:
296,83,10136,1,0,1:0:0:0:
286,88,10526,1,12,1:0:0:0:
244,241,11305,1,0,1:0:0:0:
277,93,11500,1,8,1:0:0:0:
207,91,11792,1,8,1:0:0:0:
269,99,12084,1,0,1:0:0:0:
269,99,12279,1,12,1:0:0:0:
210,82,12669,1,8,1:0:0:0:
210,82,12863,1,4,1:0:0:0:
226,124,13253,1,0,1:0:0:0:
226,124,13448,1,12,1:0:0:0:
226,124,13643,1,4,1:0:0:0:
225,122,14032,1,8,1:0:0:0:
225,122,14227,1,8,1:0:0:0:
225,122,14422,1,0,1:0:0:0:
225,122,14617,1,8,1:0:0:0:
169,130,15396,1,4,1:0:0:0:
215,68,15785,1,8,1:0:0:0:
215,68,16175,1,0,1:0:0:0:
215,68,16565,1,8,1:0:0:0:
215,68,16759,1,0,1:0:0:0:
215,68,16954,1,8,1:0:0:0:
215,68,17344,1,8,1:0:0:0:
215,68,17733,1,0,1:0:0:0:
215,68,17928,1,0,1:0:0:0:
215,68,18123,1,8,1:0:0:0:
215,68,18513,1,0,1:0:0:0:
215,68,18902,1,8,1:0:0:0:
215,68,19292,1,0,1:0:0:0:
215,68,19487,1,0,1:0:0:0:
215,68,19682,1,8,1:0:0:0:
215,68,19876,1,0,1:0:0:0:
215,68,20266,1,0,1:0:0:0:
215,68,20656,1,8,1:0:0:0:
215,68,20850,1,0,1:0:0:0:
258,31,21630,1,12,1:0:0:0:
215,68,22019,1,8,1:0:0:0:
255,87,22409,1,0,1:0:0:0:
255,88,22604,1,0,1:0:0:0:
215,68,22798,1,8,1:0:0:0:
255,88,23188,1,0,1:0:0:0:
215,68,23578,1,8,1:0:0:0:
305,48,23967,1,8,1:0:0:0:
215,68,24162,1,0,1:0:0:0:
215,68,24357,1,8,1:0:0:0:
215,68,24746,1,0,1:0:0:0:
215,68,25136,1,8,1:0:0:0:
215,68,25526,1,8,1:0:0:0:
215,68,25720,1,0,1:0:0:0:
215,68,25915,1,8,1:0:0:0:
215,68,26110,1,0,1:0:0:0:
215,68,26500,1,0,1:0:0:0:
215,68,26889,1,8,1:0:0:0:
215,68,27084,1,0,1:0:0:0:
258,31,27863,1,4,1:0:0:0:
251,137,28253,1,8,1:0:0:0:
251,137,28643,1,0,1:0:0:0:
248,140,29227,1,8,1:0:0:0:
269,132,29617,1,0,1:0:0:0:
269,132,29811,1,8,1:0:0:0:
264,135,30006,1,8,1:0:0:0:
264,135,30201,1,0,1:0:0:0:
264,135,30591,1,8,1:0:0:0:
234,88,30980,1,0,1:0:0:0:
234,88,31370,1,8,1:0:0:0:
226,58,31759,1,0,1:0:0:0:
223,66,32539,1,8,1:0:0:0:
222,66,32928,1,8,1:0:0:0:
222,68,33318,1,0,1:0:0:0:
222,68,33513,1,0,1:0:0:0:
222,68,33707,1,8,1:0:0:0:
262,23,34097,1,4,1:0:0:0:
255,129,34487,1,8,1:0:0:0:
255,129,34876,1,0,1:0:0:0:
252,132,35461,1,8,1:0:0:0:
273,124,35850,1,8,1:0:0:0:
273,124,36045,1,0,1:0:0:0:
268,127,36240,1,0,1:0:0:0:
268,127,36435,1,8,1:0:0:0:
268,127,36824,1,8,1:0:0:0:
238,80,37214,1,0,1:0:0:0:
238,80,37604,1,8,1:0:0:0:
230,50,37993,1,0,1:0:0:0:
227,58,38578,1,8,1:0:0:0:
276,221,38967,1,8,1:0:0:0:
276,221,39357,1,0,1:0:0:0:
226,60,39552,1,8,1:0:0:0:
225,64,40331,1,12,1:0:0:0:
161,224,40720,1,0,1:0:0:0:
164,227,41110,1,8,1:0:0:0:
235,223,41500,1,8,1:0:0:0:
249,206,41695,1,8,1:0:0:0:
232,218,41889,1,0,1:0:0:0:
232,218,42279,1,8,1:0:0:0:
249,206,42669,1,0,1:0:0:0:
249,206,42863,1,8,1:0:0:0:
249,206,43253,1,0,1:0:0:0:
247,207,43837,1,8,1:0:0:0:
247,207,44227,1,0,1:0:0:0:
247,207,44811,1,8,1:0:0:0:
247,207,45201,1,8,1:0:0:0:
247,207,45591,1,0,1:0:0:0:
247,207,45785,1,8,1:0:0:0:
247,207,46175,1,8,1:0:0:0:
247,207,46565,1,4,1:0:0:0:
247,207,46954,1,8,1:0:0:0:
247,207,47344,1,0,1:0:0:0:
247,207,48123,1,12,1:0:0:0:
247,207,48513,1,0,1:0:0:0:
247,207,48902,1,8,1:0:0:0:
247,207,49682,1,4,1:0:0:0:
156,174,50071,1,8,1:0:0:0:
158,178,50266,1,0,1:0:0:0:
247,207,50461,1,8,1:0:0:0:
166,142,50656,1,0,1:0:0:0:
247,204,51045,1,12,1:0:0:0:
174,147,51630,1,8,1:0:0:0:
174,147,51824,1,8,1:0:0:0:
174,147,52019,1,0,1:0:0:0:
175,145,52409,1,8,1:0:0:0:
122,222,52604,1,4,1:0:0:0:
166,207,53188,1,8,1:0:0:0:
166,207,53578,1,8,1:0:0:0:
173,192,53967,1,8,1:0:0:0:
173,192,54162,1,0,1:0:0:0:
173,192,54357,1,8,1:0:0:0:
173,192,54746,1,8,1:0:0:0:
173,192,55136,1,0,1:0:0:0:
173,192,55331,1,0,1:0:0:0:
173,192,55526,1,8,1:0:0:0:
174,179,55915,1,12,1:0:0:0:
174,179,56305,1,8,1:0:0:0:
174,179,56695,1,8,1:0:0:0:
174,179,56889,1,0,1:0:0:0:
174,179,57084,1,0,1:0:0:0:
174,179,57279,1,12,1:0:0:0:
174,177,57669,1,0,1:0:0:0:
174,177,57863,1,0,1:0:0:0:
174,174,58253,1,8,1:0:0:0:
174,174,58448,1,8,1:0:0:0:
174,174,58837,1,4,1:0:0:0:
174,174,59227,1,0,1:0:0:0:
174,174,59422,1,8,1:0:0:0:
174,174,59617,1,8,1:0:0:0:
173,172,59811,1,0,1:0:0:0:
173,172,60201,1,8,1:0:0:0:
173,172,60396,1,0,1:0:0:0:
173,172,60591,1,8,1:0:0:0:
173,172,60980,1,0,1:0:0:0:
173,172,61175,1,8,1:0:0:0:
173,172,61954,1,4,1:0:0:0:
221,137,62344,1,8,1:0:0:0:
273,75,62539,1,8,1:0:0:0:
270,78,62928,1,0,1:0:0:0:
270,78,63123,1,8,1:0:0:0:
270,78,63318,1,8,1:0:0:0:
270,78,63513,1,0,1:0:0:0:
270,78,63707,1,8,1:0:0:0:
208,100,64097,1,0,1:0:0:0:
208,100,64292,1,8,1:0:0:0:
212,91,64682,1,8,1:0:0:0:
213,73,64876,1,8,1:0:0:0:
213,73,65266,1,4,1:0:0:0:
242,139,65656,1,8,1:0:0:0:
242,139,65850,1,0,1:0:0:0:
241,136,66240,1,8,1:0:0:0:
235,141,66435,1,0,1:0:0:0:
235,141,66630,1,8,1:0:0:0:
234,142,67214,1,8,1:0:0:0:
234,142,67604,1,0,1:0:0:0:
234,142,67798,1,8,1:0:0:0:
234,142,67993,1,0,1:0:0:0:
234,142,68188,1,0,1:0:0:0:
236,138,68383,1,8,1:0:0:0:
236,138,68772,1,0,1:0:0:0:
236,138,68967,1,0,1:0:0:0:
236,138,69162,1,8,1:0:0:0:
236,138,69552,1,0,1:0:0:0:
236,135,69941,1,12,1:0:0:0:
236,135,70136,1,0,1:0:0:0:
236,135,70331,1,0,1:0:0:0:
236,135,70526,1,12,1:0:0:0:
180,94,71305,1,12,1:0:0:0:
174,174,71695,1,0,1:0:0:0:
174,174,71889,1,8,1:0:0:0:
173,172,72084,1,0,1:0:0:0:
174,174,72279,1,8,1:0:0:0:
173,172,72669,1,0,1:0:0:0:
173,172,72863,1,8,1:0:0:0:
173,172,73058,1,0,1:0:0:0:
173,172,73448,1,8,1:0:0:0:
173,172,73643,1,8,1:0:0:0:
173,172,74422,1,4,1:0:0:0:
221,137,74811,1,8,1:0:0:0:
273,75,75006,1,0,1:0:0:0:
270,78,75396,1,8,1:0:0:0:
270,78,75591,1,8,1:0:0:0:
270,78,75785,1,0,1:0:0:0:
270,78,75980,1,0,1:0:0:0:
270,78,76175,1,8,1:0:0:0:
208,100,76565,1,0,1:0:0:0:
208,100,76759,1,8,1:0:0:0:
212,91,77149,1,8,1:0:0:0:
213,73,77344,1,8,1:0:0:0:
213,73,77733,1,4,1:0:0:0:
149,177,78123,1,0,1:0:0:0:
304,79,78318,1,12,1:0:0:0:
296,83,78707,1,0,1:0:0:0:
286,88,79097,1,12,1:0:0:0:
272,246,79876,1,0,1:0:0:0:
277,93,80071,1,8,1:0:0:0:
207,91,80363,1,8,1:0:0:0:
269,99,80656,1,0,1:0:0:0:
269,99,80850,1,12,1:0:0:0:
210,82,81240,1,8,1:0:0:0:
210,82,81435,1,4,1:0:0:0:
226,124,81824,1,0,1:0:0:0:
226,124,82019,1,12,1:0:0:0:
226,124,82214,1,4,1:0:0:0:
225,122,82604,1,8,1:0:0:0:
225,122,82798,1,8,1:0:0:0:
225,122,82993,1,0,1:0:0:0:
225,122,83188,1,8,1:0:0:0:
258,31,83967,1,12,1:0:0:0:
215,68,84357,1,8,1:0:0:0:
255,87,84746,1,0,1:0:0:0:
255,88,84941,1,0,1:0:0:0:
215,68,85136,1,8,1:0:0:0:
255,88,85526,1,0,1:0:0:0:
215,68,85915,1,8,1:0:0:0:
305,48,86305,1,8,1:0:0:0:
215,68,86500,1,0,1:0:0:0:
215,68,86695,1,8,1:0:0:0:
215,68,87084,1,0,1:0:0:0:
215,68,87474,1,8,1:0:0:0:
215,68,87863,1,8,1:0:0:0:
215,68,88058,1,0,1:0:0:0:
215,68,88253,1,8,1:0:0:0:
215,68,88448,1,0,1:0:0:0:
215,68,88837,1,0,1:0:0:0:
215,68,89227,1,8,1:0:0:0:
215,68,89422,1,0,1:0:0:0:
