osu file format v14

[General]
AudioFilename: audio.mp3
AudioLeadIn: 0
PreviewTime: 57191
Countdown: 0
SampleSet: Soft
StackLeniency: 0.7
Mode: 2
LetterboxInBreaks: 0
WidescreenStoryboard: 1

[Editor]
Bookmarks: 13847,14431,26315,26899,31574,39367,57873,83003,88457
DistanceSpacing: 1
BeatDivisor: 4
GridSize: 32
TimelineZoom: 1.6

[Metadata]
Title:Tenkuu Cafeteria (TV Size)
TitleUnicode:天空カフェテリア (TV Size)
Artist:Petit Rabbit's
ArtistUnicode:Petit Rabbit's
Creator:amulet-pp
Version:Cup
Source:ご注文はうさぎですか? BLOOM
Tags:is the order a rabbit? gochiusa gochuumon wa usagi desuka? japanese pop jpop j-pop Third Season Theme anime op opening チノ chino 水瀬いのり minase inori ココア cocoa 佐倉綾音 sakura ayane リゼ rize 種田梨沙 taneda risa 千夜 chiya 佐藤聡美 satou satomi シャロ syaro 内田真礼 uchida maaya
BeatmapID:3107585
BeatmapSetID:1511308

[Difficulty]
HPDrainRate:2
CircleSize:2
OverallDifficulty:5.5
ApproachRate:5.5
SliderMultiplier:1.3
SliderTickRate:1

[Events]
//Background and Video events
Video,0,"video.avi"
0,0,"bg.jpg",0,0
//Break Periods
//Storyboard Layer 0 (Background)
//Storyboard Layer 1 (Fail)
//Storyboard Layer 2 (Pass)
//Storyboard Layer 3 (Foreground)
//Storyboard Layer 4 (Overlay)
//Storyboard Sound Samples

[TimingPoints]
406,389.61038961039,4,2,1,55,1,0
8198,-100,4,2,1,65,0,0
26899,-100,4,2,1,60,0,0
39367,-100,4,2,1,65,0,0
57873,-100,4,2,1,70,0,1
83003,-100,4,2,1,65,0,0

[Colours]
Combo1 : 159,64,255
Combo2 : 57,206,255
Combo3 : 255,154,53
Combo4 : 255,53,154

[HitObjects]
256,192,211,12,2,1185,0:0:0:0:
146,324,1769,6,0,P|107:226|168:176,1,195,2|2,0:0|0:0,0:0:0:0:
294,174,2743,2,0,P|352:84|278:17,1,195,2|2,0:0|0:0,0:0:0:0:
235,27,3522,6,0,L|449:27,1,195,2|2,0:0|0:0,0:0:0:0:
223,130,4886,6,0,P|100:183|101:260,1,195,2|2,3:2|0:0,0:0:0:0:
222,231,5860,2,0,P|278:308|209:370,1,195,2|2,0:0|0:0,0:0:0:0:
148,363,6639,6,0,L|362:363,1,195,2|2,0:0|0:0,0:0:0:0:
149,297,8198,6,0,P|150:219|196:159,1,130,6|10,1:2|0:0,0:0:0:0:
241,177,8782,1,2,0:0:0:0:
371,179,9172,2,0,P|401:122|398:58,1,130,2|2,3:2|3:2,0:0:0:0:
268,43,9951,6,0,L|357:43,1,65,2|10,0:2|0:2,0:0:0:0:
203,47,10535,2,0,L|105:47,2,97.5,2|2|2,1:2|1:2|1:2,0:0:0:0:
275,47,11315,6,0,L|444:159,2,195,2|2|2,1:2|1:2|3:2,0:0:0:0:
203,50,12678,1,2,1:2:0:0:
333,53,13068,5,10,0:0:0:0:
392,95,13263,1,10,0:0:0:0:
391,168,13457,1,10,0:0:0:0:
331,209,13652,1,10,0:0:0:0:
201,223,14042,1,8,0:3:0:0:
344,309,14431,6,0,L|356:161,1,130,6|10,1:2|0:2,0:0:0:0:
224,185,15211,2,0,L|71:145,1,130,2|10,0:2|0:2,0:0:0:0:
228,154,15990,6,0,L|366:120,1,130,2|10,1:2|0:2,0:0:0:0:
484,111,16770,2,0,L|483:266,1,130,2|10,1:2|0:2,0:0:0:0:
340,262,17548,6,0,L|199:217,1,130,2|10,1:2|0:2,0:0:0:0:
347,220,18328,1,2,0:2:0:0:
404,192,18522,1,2,0:2:0:0:
426,132,18717,1,10,0:2:0:0:
400,74,18912,1,2,0:2:0:0:
258,68,19302,6,0,L|116:69,1,130,2|2,0:2|0:2,0:0:0:0:
193,70,19886,1,2,1:2:0:0:
323,70,20276,1,10,1:2:0:0:
179,222,20665,6,0,L|49:222,1,130,6|10,1:2|0:2,0:0:0:0:
179,223,21444,2,0,L|182:374,1,130,2|10,0:2|0:2,0:0:0:0:
312,352,22224,5,2,1:2:0:0:
362,311,22418,1,2,0:2:0:0:
312,268,22613,1,10,0:2:0:0:
181,262,23004,2,0,L|145:124,1,130,2|10,1:2|0:2,0:0:0:0:
291,116,23782,6,0,L|435:95,1,130,2|2,1:2|1:2,0:0:0:0:
289,79,24562,1,10,0:0:0:0:
222,99,24756,1,10,0:0:0:0:
183,155,24951,1,10,0:0:0:0:
204,224,25146,1,10,0:0:0:0:
347,248,25535,5,10,0:0:0:0:
204,283,25925,1,2,1:2:0:0:
204,283,26120,2,0,L|358:283,1,130,10|2,0:0|0:3,0:0:0:0:
198,148,26899,6,0,L|54:149,2,130,2|2|2,1:3|1:2|1:2,0:0:0:0:
263,149,27873,1,2,0:2:0:0:
132,146,28263,6,0,P|60:233|91:325,1,195,2|10,0:2|0:2,0:0:0:0:
205,315,29237,2,0,L|341:313,1,130,2|10,1:2|0:2,0:0:0:0:
198,322,30016,5,2,1:2:0:0:
154,274,30211,1,2,0:2:0:0:
154,208,30406,1,2,1:2:0:0:
283,195,30795,2,0,L|412:150,1,130,2|10,1:2|0:2,0:0:0:0:
269,123,31574,6,0,L|251:-12,1,130,2|10,1:2|0:2,0:0:0:0:
382,166,32353,2,0,L|401:25,1,130,2|10,1:2|0:2,0:0:0:0:
262,82,33133,6,0,L|118:83,2,130,2|2|2,1:3|1:2|1:2,0:0:0:0:
327,83,34107,1,2,0:2:0:0:
196,83,34497,6,0,P|124:170|155:262,1,195,2|10,0:2|0:2,0:0:0:0:
269,247,35471,2,0,L|408:248,1,130,2|10,1:2|0:2,0:0:0:0:
263,258,36250,5,2,1:2:0:0:
230,202,36445,1,2,0:2:0:0:
197,151,36640,1,10,0:2:0:0:
67,150,37029,2,0,L|210:151,1,130,0|8,1:0|0:2,0:0:0:0:
263,114,37613,1,0,1:0:0:0:
119,174,38003,5,2,1:2:0:0:
249,169,38393,1,2,1:2:0:0:
313,167,38587,2,0,B|372:201|372:201|370:265,1,130,2|2,1:2|0:3,0:0:0:0:
227,268,39367,5,2,1:3:0:0:
118,186,39756,1,8,0:2:0:0:
181,77,40146,1,0,1:2:0:0:
327,192,40535,5,10,0:2:0:0:
437,112,40924,1,2,1:2:0:0:
358,18,41314,1,10,0:2:0:0:
227,34,41704,2,0,L|150:33,1,65,2|2,1:2|0:2,0:0:0:0:
305,114,42289,6,0,L|438:114,1,130,2|2,0:2|0:2,0:0:0:0:
370,118,42873,1,10,0:2:0:0:
239,117,43263,2,0,L|239:200,1,65,2|2,1:2|0:2,0:0:0:0:
382,209,43847,5,2,0:2:0:0:
264,265,44237,2,0,B|209:223|209:223|275:183,1,130,2|2,0:2|0:2,0:0:0:0:
326,191,44821,2,0,L|456:125,1,130,2|10,1:2|0:2,0:0:0:0:
297,247,45600,5,2,1:2:0:0:
173,238,45989,1,10,0:2:0:0:
119,127,46379,1,2,1:2:0:0:
189,25,46768,1,10,0:2:0:0:
333,34,47159,5,2,1:2:0:0:
463,34,47548,1,10,0:2:0:0:
333,117,47938,2,0,L|331:277,1,130,2|10,1:2|0:2,0:0:0:0:
188,280,48717,6,0,L|334:280,1,130,2|10,1:2|0:2,0:0:0:0:
187,277,49496,2,0,L|117:277,1,65,0|2,1:0|0:2,0:0:0:0:
266,208,50081,6,0,L|392:162,1,130,2|2,1:2|1:2,0:0:0:0:
323,194,50665,1,10,0:2:0:0:
193,230,51055,1,2,1:2:0:0:
131,227,51250,1,2,0:2:0:0:
70,227,51444,1,10,0:2:0:0:
213,214,51834,6,0,L|216:77,1,130,2|2,0:2|1:2,0:0:0:0:
345,80,52613,2,0,L|347:209,1,130,2|2,1:2|1:2,0:0:0:0:
204,206,53393,6,0,L|66:207,1,130,2|2,1:2|1:2,0:0:0:0:
204,207,54172,2,0,L|333:208,1,130,2|2,1:2|1:2,0:0:0:0:
189,227,54951,6,0,L|321:229,1,130,2|2,1:2|1:2,0:0:0:0:
176,254,55730,1,2,1:2:0:0:
122,205,55925,1,2,3:2:0:0:
139,134,56120,1,2,3:2:0:0:
208,114,56315,1,2,1:2:0:0:
352,116,56704,6,0,L|448:117,1,65,2|2,1:2|1:2,0:0:0:0:
286,126,57289,2,0,L|286:214,1,65,2|10,1:2|0:2,0:0:0:0:
442,212,57873,6,0,B|309:247,1,130,6|2,1:2|0:2,0:0:0:0:
251,250,58457,1,10,0:2:0:0:
120,252,58847,2,0,L|256:248,1,130,2|10,1:2|0:2,0:0:0:0:
107,246,59626,6,0,B|39:231|39:231|115:202,1,130,2|10,1:2|0:2,0:0:0:0:
168,187,60211,2,0,B|233:189|233:189|235:102,1,130,2|2,0:2|0:2,0:0:0:0:
85,100,60990,6,0,B|224:137,1,130,6|2,1:2|0:2,0:0:0:0:
275,137,61574,1,10,0:2:0:0:
406,138,61964,2,0,L|258:138,1,130,2|10,1:2|0:2,0:0:0:0:
420,210,62743,6,0,L|285:210,1,130,2|10,1:2|0:2,0:0:0:0:
224,206,63328,2,0,L|86:206,1,130,2|2,0:2|0:2,0:0:0:0:
159,206,63912,1,10,0:2:0:0:
302,214,64302,6,0,L|434:159,1,130,6|10,1:2|0:2,0:0:0:0:
356,161,64886,1,2,0:2:0:0:
225,161,65276,2,0,L|227:19,1,130,2|2,0:2|0:2,0:0:0:0:
364,34,66055,6,0,L|446:16,2,65,2|10|2,0:2|0:2|0:2,0:0:0:0:
299,42,66639,2,0,L|139:44,1,130,2|10,1:2|0:2,0:0:0:0:
312,51,67418,1,0,1:0:0:0:
107,93,68003,6,0,B|45:126|45:126|106:166,1,130,2|2,0:2|0:2,0:0:0:0:
160,167,68587,1,10,0:2:0:0:
305,165,68977,5,2,1:2:0:0:
382,196,69171,1,0,3:0:0:0:
401,277,69366,1,0,3:0:0:0:
346,340,69561,1,2,1:2:0:0:
216,341,69951,2,0,L|129:341,1,65,0|8,1:0|0:0,0:0:0:0:
230,319,70341,6,0,B|381:318,1,130,6|2,1:2|0:2,0:0:0:0:
294,316,70925,1,10,0:2:0:0:
168,280,71315,2,0,B|98:258|98:258|101:179,1,130,2|10,1:2|0:2,0:0:0:0:
243,183,72094,6,0,L|394:161,1,130,2|10,1:2|0:2,0:0:0:0:
306,164,72678,2,0,L|155:142,1,130,2|2,0:2|0:2,0:0:0:0:
33,151,73458,6,0,B|31:211|31:211|117:240,1,130,6|2,1:2|0:2,0:0:0:0:
162,234,74042,1,10,0:2:0:0:
292,235,74432,2,0,L|144:235,1,130,2|10,1:2|0:2,0:0:0:0:
305,239,75211,6,0,B|367:240|367:240|368:318,1,130,2|8,1:2|0:2,0:0:0:0:
296,316,75796,2,0,L|158:316,1,130,2|2,0:2|1:2,0:0:0:0:
231,317,76380,1,10,1:2:0:0:
374,267,76770,6,0,L|521:229,1,130,6|10,1:2|0:0,0:0:0:0:
435,215,77354,1,2,0:0:0:0:
305,199,77744,2,0,L|169:155,1,130,2|2,3:2|3:2,0:0:0:0:
351,29,78523,5,2,0:0:0:0:
411,77,78717,1,10,0:0:0:0:
403,155,78912,1,2,0:0:0:0:
339,167,79107,2,0,L|227:153,2,97.5,2|2|2,1:2|1:2|1:2,0:0:0:0:
410,203,79886,6,0,L|192:233,2,195,2|2|2,1:2|1:2|3:2,0:0:0:0:
475,203,81249,1,2,1:2:0:0:
331,211,81639,5,10,0:0:0:0:
272,253,81834,1,10,0:0:0:0:
273,326,82028,1,10,0:0:0:0:
333,367,82223,1,10,0:0:0:0:
461,334,82613,1,2,0:3:0:0:
318,309,83003,6,0,L|185:246,1,130,6|10,1:2|0:2,0:0:0:0:
331,240,83782,2,0,L|333:91,1,130,2|10,0:2|0:2,0:0:0:0:
189,209,84561,6,0,L|59:139,1,130,2|10,1:2|0:2,0:0:0:0:
205,70,85341,2,0,L|341:24,1,130,2|10,0:2|0:2,0:0:0:0:
186,118,86119,6,0,L|49:118,1,130,2|10,1:2|0:2,0:0:0:0:
186,131,86899,1,10,0:0:0:0:
253,156,87093,1,10,0:0:0:0:
271,222,87288,1,10,0:0:0:0:
223,283,87483,1,10,0:0:0:0:
80,294,87873,6,0,L|222:295,1,130,10|2,0:0|1:2,0:0:0:0:
145,296,88457,1,10,0:0:0:0:
