osu file format v14

[General]
AudioFilename: audio.mp3
AudioLeadIn: 0
PreviewTime: 57191
Countdown: 0
SampleSet: Soft
StackLeniency: 0.7
Mode: 2
LetterboxInBreaks: 0
WidescreenStoryboard: 0

[Editor]
Bookmarks: 13847,14431,26315,26899,39367,57873,83003,88457
DistanceSpacing: 1.4
BeatDivisor: 4
GridSize: 32
TimelineZoom: 1.6

[Metadata]
Title:Tenkuu Cafeteria (TV Size)
TitleUnicode:天空カフェテリア (TV Size)
Artist:Petit Rabbit's
ArtistUnicode:Petit Rabbit's
Creator:amulet-pp
Version:Cafe
Source:ご注文はうさぎですか? BLOOM
Tags:is the order a rabbit? gochiusa gochuumon wa usagi desuka? japanese pop jpop j-pop Third Season Theme anime op opening チノ chino 水瀬いのり minase inori ココア cocoa 佐倉綾音 sakura ayane リゼ rize 種田梨沙 taneda risa 千夜 chiya 佐藤聡美 satou satomi シャロ syaro 内田真礼 uchida maaya
BeatmapID:3094665
BeatmapSetID:1511308

[Difficulty]
HPDrainRate:5
CircleSize:4.1
OverallDifficulty:8.8
ApproachRate:8.8
SliderMultiplier:2.1
SliderTickRate:2

[Events]
//Background and Video events
Video,0,"video.avi"
0,0,"bg.jpg",0,0
//Break Periods
//Storyboard Layer 0 (Background)
//Storyboard Layer 1 (Fail)
//Storyboard Layer 2 (Pass)
//Storyboard Layer 3 (Foreground)
//Storyboard Layer 4 (Overlay)
//Storyboard Sound Samples

[TimingPoints]
406,389.61038961039,4,2,1,55,1,0
8198,-100,4,2,1,65,0,0
26899,-100,4,2,1,60,0,0
39367,-100,4,2,1,65,0,0
57873,-100,4,2,1,70,0,1
83003,-100,4,2,1,65,0,0

[Colours]
Combo1 : 159,64,255
Combo2 : 57,206,255
Combo3 : 255,154,53
Combo4 : 255,53,154

[HitObjects]
256,192,211,12,0,990,0:0:0:0:
252,286,1185,6,0,L|147:286,1,105,2|2,0:0|0:0,0:0:0:0:
420,144,1769,5,2,0:0:0:0:
230,234,2159,1,2,0:0:0:0:
142,183,2353,1,2,0:0:0:0:
137,82,2548,1,2,0:0:0:0:
217,23,2743,1,2,0:0:0:0:
312,57,2938,1,2,0:0:0:0:
195,95,3133,2,0,B|143:109|143:109|143:197,1,105,2|2,0:0|0:0,0:0:0:0:
301,208,3522,6,0,L|416:227,2,105,2|0|0,0:0|0:0|0:0,0:0:0:0:
143,214,4107,2,0,P|78:318|146:380,1,210,2|0,0:0|0:0,0:0:0:0:
238,371,4691,1,0,0:0:0:0:
70,145,4886,5,2,3:2:0:0:
260,218,5276,2,0,L|384:219,1,105,2|2,0:0|0:0,0:0:0:0:
259,208,5665,2,0,L|147:207,2,105,2|2|2,0:0|0:0|0:0,0:0:0:0:
364,218,6250,2,0,B|419:213|419:213|355:206,1,105,2|2,0:0|0:0,0:0:0:0:
207,83,6639,6,0,L|80:84,2,105,2|0|0,0:0|0:0|0:0,0:0:0:0:
365,83,7224,2,0,P|445:171|445:259,1,210,2|0,0:0|0:0,0:0:0:0:
99,303,8198,5,6,1:2:0:0:
215,276,8393,1,0,0:0:0:0:
330,251,8587,1,10,0:0:0:0:
67,205,8782,2,0,L|47:83,1,105,2|0,0:0|0:0,0:0:0:0:
314,126,9172,2,0,L|341:13,1,105,2|0,3:2|3:2,0:0:0:0:
55,21,9561,1,2,3:2:0:0:
266,81,9951,5,2,0:2:0:0:
117,109,10146,2,0,P|45:112|34:183,1,157.5,10|0,0:2|0:0,0:0:0:0:
198,230,10535,2,0,L|297:301,1,105,2|0,1:2|0:0,0:0:0:0:
192,271,10828,2,0,L|52:316,1,105,2|0,1:2|0:0,0:0:0:0:
151,309,11120,1,2,1:2:0:0:
414,293,11315,6,0,L|501:234,2,105,2|0|0,1:2|3:0|3:0,0:0:0:0:
256,288,11899,2,0,P|194:202|275:141,1,210,2|0,1:2|3:0,0:0:0:0:
370,137,12483,1,2,3:2:0:0:
107,140,12678,2,0,B|79:82|79:82|113:24,1,105,2|0,1:2|0:0,0:0:0:0:
365,16,13068,5,10,0:0:0:0:
102,163,13263,1,10,0:0:0:0:
102,163,13457,1,10,0:0:0:0:
371,163,13652,2,0,L|477:163,1,105,10|2,0:0|0:3,0:0:0:0:
440,173,13912,1,2,0:3:0:0:
405,187,13977,1,2,0:3:0:0:
370,201,14042,1,8,0:3:0:0:
222,249,14237,1,2,0:3:0:0:
275,270,14334,1,2,0:3:0:0:
434,335,14431,6,0,L|433:195,1,105,6|2,1:2|0:2,0:0:0:0:
285,233,14821,2,0,L|172:231,1,105,10|2,0:2|0:2,0:0:0:0:
444,106,15211,1,2,0:2:0:0:
346,124,15405,1,2,0:2:0:0:
312,218,15600,1,10,0:2:0:0:
376,295,15795,1,2,0:2:0:0:
111,115,15990,6,0,L|261:113,1,105,2|2,1:2|0:2,0:0:0:0:
68,120,16380,2,0,L|67:-2,1,105,10|2,0:2|0:2,0:0:0:0:
227,64,16769,1,2,1:2:0:0:
280,95,16867,1,0,1:0:0:0:
333,126,16964,1,2,1:2:0:0:
68,234,17159,2,0,L|68:111,1,105,10|0,0:2|0:0,0:0:0:0:
331,118,17548,6,0,L|449:119,1,105,2|2,1:2|0:2,0:0:0:0:
288,230,17938,2,0,L|273:337,1,105,10|2,0:2|0:2,0:0:0:0:
125,274,18328,2,0,L|10:273,2,105,2|2|10,0:2|0:2|0:2,0:0:0:0:
388,302,18912,2,0,L|387:166,1,105,2|0,0:2|1:0,0:0:0:0:
123,136,19302,5,2,0:2:0:0:
239,124,19496,1,8,0:0:0:0:
355,112,19691,1,2,0:2:0:0:
92,222,19886,2,0,L|92:335,1,105,2|2,1:2|1:2,0:0:0:0:
179,330,20178,1,2,0:0:0:0:
267,326,20276,2,0,B|144:326,1,105,10|0,1:2|0:0,0:0:0:0:
425,329,20665,6,0,L|424:190,1,105,6|2,1:2|0:2,0:0:0:0:
276,211,21055,2,0,L|279:96,1,105,10|2,0:2|0:2,0:0:0:0:
194,110,21347,1,0,0:0:0:0:
110,112,21444,2,0,B|110:223,1,105,2|2,0:2|0:2,0:0:0:0:
258,259,21834,2,0,L|367:212,1,105,10|2,0:2|0:2,0:0:0:0:
90,337,22224,6,0,L|90:225,1,105,2|2,1:2|0:2,0:0:0:0:
238,231,22614,2,0,L|243:113,1,105,10|2,0:2|0:2,0:0:0:0:
164,124,22905,1,0,0:0:0:0:
85,102,23003,2,0,L|213:104,1,105,2|2,1:2|0:2,0:0:0:0:
338,238,23393,2,0,B|377:186|377:186|377:130,1,105,10|0,0:2|0:0,0:0:0:0:
112,85,23782,6,0,L|100:208,1,105,2|2,1:2|0:2,0:0:0:0:
366,194,24172,2,0,L|370:305,1,105,2|2,1:2|0:2,0:0:0:0:
107,313,24561,1,10,0:0:0:0:
223,259,24756,1,10,0:0:0:0:
107,191,24951,1,10,0:0:0:0:
370,277,25146,2,0,L|490:277,1,105,10|0,0:0|0:0,0:0:0:0:
212,66,25535,6,0,L|306:112,1,105,10|0,0:0|0:0,0:0:0:0:
169,123,25925,1,2,1:2:0:0:
432,154,26120,2,0,L|296:154,1,105,10|2,0:0|0:3,0:0:0:0:
298,152,26363,1,0,0:0:0:0:
268,168,26412,1,0,0:0:0:0:
264,211,26461,1,0,0:0:0:0:
294,233,26509,2,0,L|411:233,1,105,2|2,0:3|0:3,0:0:0:0:
340,270,26802,1,2,0:3:0:0:
178,303,26899,6,0,L|69:301,1,105,2|2,1:3|0:2,0:0:0:0:
222,223,27289,2,0,L|333:224,1,105,2|2,1:2|0:2,0:0:0:0:
180,125,27678,1,2,1:2:0:0:
64,220,27873,1,2,0:2:0:0:
63,334,28068,1,8,0:2:0:0:
326,127,28263,6,0,P|431:183|396:258,1,210,2|2,0:2|0:2,0:0:0:0:
263,307,28847,2,0,L|373:308,1,105,10|2,0:2|0:2,0:0:0:0:
220,301,29237,2,0,L|97:298,1,105,2|2,1:2|0:2,0:0:0:0:
378,304,29626,2,0,L|376:181,1,105,10|0,0:2|0:0,0:0:0:0:
112,181,30016,5,2,1:2:0:0:
42,112,30211,1,2,0:2:0:0:
82,23,30406,1,2,1:2:0:0:
183,37,30600,1,2,0:2:0:0:
332,232,30795,2,0,L|451:210,1,105,2|2,1:2|0:2,0:0:0:0:
287,121,31185,2,0,L|172:96,1,105,10|2,0:2|0:2,0:0:0:0:
446,182,31574,5,2,1:2:0:0:
475,85,31769,1,2,0:2:0:0:
399,23,31964,1,10,0:2:0:0:
310,65,32158,1,2,0:2:0:0:
162,231,32353,2,0,L|77:231,2,52.5,2|0|2,1:2|1:0|1:2,0:0:0:0:
426,314,32743,2,0,L|276:313,1,105,10|0,0:2|0:0,0:0:0:0:
57,305,33133,6,0,L|57:180,1,105,2|2,1:3|0:2,0:0:0:0:
205,208,33523,2,0,L|313:207,1,105,2|2,1:2|0:2,0:0:0:0:
163,189,33912,2,0,L|39:190,2,105,2|2|8,1:2|0:2|0:2,0:0:0:0:
426,173,34496,6,0,L|214:172,1,210,2|2,0:2|0:2,0:0:0:0:
363,255,35081,2,0,L|353:142,1,105,10|2,0:2|0:2,0:0:0:0:
206,165,35471,2,0,L|329:162,1,105,2|2,1:2|0:2,0:0:0:0:
47,299,35860,2,0,L|44:169,1,105,10|2,0:2|0:2,0:0:0:0:
310,191,36250,6,0,L|424:191,1,105,2|2,1:2|0:2,0:0:0:0:
268,182,36639,2,0,L|146:180,1,105,10|2,0:2|0:2,0:0:0:0:
311,124,37029,2,0,L|312:14,1,105,0|2,1:0|0:2,0:0:0:0:
165,35,37418,1,8,0:2:0:0:
428,176,37613,2,0,L|319:175,1,105,0|0,1:0|0:0,0:0:0:0:
59,224,38003,6,0,L|41:103,1,105,2|0,1:2|0:0,0:0:0:0:
185,115,38392,1,2,1:2:0:0:
448,300,38587,2,0,L|450:175,1,105,2|2,1:2|0:3,0:0:0:0:
364,207,38880,1,2,0:3:0:0:
280,208,38977,2,0,L|130:207,1,105,2|2,0:3|0:3,0:0:0:0:
233,209,39269,1,2,0:3:0:0:
405,136,39367,5,2,1:3:0:0:
316,188,39561,1,2,0:2:0:0:
289,270,39756,1,8,0:2:0:0:
345,344,39951,1,2,0:2:0:0:
426,352,40146,2,0,L|426:241,1,105,0|0,1:2|0:0,0:0:0:0:
163,87,40535,5,10,0:2:0:0:
75,135,40729,1,2,0:2:0:0:
48,219,40924,1,2,1:2:0:0:
97,294,41119,1,2,0:2:0:0:
246,314,41315,2,0,L|359:311,1,105,10|0,0:2|0:0,0:0:0:0:
214,244,41704,1,2,1:2:0:0:
354,222,41899,2,0,L|359:101,1,105,2|8,0:2|0:0,0:0:0:0:
93,68,42289,6,0,P|31:162|115:199,1,210,2|2,0:2|0:2,0:0:0:0:
228,204,42873,2,0,L|340:204,1,105,10|2,0:2|0:2,0:0:0:0:
196,260,43263,2,0,L|83:260,2,105,2|2|8,1:2|0:2|0:0,0:0:0:0:
342,267,43847,2,0,L|346:153,1,105,2|2,0:2|1:2,0:0:0:0:
81,117,44237,6,0,P|10:184|100:229,1,210,2|2,0:2|0:2,0:0:0:0:
226,317,44821,1,2,1:2:0:0:
279,265,44918,1,0,0:0:0:0:
332,213,45016,1,2,0:2:0:0:
68,220,45211,2,0,L|68:105,1,105,10|2,0:2|1:2,0:0:0:0:
338,96,45600,6,0,L|437:63,1,105,2|0,1:2|0:0,0:0:0:0:
290,51,45990,2,0,L|290:156,1,105,10|0,0:2|0:0,0:0:0:0:
141,173,46380,2,0,L|42:137,1,105,2|0,1:2|0:0,0:0:0:0:
306,104,46769,2,0,L|306:227,1,105,10|2,0:2|0:2,0:0:0:0:
39,102,47159,6,0,L|145:80,1,105,2|0,1:2|0:0,0:0:0:0:
290,101,47549,2,0,L|288:218,1,105,10|0,0:2|0:0,0:0:0:0:
151,212,47938,1,2,1:2:0:0:
288,274,48133,2,0,L|417:264,2,105,2|10|2,0:2|0:2|0:2,0:0:0:0:
25,284,48717,5,2,1:2:0:0:
177,270,48912,1,2,0:2:0:0:
205,228,49009,1,2,0:2:0:0:
193,178,49106,1,10,0:2:0:0:
46,162,49302,1,2,0:2:0:0:
307,129,49496,2,0,L|421:124,2,105,0|2|8,1:0|0:2|0:0,0:0:0:0:
42,133,50081,6,0,L|266:94,1,210,2|2,1:2|1:2,0:0:0:0:
190,106,50568,1,2,0:2:0:0:
248,145,50665,2,0,L|356:127,1,105,10|2,0:2|1:2,0:0:0:0:
204,297,51055,2,0,L|189:187,1,105,2|2,1:2|0:2,0:0:0:0:
453,177,51444,2,0,L|478:38,1,105,10|2,0:2|1:2,0:0:0:0:
207,96,51834,6,0,L|97:100,1,105,2|2,0:2|0:2,0:0:0:0:
249,99,52224,2,0,L|358:96,1,105,2|2,1:2|0:2,0:0:0:0:
206,146,52613,1,2,1:2:0:0:
142,205,52711,1,2,0:2:0:0:
142,277,52808,1,2,0:2:0:0:
290,284,53003,2,0,L|413:281,1,105,2|2,1:2|0:2,0:0:0:0:
131,138,53393,5,2,1:2:0:0:
276,150,53587,1,2,0:2:0:0:
130,186,53782,2,0,L|129:313,1,105,2|2,1:2|0:2,0:0:0:0:
277,287,54172,1,2,1:2:0:0:
277,213,54270,1,0,0:0:0:0:
214,174,54367,1,2,0:2:0:0:
362,128,54562,2,0,L|478:133,1,105,2|0,1:2|0:0,0:0:0:0:
193,192,54951,6,0,L|69:199,1,105,2|2,1:2|0:2,0:0:0:0:
352,210,55341,2,0,L|350:337,1,105,2|2,1:2|0:2,0:0:0:0:
88,320,55730,1,2,1:2:0:0:
214,273,55925,1,2,3:2:0:0:
89,220,56120,1,2,3:2:0:0:
353,122,56315,1,2,1:2:0:0:
101,38,56704,5,2,1:2:0:0:
101,38,56899,1,2,1:2:0:0:
354,103,57289,5,2,1:2:0:0:
207,108,57483,2,0,L|53:187,1,157.5,10|0,0:2|0:0,0:0:0:0:
231,220,57873,6,0,L|360:271,1,105,6|0,1:2|0:0,0:0:0:0:
180,318,58263,1,2,0:2:0:0:
313,241,58457,1,10,0:2:0:0:
448,183,58652,1,2,0:2:0:0:
301,168,58847,2,0,L|179:136,1,105,2|2,1:2|0:2,0:0:0:0:
347,134,59237,2,0,L|458:101,1,105,10|2,0:2|0:2,0:0:0:0:
185,46,59626,6,0,L|289:48,2,105,2|2|10,1:2|0:2|0:2,0:0:0:0:
452,50,60211,2,0,L|452:156,1,105,2|0,0:2|1:0,0:0:0:0:
305,248,60600,2,0,L|295:176,1,52.5,2|0,0:2|0:0,0:0:0:0:
393,318,60795,2,0,L|412:248,1,52.5,10|0,0:2|0:0,0:0:0:0:
243,214,60990,6,0,L|121:216,2,105,6|0|2,1:2|0:0|0:2,0:0:0:0:
390,213,61574,2,0,L|389:96,1,105,10|2,0:2|0:2,0:0:0:0:
241,120,61964,2,0,L|363:88,1,105,2|2,1:2|0:2,0:0:0:0:
196,84,62354,2,0,L|85:51,1,105,10|2,0:2|0:2,0:0:0:0:
358,95,62743,6,0,L|462:97,2,105,2|2|10,1:2|0:2|0:2,0:0:0:0:
94,180,63328,2,0,L|94:286,1,105,2|0,0:2|1:0,0:0:0:0:
241,246,63717,2,0,L|242:171,1,52.5,2|0,0:2|0:0,0:0:0:0:
152,320,63912,2,0,L|104:278,1,52.5,10|0,0:2|0:0,0:0:0:0:
96,212,64107,2,0,L|130:165,1,52.5
296,203,64302,6,0,L|418:205,2,105,6|0|10,1:2|0:0|0:2,0:0:0:0:
150,225,64886,2,0,L|142:104,1,105,2|0,0:2|1:0,0:0:0:0:
290,127,65276,2,0,L|298:6,1,105,2|8,0:2|0:0,0:0:0:0:
30,24,65665,2,0,L|30:139,1,105,2|0,0:2|1:0,0:0:0:0:
299,130,66055,5,2,0:2:0:0:
388,178,66250,1,10,0:2:0:0:
407,278,66444,1,2,0:2:0:0:
260,291,66639,2,0,L|252:170,1,105,2|2,1:2|0:2,0:0:0:0:
400,193,67029,2,0,L|502:149,1,105,10|2,0:2|0:2,0:0:0:0:
233,135,67418,6,0,L|128:99,2,105,0|0|8,1:0|0:0|0:0,0:0:0:0:
381,95,68003,2,0,P|456:172|366:186,1,210,2|2,0:2|0:2,0:0:0:0:
134,335,68587,2,0,L|-10:334,1,105,10|2,0:2|0:2,0:0:0:0:
83,327,68880,1,0,0:0:0:0:
245,238,68977,5,2,1:2:0:0:
151,156,69172,1,0,3:0:0:0:
56,91,69367,1,0,3:0:0:0:
321,273,69561,2,0,L|320:169,1,105,2|0,1:2|0:0,0:0:0:0:
183,115,69951,1,0,1:0:0:0:
318,45,70146,1,8,0:0:0:0:
55,76,70341,6,0,L|180:62,1,105,6|0,1:2|0:0,0:0:0:0:
307,320,70731,1,2,0:2:0:0:
391,252,70925,1,10,0:2:0:0:
393,171,71120,1,2,0:2:0:0:
245,165,71315,2,0,L|367:133,1,105,2|2,1:2|0:2,0:0:0:0:
199,131,71705,2,0,L|88:98,1,105,10|2,0:2|0:2,0:0:0:0:
361,47,72094,6,0,L|481:45,2,105,2|0|10,1:2|0:0|0:2,0:0:0:0:
95,54,72679,2,0,L|95:160,1,105,2|0,0:2|1:0,0:0:0:0:
241,241,73068,2,0,L|262:165,1,52.5,2|0,0:2|0:0,0:0:0:0:
165,310,73263,2,0,L|129:261,1,52.5,10|0,0:2|0:0,0:0:0:0:
297,239,73458,6,0,L|419:241,2,105,6|0|2,1:2|0:0|0:2,0:0:0:0:
150,215,74042,2,0,L|25:175,1,105,10|2,0:2|0:2,0:0:0:0:
199,146,74431,2,0,L|199:12,1,105,2|2,1:2|0:2,0:0:0:0:
349,139,74822,2,0,L|413:52,1,105,10|2,0:2|0:2,0:0:0:0:
148,90,75211,6,0,L|44:92,2,105,2|0|8,1:2|0:2|0:2,0:0:0:0:
413,178,75795,2,0,L|413:284,1,105,2|0,0:2|1:0,0:0:0:0:
264,241,76185,2,0,L|265:166,1,52.5,2|0,1:2|1:0,0:0:0:0:
175,309,76380,2,0,L|125:278,1,52.5,10|0,1:2|0:0,0:0:0:0:
114,211,76575,2,0,L|150:159,1,52.5
313,146,76770,6,0,L|435:148,2,105,6|0|10,1:2|0:0|0:0,0:0:0:0:
166,238,77354,2,0,L|158:117,1,105,2|0,0:0|0:0,0:0:0:0:
306,140,77744,2,0,L|314:19,1,105,2|0,3:2|3:2,0:0:0:0:
46,37,78133,2,0,L|46:152,1,105,2|0,3:2|3:2,0:0:0:0:
195,149,78523,5,2,0:0:0:0:
305,229,78718,1,10,0:0:0:0:
209,311,78912,1,2,0:0:0:0:
472,251,79107,2,0,L|358:252,1,105,2|0,1:2|0:0,0:0:0:0:
277,206,79399,2,0,L|386:206,1,105,2|0,1:2|0:0,0:0:0:0:
472,235,79691,2,0,L|472:159,1,52.5,2|0,1:2|0:0,0:0:0:0:
308,145,79886,5,2,1:2:0:0:
192,161,80081,1,0,3:0:0:0:
76,177,80276,1,0,3:0:0:0:
339,181,80471,2,0,P|401:247|329:314,1,210,2|0,1:2|3:0,0:0:0:0:
182,291,81055,1,2,3:2:0:0:
323,367,81250,2,0,L|322:263,1,105,2|0,1:2|0:0,0:0:0:0:
58,255,81639,5,10,0:0:0:0:
174,165,81834,1,10,0:0:0:0:
57,75,82029,1,10,0:0:0:0:
320,43,82224,2,0,L|208:43,1,105,10|2,0:0|0:3,0:0:0:0:
251,53,82484,1,2,0:3:0:0:
286,67,82549,1,2,0:3:0:0:
321,81,82614,1,2,0:3:0:0:
469,129,82808,1,2,0:3:0:0:
416,150,82906,1,2,0:3:0:0:
254,215,83003,6,0,L|118:214,1,105,6|2,1:2|0:2,0:0:0:0:
295,289,83393,2,0,L|422:290,1,105,10|2,0:2|0:2,0:0:0:0:
137,321,83782,1,2,0:2:0:0:
81,237,83976,1,2,0:2:0:0:
127,148,84171,1,10,0:2:0:0:
227,143,84366,1,2,0:2:0:0:
490,279,84561,6,0,L|490:165,1,105,2|2,1:2|0:2,0:0:0:0:
226,236,84951,2,0,L|93:237,1,105,10|2,0:2|0:2,0:0:0:0:
207,207,85244,1,0,0:0:0:0:
291,184,85341,1,2,0:2:0:0:
437,152,85535,1,2,0:2:0:0:
291,264,85730,2,0,L|168:264,1,105,10|0,0:2|0:0,0:0:0:0:
450,294,86120,6,0,L|335:290,1,105,2|2,1:2|0:2,0:0:0:0:
81,301,86510,2,0,L|81:160,1,105,10|2,0:2|0:2,0:0:0:0:
345,101,86900,1,10,0:0:0:0:
220,177,87094,1,10,0:0:0:0:
348,249,87289,1,10,0:0:0:0:
86,337,87483,2,0,L|89:198,1,105,10|0,0:0|0:0,0:0:0:0:
354,180,87873,5,10,0:0:0:0:
123,104,88263,1,2,1:2:0:0:
395,56,88457,1,10,0:0:0:0:
