osu file format v14

[General]
AudioFilename: audio.mp3
AudioLeadIn: 0
PreviewTime: 169544
Countdown: 0
SampleSet: Soft
StackLeniency: 0.4
Mode: 0
LetterboxInBreaks: 0
WidescreenStoryboard: 1

[Editor]
DistanceSpacing: 1.4
BeatDivisor: 12
GridSize: 32
TimelineZoom: 1.6

[Metadata]
Title:Tenkuu Cafeteria
TitleUnicode:天空カフェテリア
Artist:Petit Rabbit's
ArtistUnicode:Petit Rabbit's
Creator:MiyohashiKoori
Version:Rabbit Cafeteria
Source:ご注文はうさぎですか? BLOOM
Tags:gochiusa gochuumon wa usagi desuka desu ka ka? 3rd season 3 op opening Is The Order A Rabbit ごちうさ Cocoa Hoto 保登 心愛 Ayane Sakura 佐倉 綾音 Chino Kafuu 香風 智乃 Inori Minase 水瀬 いのり Rize Tedeza 天々座 理世 Risa Taneda 種田 梨沙 Chiya Ujimatsu 宇治松 千夜 Satomi Satou 佐藤 聡美 Syaro Sharo Kirima 桐間 紗路 Maaya Uchida 内田 真礼 Aki Hata 畑 亜貴 Kaoru Okubo 大久保薫 japanese anime pop Asukow grazuko Silent Rock Affirmation JPop J-Pop
BeatmapID:3405117
BeatmapSetID:1667654

[Difficulty]
HPDrainRate:6
CircleSize:4
OverallDifficulty:8.2
ApproachRate:9
SliderMultiplier:1.8
SliderTickRate:1

[Events]
//Background and Video events
0,0,"chino space.jpg",0,0
//Break Periods
//Storyboard Layer 0 (Background)
//Storyboard Layer 1 (Fail)
//Storyboard Layer 2 (Pass)
//Storyboard Layer 3 (Foreground)
//Storyboard Layer 4 (Overlay)
//Storyboard Sound Samples

[TimingPoints]
1364,389.61038961039,4,2,1,40,1,0
2338,-200,4,2,1,40,0,0
2727,-133.333333333333,4,2,65,40,0,0
5065,-200,4,2,65,40,0,0
5844,-133.333333333333,4,2,65,40,0,0
8182,-200,4,2,65,40,0,0
9156,-100,4,2,66,70,0,0
11493,-100,4,2,67,70,0,0
11688,-100,4,2,65,70,0,0
11786,-100,4,2,67,70,0,0
11980,-100,4,2,65,70,0,0
12273,-100,4,2,68,70,0,0
12467,-100,4,2,65,70,0,0
12857,-100,4,2,66,70,0,0
13441,-100,4,2,67,70,0,0
13636,-100,4,2,66,70,0,0
15389,-100,4,2,66,70,0,1
25519,-100,4,2,67,70,0,1
25909,-100,4,2,66,70,0,1
26883,-100,4,2,66,70,0,0
26980,-100,4,2,66,70,0,0
27078,-100,4,2,66,70,0,0
27175,-100,4,2,66,70,0,0
27273,-100,4,2,66,70,0,0
27857,-133.333333333333,4,2,65,50,0,0
37208,-133.333333333333,4,2,66,50,0,0
40325,-133.333333333333,4,2,66,55,0,0
51039,-100,4,2,66,55,0,0
52597,-100,4,2,66,70,0,0
55909,-100,4,2,66,70,0,0
56688,-100,4,2,68,70,0,0
56883,-100,4,2,67,70,0,0
57078,-100,4,2,66,70,0,0
57662,-66.6666666666667,4,2,66,70,0,0
57857,-200,4,2,66,70,0,0
58247,-66.6666666666667,4,2,66,70,0,0
58441,-200,4,2,66,70,0,0
58831,-100,4,2,69,80,0,1
59221,-100,4,2,66,80,0,1
68376,-100,4,2,65,80,0,1
69935,-100,4,2,66,80,0,1
70130,-100,4,2,65,80,0,1
71299,-100,4,2,69,80,0,1
71688,-100,4,2,66,80,0,1
77143,-100,4,2,65,80,0,1
77727,-100,4,2,66,80,0,1
80065,-100,4,2,68,80,0,1
80260,-100,4,2,65,80,0,1
80357,-100,4,2,67,80,0,1
80552,-100,4,2,66,80,0,1
83182,-100,4,2,66,80,0,0
83961,-100,4,2,66,70,0,1
92922,-100,4,2,67,70,0,1
93019,-100,4,2,65,70,0,1
93312,-100,4,2,66,70,0,1
94091,-100,4,2,67,70,0,1
94480,-100,4,2,66,70,0,1
95454,-100,4,2,66,70,0,0
96428,-100,4,2,69,40,0,0
96623,-100,4,2,66,40,0,0
98766,-133.333333333333,4,2,66,40,0,0
99156,-133.333333333333,4,2,66,40,0,0
99545,-133.333333333333,4,2,66,50,0,0
102662,-133.333333333333,4,2,65,50,0,0
105779,-133.333333333333,4,2,66,50,0,0
108896,-133.333333333333,4,2,66,55,0,0
119610,-100,4,2,66,55,0,0
121169,-100,4,2,66,70,0,0
124480,-100,4,2,66,70,0,0
125260,-100,4,2,68,70,0,0
125454,-100,4,2,67,70,0,0
125649,-100,4,2,66,70,0,0
126234,-66.6666666666667,4,2,66,70,0,0
126428,-200,4,2,66,70,0,0
126818,-66.6666666666667,4,2,66,70,0,0
127013,-200,4,2,66,70,0,0
127402,-100,4,2,69,80,0,1
127792,-100,4,2,66,80,0,1
136948,-100,4,2,65,80,0,1
138506,-100,4,2,66,80,0,1
138701,-100,4,2,65,80,0,1
139870,-100,4,2,69,80,0,1
140260,-100,4,2,66,80,0,1
145714,-100,4,2,65,80,0,1
146299,-100,4,2,66,80,0,1
148636,-100,4,2,68,80,0,1
148831,-100,4,2,65,80,0,1
148928,-100,4,2,67,80,0,1
149123,-100,4,2,66,80,0,1
151753,-100,4,2,66,80,0,0
152532,-133.333333333333,4,2,66,60,0,0
161493,-133.333333333333,4,2,65,60,0,0
161883,-100,4,2,66,60,0,0
163636,-100,4,2,66,60,0,0
164221,-100,4,2,67,60,0,0
164318,-100,4,2,65,60,0,0
165000,-100,4,2,66,70,0,0
168117,-80,4,2,66,70,0,0
168506,-80,4,2,65,70,0,0
169480,-133.333333333333,4,2,66,70,0,0
169870,-66.6666666666667,4,2,66,70,0,0
170065,-200,4,2,66,70,0,0
170454,-66.6666666666667,4,2,66,70,0,0
170649,-200,4,2,66,70,0,0
171039,-250,4,2,65,40,0,0
176883,-100,4,2,65,40,0,0
177467,-100,4,2,66,80,0,1
180584,-100,4,2,65,80,0,1
182143,-100,4,2,66,80,0,1
182338,-100,4,2,65,80,0,1
182727,-100,4,2,66,80,0,1
183117,-100,4,2,65,80,0,1
183506,-100,4,2,69,80,0,1
183896,-100,4,2,66,80,0,1
189351,-100,4,2,65,80,0,1
189935,-100,4,2,66,80,0,1
192273,-100,4,2,68,80,0,1
192467,-100,4,2,65,80,0,1
192565,-100,4,2,67,80,0,1
192760,-100,4,2,66,80,0,1
195389,-100,4,2,66,80,0,0
196169,-100,4,2,66,80,0,1
198506,-100,4,2,68,80,0,1
198701,-100,4,2,65,80,0,1
198799,-100,4,2,67,80,0,1
198993,-100,4,2,66,80,0,1
200844,-100,4,2,68,80,0,1
201039,-100,4,2,65,80,0,1
201428,-100,4,2,66,80,0,1
202792,-100,4,2,67,80,0,1
202889,-100,4,2,65,80,0,1
203572,-100,4,2,67,80,0,1
203669,-100,4,2,65,80,0,1
204156,-100,4,2,66,80,0,1
204740,-100,4,2,66,80,0,0
205130,-100,4,2,65,80,0,0
205519,-100,4,2,66,70,0,1
214480,-100,4,2,67,70,0,1
214578,-100,4,2,65,70,0,1
214870,-100,4,2,66,70,0,1
215649,-100,4,2,67,70,0,1
216039,-100,4,2,66,70,0,1
217208,-100,4,2,66,70,0,0

[Colours]
Combo1 : 141,203,152
Combo2 : 128,255,255
Combo3 : 255,152,102
Combo4 : 255,255,128
Combo5 : 157,60,255

[HitObjects]
375,329,2143,6,0,L|365:266,1,45,2|0,0:0|0:0,0:0:0:0:
446,239,2338,6,0,L|457:311,1,67.5,2|0,0:0|0:0,0:0:0:0:
454,153,2727,6,0,B|401:159|401:159|380:179|380:179|313:187,1,135.000005149842,6|2,2:2|2:2,0:0:0:0:
366,81,3312,2,0,L|446:73,1,67.5000025749208,2|2,2:2|2:2,0:0:0:0:
327,185,3701,2,0,L|293:258,1,67.5000025749208,2|2,2:2|2:2,0:0:0:0:
260,102,4091,2,0,L|213:36,1,67.5000025749208,2|2,2:2|2:2,0:0:0:0:
112,151,4480,6,0,P|80:182|105:149,1,135.000005149842,2|0,2:2|0:0,0:0:0:0:
67,273,5065,2,0,B|106:288|157:278|133:262|173:253|202:266,1,135,2|0,2:2|0:0,0:0:0:0:
219,354,5844,6,0,P|224:273|250:203,1,135.000005149842,6|2,2:2|2:2,0:0:0:0:
336,281,6428,2,0,P|344:313|342:349,1,67.5000025749208,2|2,2:2|2:2,0:0:0:0:
240,222,6818,2,0,P|208:212|178:193,1,67.5000025749208,2|2,2:2|2:2,0:0:0:0:
330,169,7208,2,0,P|353:146|385:129,1,67.5000025749208,2|2,2:2|2:2,0:0:0:0:
311,37,7597,6,0,B|284:27|246:35|246:35|253:30|253:30|215:37|177:23,1,135.000005149842,2|0,2:2|0:0,0:0:0:0:
65,114,8182,2,0,P|98:74|100:155,1,180,2|0,2:2|0:0,0:0:0:0:
239,236,9156,6,0,B|201:207|155:224|155:224|111:242|65:219,1,180,6|10,1:2|2:2,0:0:0:0:
190,384,9740,2,0,P|191:327|186:280,1,90,6|0,1:2|0:0,0:0:0:0:
246,124,10130,1,2,1:2:0:0:
66,219,10325,1,0,1:1:0:0:
319,304,10519,6,0,L|323:167,1,135,14|0,2:2|0:0,0:0:0:0:
322,169,10909,2,0,L|325:108,1,45,8|0,2:2|0:0,0:0:0:0:
420,79,11104,2,0,L|419:131,1,45,8|0,2:2|0:0,0:0:0:0:
319,15,11299,1,8,2:2:0:0:
319,15,11396,1,8,2:2:0:0:
319,15,11493,6,0,L|219:7,1,90,10|4,2:2|2:3,0:0:0:0:
157,85,11786,2,0,L|247:92,1,90,6|0,2:2|3:3,0:0:0:0:
324,124,12078,2,0,L|321:184,1,45,2|0,3:2|0:0,0:0:0:0:
420,79,12273,5,14,2:2:0:0:
252,240,12467,1,4,2:3:0:0:
229,7,12662,1,0,3:3:0:0:
440,98,12857,2,0,L|424:284,1,180,6|0,1:2|1:1,0:0:0:0:
322,16,13441,1,6,2:2:0:0:
295,286,13636,6,0,L|310:134,1,135,6|0,1:2|0:0,0:0:0:0:
308,151,14026,2,0,P|305:113|292:98,1,45,14|0,2:2|0:0,0:0:0:0:
103,81,14221,1,14,2:2:0:0:
189,279,14415,1,14,2:2:0:0:
218,16,14610,1,14,2:2:0:0:
123,215,14805,1,0,1:1:0:0:
123,215,14902,1,0,1:1:0:0:
123,215,15000,1,8,2:2:0:0:
301,108,15195,1,8,2:2:0:0:
301,108,15292,1,8,2:2:0:0:
301,108,15389,5,6,1:2:0:0:
137,8,15584,1,2,2:2:0:0:
213,200,15779,1,10,2:2:0:0:
299,22,15974,1,2,2:2:0:0:
103,81,16169,5,2,1:2:0:0:
304,194,16364,1,2,2:2:0:0:
218,16,16558,1,10,2:2:0:0:
123,215,16753,1,2,2:2:0:0:
390,189,16948,5,2,1:2:0:0:
216,106,17143,1,2,2:2:0:0:
219,285,17338,1,10,2:2:0:0:
342,112,17532,6,0,L|347:59,1,45,2|0,2:2|0:0,0:0:0:0:
216,106,17727,2,0,L|218:161,1,45,2|8,1:2|2:2,0:0:0:0:
331,251,17922,1,2,1:2:0:0:
435,76,18117,2,0,L|328:65,1,90,10|0,2:2|0:0,0:0:0:0:
281,26,18409,1,2,0:0:0:0:
281,26,18506,5,6,1:2:0:0:
403,170,18701,1,2,2:2:0:0:
216,106,18896,1,10,2:2:0:0:
380,0,19091,1,2,2:2:0:0:
331,251,19286,5,2,1:2:0:0:
281,26,19480,1,2,2:2:0:0:
499,103,19675,1,10,2:2:0:0:
309,257,19870,6,0,L|322:161,1,90,6|0,1:2|0:0,0:0:0:0:
505,224,20260,2,0,L|514:332,1,90,6|0,1:2|0:0,0:0:0:0:
410,127,20649,5,14,2:2:0:0:
365,330,20844,1,6,1:2:0:0:
321,167,21039,2,0,L|268:151,1,45,0|0,1:1|1:1,0:0:0:0:
265,270,21234,2,0,L|318:254,2,45,8|0|0,2:2|0:0|0:0,0:0:0:0:
108,141,21623,5,6,1:2:0:0:
191,331,21818,1,2,2:2:0:0:
195,105,22013,1,10,2:2:0:0:
103,280,22208,1,2,2:2:0:0:
56,58,22402,5,2,1:2:0:0:
192,229,22597,1,2,2:2:0:0:
255,0,22792,1,10,2:2:0:0:
108,141,22987,1,2,2:2:0:0:
362,89,23182,5,2,1:2:0:0:
151,30,23376,1,2,2:2:0:0:
313,197,23571,1,10,2:2:0:0:
108,141,23766,1,2,2:2:0:0:
255,0,23961,5,2,1:2:0:0:
192,229,24156,1,2,1:2:0:0:
192,229,24253,1,0,1:0:0:0:
192,229,24351,1,10,2:2:0:0:
151,30,24545,1,0,0:0:0:0:
64,300,24740,5,6,1:2:0:0:
230,87,24935,1,2,2:2:0:0:
214,358,25130,5,14,2:2:0:0:
128,119,25325,1,2,2:2:0:0:
310,280,25519,5,10,2:2:0:0:
245,8,25714,1,6,2:2:0:0:
144,325,25909,5,2,3:2:0:0:
313,78,26104,1,6,1:2:0:0:
45,181,26493,5,6,1:2:0:0:
298,374,26883,5,6,1:2:0:0:
226,118,27078,1,14,2:2:0:0:
389,245,27273,1,8,2:2:0:0:
389,245,27370,1,8,2:2:0:0:
389,245,27467,1,8,2:2:0:0:
180,288,27662,1,8,2:2:0:0:
180,288,27760,1,8,2:2:0:0:
180,288,27857,6,0,B|158:214|158:214|178:153,1,135.000005149842,4|10,1:1|2:2,0:0:0:0:
288,52,28441,1,2,2:2:0:0:
288,52,28539,1,2,2:2:0:0:
288,52,28636,2,0,L|361:53,2,67.5000025749208,2|2|8,1:2|2:2|2:2,0:0:0:0:
222,115,29221,1,2,2:2:0:0:
222,115,29318,1,2,2:2:0:0:
222,115,29415,6,0,L|153:115,1,67.5000025749208,0|2,1:1|2:2,0:0:0:0:
23,107,29805,1,10,2:2:0:0:
69,196,30000,1,2,2:2:0:0:
13,93,30195,2,0,L|10:52,2,33.7500012874604,2|0|2,1:2|0:0|2:2,0:0:0:0:
83,216,30584,1,10,2:2:0:0:
83,216,30682,1,2,2:2:0:0:
83,216,30779,2,0,L|75:254,1,33.7500012874604
103,77,30974,5,2,1:2:0:0:
204,121,31169,1,2,2:2:0:0:
252,27,31364,1,10,2:2:0:0:
200,232,31558,2,0,L|197:189,1,33.7500012874604,2|0,2:2|0:0,0:0:0:0:
176,49,31753,5,2,1:2:0:0:
324,219,31948,1,2,2:2:0:0:
331,56,32143,1,10,2:2:0:0:
200,232,32338,1,2,2:2:0:0:
162,28,32532,5,2,1:2:0:0:
273,153,32727,1,2,2:2:0:0:
79,123,32922,1,10,2:2:0:0:
252,27,33117,1,2,2:2:0:0:
252,27,33214,1,2,2:2:0:0:
252,27,33312,2,0,L|243:73,2,33.7500012874604,2|8|2,1:2|2:2|1:2,0:0:0:0:
151,185,33701,2,0,L|145:111,1,67.5000025749208,10|0,2:2|0:0,0:0:0:0:
81,74,33993,1,2,2:2:0:0:
81,74,34091,6,0,P|59:108|65:156,1,67.5000025749208,4|2,1:1|2:2,0:0:0:0:
216,273,34480,2,0,P|238:239|232:191,1,67.5000025749208,10|2,2:2|2:2,0:0:0:0:
151,185,34773,1,2,2:2:0:0:
151,185,34870,2,0,L|69:186,1,67.5000025749208,2|2,1:2|2:2,0:0:0:0:
194,357,35260,1,8,2:2:0:0:
239,212,35454,1,2,2:2:0:0:
239,212,35552,1,2,2:2:0:0:
239,212,35649,6,0,L|238:141,1,67.5000025749208,0|2,1:1|2:2,0:0:0:0:
120,266,36039,2,0,L|121:337,1,67.5000025749208,10|2,2:2|2:2,0:0:0:0:
194,357,36331,1,2,2:2:0:0:
194,357,36428,6,0,L|250:354,1,33.7500012874604,2|0,1:2|0:0,0:0:0:0:
268,282,36623,2,0,L|212:285,1,33.7500012874604,2|0,2:2|0:0,0:0:0:0:
149,169,36818,1,10,2:2:0:0:
304,42,37013,1,2,2:2:0:0:
304,42,37110,1,2,2:2:0:0:
304,42,37208,6,0,L|297:128,1,67.5000025749208,6|2,1:2|2:2,0:0:0:0:
208,13,37597,1,10,2:2:0:0:
390,69,37792,1,2,2:2:0:0:
221,97,37987,5,2,1:2:0:0:
304,42,38182,1,2,2:2:0:0:
271,210,38376,1,10,2:2:0:0:
119,102,38571,6,0,L|250:95,1,101.250003862381,6|0,1:2|0:0,0:0:0:0:
197,173,38961,2,0,L|66:180,1,101.250003862381,6|0,1:2|0:0,0:0:0:0:
70,256,39351,2,0,L|126:253,1,33.7500012874604,6|0,1:2|0:0,0:0:0:0:
178,248,39545,5,14,2:2:0:0:
102,340,39740,2,0,L|94:380,2,33.7500012874604,8|8|8,2:2|2:2|2:2,0:0:0:0:
255,294,40130,1,8,2:2:0:0:
255,294,40227,1,8,2:2:0:0:
255,294,40325,6,0,L|325:287,1,67.5000025749208,6|2,1:2|2:2,0:0:0:0:
386,363,40714,2,0,L|316:370,1,67.5000025749208,10|2,2:2|2:2,0:0:0:0:
434,238,41104,5,2,1:2:0:0:
263,228,41299,1,2,2:2:0:0:
263,228,41396,1,2,2:2:0:0:
263,228,41493,2,0,P|253:257|256:298,1,67.5000025749208,10|2,2:2|2:2,0:0:0:0:
345,232,41883,2,0,P|353:200|348:166,1,67.5000025749208,2|2,1:2|2:2,0:0:0:0:
443,86,42273,5,10,2:2:0:0:
366,36,42467,1,2,2:0:0:0:
366,36,42565,1,2,2:0:0:0:
366,36,42662,2,0,L|315:28,1,33.7500012874604,2|0,1:2|0:0,0:0:0:0:
250,116,42857,2,0,L|283:110,1,33.7500012874604,2|0,2:2|0:0,0:0:0:0:
209,2,43052,1,8,2:2:0:0:
170,207,43247,6,0,B|157:112|157:112|169:71,1,135.000005149842,2|2,2:2|2:2,0:0:0:0:
70,158,43831,2,0,L|-13:148,1,67.5000025749208,10|2,2:2|2:2,0:0:0:0:
31,242,44123,1,2,2:2:0:0:
31,242,44221,2,0,L|114:252,1,67.5000025749208,2|2,1:2|2:2,0:0:0:0:
239,351,44610,1,8,2:2:0:0:
239,351,44708,1,2,2:2:0:0:
239,351,44805,6,0,P|207:340|179:291,1,67.5000025749208,2|0,2:2|1:1,0:0:0:0:
215,217,45195,1,2,2:2:0:0:
108,346,45389,1,8,2:2:0:0:
70,158,45584,1,2,2:2:0:0:
70,158,45682,1,2,2:2:0:0:
70,158,45779,6,0,L|82:112,1,33.7500012874604,2|8,1:2|2:2,0:0:0:0:
171,93,45974,2,0,L|183:139,1,33.7500012874604,2|0,1:2|0:0,0:0:0:0:
298,220,46169,1,10,2:2:0:0:
348,39,46364,1,2,2:2:0:0:
477,142,46558,6,0,B|445:132|417:147|417:147|410:143|410:143|378:162|329:149,2,135.000005149842,6|10|2,1:2|2:2|1:2,0:0:0:0:
512,294,47532,1,0,0:0:0:0:
454,216,47727,1,10,2:2:0:0:
358,326,47922,1,2,2:2:0:0:
358,326,48019,1,2,2:2:0:0:
358,326,48117,6,0,B|389:297|430:315|430:315|439:350|469:362,2,135.000005149842,6|10|2,1:2|2:2|1:2,0:0:0:0:
173,307,49091,1,2,2:2:0:0:
283,210,49286,1,10,2:2:0:0:
268,360,49480,1,2,2:2:0:0:
193,185,49675,6,0,P|216:142|253:127,1,67.5000025749208,6|2,1:2|2:2,0:0:0:0:
230,132,49967,1,2,2:2:0:0:
230,132,50065,1,10,2:2:0:0:
328,275,50260,1,2,2:2:0:0:
328,275,50357,1,2,2:2:0:0:
328,275,50454,1,6,1:2:0:0:
342,83,50649,1,2,2:2:0:0:
278,208,50844,1,8,2:2:0:0:
179,46,51039,6,0,B|243:61|293:33|262:20|307:-15|373:3,1,180,6|2,1:2|1:2,0:0:0:0:
473,140,51623,1,14,2:2:0:0:
342,83,51818,1,10,2:2:0:0:
509,25,52013,1,10,2:2:0:0:
387,210,52208,1,10,2:2:0:0:
387,210,52305,1,8,2:2:0:0:
387,210,52402,1,10,2:2:0:0:
344,0,52597,1,6,1:2:0:0:
197,211,52792,5,2,2:2:0:0:
342,83,52987,1,2,1:2:0:0:
171,25,53182,1,10,2:2:0:0:
295,211,53376,1,2,2:2:0:0:
259,0,53571,5,2,1:2:0:0:
133,151,53766,1,2,2:2:0:0:
342,83,53961,1,10,2:2:0:0:
295,211,54156,1,2,2:2:0:0:
473,116,54351,5,6,1:2:0:0:
450,235,54545,1,2,2:2:0:0:
342,83,54740,1,10,2:2:0:0:
366,266,54935,1,2,2:2:0:0:
251,140,55130,1,2,1:2:0:0:
251,140,55227,1,8,2:2:0:0:
251,140,55325,1,2,1:2:0:0:
130,302,55519,2,0,L|228:276,1,90,10|0,2:2|0:0,0:0:0:0:
217,279,55812,1,2,2:2:0:0:
217,279,55909,5,6,1:2:0:0:
342,83,56104,1,2,2:2:0:0:
316,338,56299,5,14,2:2:0:0:
258,45,56493,1,2,2:2:0:0:
432,301,56688,5,14,2:2:0:0:
156,125,56883,1,6,2:2:0:0:
440,45,57078,5,2,3:2:0:0:
217,279,57273,2,0,B|167:281|167:281|140:270|140:270|70:274,1,135,6|0,1:2|0:0,0:0:0:0:
84,273,57662,6,0,P|71:241|87:200,1,67.5000025749208,6|0,1:2|0:0,0:0:0:0:
156,125,57857,6,0,P|169:157|153:198,1,67.5,6|0,1:2|0:0,0:0:0:0:
67,100,58247,6,0,L|0:101,1,67.5000025749208,14|0,2:2|0:0,0:0:0:0:
37,20,58441,6,0,L|118:18,1,67.5,14|0,2:2|0:0,0:0:0:0:
220,73,58831,6,0,B|274:62|330:87|287:91|347:120|396:96,1,180,6|2,1:2|2:2,0:0:0:0:
234,185,59415,1,10,2:2:0:0:
369,20,59610,1,2,2:2:0:0:
355,250,59805,5,2,1:2:0:0:
283,2,60000,1,2,2:2:0:0:
466,159,60195,1,10,2:2:0:0:
164,130,60389,1,2,2:2:0:0:
392,13,60584,6,0,L|378:79,1,45,2|0,1:2|0:0,0:0:0:0:
251,113,60779,2,0,L|241:68,1,45
383,171,60974,1,8,2:2:0:0:
213,249,61169,6,0,P|208:277|206:309,1,45,2|0,2:2|0:0,0:0:0:0:
349,341,61364,2,0,P|349:315|342:281,1,45,0|0,1:1|2:2,0:0:0:0:
208,381,61558,1,0,1:1:0:0:
208,381,61656,1,2,1:2:0:0:
208,381,61753,1,8,2:2:0:0:
81,114,61948,6,0,B|156:113|156:113|189:128|189:128|281:126,1,180,6|2,1:2|2:2,0:0:0:0:
61,212,62532,1,10,2:2:0:0:
223,45,62727,1,2,2:2:0:0:
151,263,62922,5,2,1:2:0:0:
139,22,63117,1,2,2:2:0:0:
254,237,63312,1,10,2:2:0:0:
25,111,63506,1,2,2:2:0:0:
243,37,63701,6,0,B|249:63|249:63|238:102,1,45,2|0,1:2|0:0,0:0:0:0:
111,154,63896,2,0,B|106:136|106:136|112:110,1,45
254,237,64091,1,8,2:2:0:0:
113,344,64286,6,0,P|133:335|155:333,1,45,2|0,2:2|0:0,0:0:0:0:
264,249,64480,2,0,P|241:247|221:238,1,45,0|0,1:1|2:2,0:0:0:0:
111,154,64675,1,0,1:1:0:0:
111,154,64773,1,2,1:2:0:0:
111,154,64870,1,8,2:2:0:0:
143,260,65065,1,0,0:0:0:0:
293,87,65260,6,0,B|251:58|206:73|206:73|211:67|211:67|166:80|106:42,1,180,6|10,1:2|2:2,0:0:0:0:
32,200,65844,2,0,P|61:161|99:146,1,90,2|0,2:2|1:1,0:0:0:0:
223,231,66234,1,2,2:2:0:0:
132,56,66428,1,8,2:2:0:0:
348,7,66623,6,0,B|377:62|377:62|349:193,1,180,6|2,1:2|2:2,0:0:0:0:
215,113,67208,1,10,2:2:0:0:
305,239,67402,1,2,2:2:0:0:
282,62,67597,5,2,1:2:0:0:
150,165,67792,1,2,1:2:0:0:
344,167,67987,1,10,2:2:0:0:
236,378,68182,1,2,2:2:0:0:
236,378,68279,1,2,2:2:0:0:
236,378,68376,6,0,B|260:268|194:299|224:196,1,180,4|8,1:1|2:2,0:0:0:0:
389,232,68961,2,0,P|348:248|304:238,1,90,2|4,2:2|1:1,0:0:0:0:
215,113,69351,1,2,1:2:0:0:
328,244,69545,1,10,2:2:0:0:
365,49,69740,1,2,2:2:0:0:
219,271,69935,5,14,2:2:0:0:
102,4,70130,1,8,2:3:0:0:
221,284,70325,5,4,2:3:0:0:
368,34,70519,2,0,B|318:51|276:15|276:15|229:-11|178:29,1,180,2|8,3:2|2:3,0:0:0:0:
147,70,71006,1,4,2:3:0:0:
147,70,71104,1,0,3:3:0:0:
298,195,71299,6,0,B|323:227|368:234|400:195|400:195|400:148|362:140,1,180,6|2,1:2|2:2,0:0:0:0:
356,339,71883,1,10,2:2:0:0:
211,234,72078,1,2,2:2:0:0:
418,284,72273,5,2,1:2:0:0:
162,311,72467,1,2,2:2:0:0:
337,153,72662,1,10,2:2:0:0:
229,373,72857,1,2,2:2:0:0:
129,137,73052,6,0,B|123:113|123:113|137:81,1,45,2|0,1:2|0:0,0:0:0:0:
284,213,73247,2,0,B|290:237|290:237|276:269,1,45
162,311,73441,1,8,2:2:0:0:
218,125,73636,6,0,L|274:122,1,45,2|0,2:2|0:0,0:0:0:0:
97,245,73831,2,0,L|41:242,1,45,0|0,1:1|0:0,0:0:0:0:
229,373,74026,1,0,0:0:0:0:
229,373,74123,1,2,1:2:0:0:
229,373,74221,1,8,2:2:0:0:
358,149,74415,6,0,B|362:230|362:230|370:244|370:244|375:351,1,180,6|2,1:2|2:2,0:0:0:0:
446,188,75000,1,10,2:2:0:0:
285,298,75195,1,2,2:2:0:0:
240,119,75389,2,0,L|284:113,1,45,2|0,1:2|0:0,0:0:0:0:
490,194,75584,2,0,L|446:188,1,45,2|0,2:2|0:0,0:0:0:0:
252,224,75779,1,10,2:2:0:0:
445,112,75974,1,2,2:2:0:0:
263,0,76169,6,0,P|270:28|275:56,1,45,6|0,1:2|0:0,0:0:0:0:
355,190,76364,2,0,P|356:164|360:132,1,45
467,11,76558,1,8,2:2:0:0:
284,126,76753,6,0,L|220:115,1,45,6|0,2:2|0:0,0:0:0:0:
385,263,76948,2,0,L|443:258,1,45,0|0,1:1|0:0,0:0:0:0:
244,358,77143,1,8,2:3:0:0:
244,358,77240,1,8,2:3:0:0:
244,358,77338,2,0,P|186:336|109:333,1,135,4|0,2:3|3:3,0:0:0:0:
28,365,77727,6,0,B|13:332|30:288|30:288|75:253|60:178,1,180,6|10,1:2|2:2,0:0:0:0:
213,125,78312,2,0,P|196:160|183:221,1,90,6|0,1:2|0:0,0:0:0:0:
88,87,78701,1,2,1:2:0:0:
88,87,78896,1,8,2:2:0:0:
356,67,79091,6,0,B|313:83|251:67|289:42|233:20|166:41,1,180,6|2,1:2|1:2,0:0:0:0:
177,219,79675,2,0,P|222:196|264:194,1,90,10|10,2:2|2:2,0:0:0:0:
300,275,79967,1,8,2:2:0:0:
301,276,80065,6,0,P|278:302|288:269,1,90,14|4,2:2|2:3,0:0:0:0:
342,194,80357,2,0,P|337:158|296:118,1,90,6|0,2:2|3:3,0:0:0:0:
260,193,80649,1,2,3:2:0:0:
424,308,80844,5,6,1:2:0:0:
465,95,81039,2,0,L|359:75,1,90,0|0,1:1|1:1,0:0:0:0:
89,221,81428,2,0,B|155:210|155:210|174:194|174:194|197:203|197:203|263:192,1,180,14|0,2:2|1:1,0:0:0:0:
324,238,81915,1,0,1:1:0:0:
324,238,82013,1,10,2:2:0:0:
196,74,82208,6,0,B|165:67|145:36|145:36|102:60|36:47,1,135,6|0,1:2|0:0,0:0:0:0:
29,112,82597,2,0,P|36:138|39:165,1,45,14|0,2:2|0:0,0:0:0:0:
0,336,82792,1,14,2:2:0:0:
178,152,82987,1,14,2:2:0:0:
117,381,83182,1,14,2:2:0:0:
47,256,83376,6,0,L|88:248,2,30,0|0|0,1:1|1:1|1:1,0:0:0:0:
41,273,83571,6,0,L|132:253,1,90,8|8,2:2|2:2,0:0:0:0:
195,302,83864,1,8,2:2:0:0:
195,302,83961,5,6,1:2:0:0:
178,152,84156,1,2,2:2:0:0:
289,318,84351,1,10,2:2:0:0:
274,165,84545,1,2,2:2:0:0:
227,381,84740,5,2,1:2:0:0:
369,172,84935,1,2,2:2:0:0:
195,302,85130,1,10,2:2:0:0:
231,79,85325,1,2,2:2:0:0:
333,246,85519,5,2,1:2:0:0:
363,65,85714,1,2,2:2:0:0:
177,149,85909,1,10,2:2:0:0:
346,261,86104,6,0,L|353:313,1,45,2|0,2:2|0:0,0:0:0:0:
170,193,86299,2,0,L|177:141,1,45,2|8,1:2|2:2,0:0:0:0:
349,156,86493,1,2,1:2:0:0:
194,301,86688,2,0,L|87:290,1,90,10|0,2:2|0:0,0:0:0:0:
104,291,86980,1,2,0:0:0:0:
104,291,87078,5,6,1:2:0:0:
247,230,87273,1,2,2:2:0:0:
46,333,87467,1,10,2:2:0:0:
88,142,87662,1,2,2:2:0:0:
170,384,87857,5,2,1:2:0:0:
170,193,88052,1,2,2:2:0:0:
302,324,88247,1,10,2:2:0:0:
254,111,88441,6,0,L|158:98,1,90,6|0,1:2|0:0,0:0:0:0:
247,230,88831,2,0,L|343:217,1,90,6|0,1:2|0:0,0:0:0:0:
488,112,89221,5,14,2:2:0:0:
415,288,89415,1,6,1:2:0:0:
325,147,89610,2,0,L|380:141,1,45,0|0,1:1|1:1,0:0:0:0:
424,304,89805,2,0,L|418:359,2,45,8|0|0,2:2|0:0|0:0,0:0:0:0:
237,228,90195,5,6,1:2:0:0:
467,195,90389,1,2,2:2:0:0:
325,147,90584,1,10,2:2:0:0:
424,304,90779,1,2,2:2:0:0:
388,82,90974,5,2,1:2:0:0:
335,310,91169,1,2,2:2:0:0:
239,147,91364,1,10,2:2:0:0:
467,195,91558,1,2,2:2:0:0:
235,307,91753,5,2,1:2:0:0:
287,64,91948,1,2,2:2:0:0:
378,229,92143,1,10,2:2:0:0:
143,137,92338,1,2,2:2:0:0:
369,125,92532,5,2,1:2:0:0:
126,218,92727,1,2,1:2:0:0:
126,218,92825,1,0,1:0:0:0:
126,218,92922,2,0,L|117:158,1,45,10|4,2:2|2:3,0:0:0:0:
205,24,93117,1,0,3:3:0:0:
303,258,93312,5,6,1:2:0:0:
95,59,93506,1,2,2:2:0:0:
90,325,93701,5,14,2:2:0:0:
286,67,93896,1,2,2:2:0:0:
274,354,94091,5,10,2:2:0:0:
33,154,94286,1,6,2:2:0:0:
353,154,94480,5,2,3:2:0:0:
0,264,94675,1,6,1:2:0:0:
208,87,95065,5,6,1:2:0:0:
274,354,95454,5,6,1:2:0:0:
146,157,95649,1,14,2:2:0:0:
284,263,95844,1,8,2:2:0:0:
284,263,95941,1,8,2:2:0:0:
284,263,96039,1,8,2:2:0:0:
97,233,96234,1,8,2:2:0:0:
97,233,96331,1,8,2:2:0:0:
97,233,96428,5,4,1:2:0:0:
102,245,96818,1,2,2:2:0:0:
200,347,97110,1,2,0:0:0:0:
200,347,97208,1,2,2:2:0:0:
260,141,97792,5,2,2:2:0:0:
256,127,98182,1,2,2:2:0:0:
252,111,98571,1,2,2:2:0:0:
187,46,98766,6,0,L|158:28,2,33.7500012874604,2|0|2,2:2|0:0|2:2,0:0:0:0:
183,184,99156,1,10,2:2:0:0:
183,184,99253,1,2,0:0:0:0:
183,184,99351,6,0,L|164:213,1,33.7500012874604
248,93,99545,5,6,1:2:0:0:
269,193,99740,1,2,2:2:0:0:
329,103,99935,1,10,2:2:0:0:
352,201,100130,2,0,L|360:236,1,33.7500012874604,2|0,2:2|0:0,0:0:0:0:
290,284,100325,5,2,1:2:0:0:
196,263,100519,1,2,2:2:0:0:
211,344,100714,1,10,2:2:0:0:
183,184,100909,1,2,2:2:0:0:
54,316,101104,5,2,1:2:0:0:
196,263,101299,1,2,2:2:0:0:
101,181,101493,1,10,2:2:0:0:
131,303,101688,1,2,2:2:0:0:
131,303,101786,1,2,0:0:0:0:
131,303,101883,2,0,L|144:342,2,33.7500012874604,2|8|2,1:2|2:2|1:2,0:0:0:0:
183,184,102273,2,0,L|255:171,1,67.5000025749208,10|0,2:2|0:0,0:0:0:0:
351,156,102565,1,2,0:0:0:0:
351,156,102662,6,0,B|338:140|317:136|317:136|326:155|326:175,1,67.5000025749208,4|2,1:1|2:2,0:0:0:0:
249,172,103052,2,0,L|182:160,1,67.5000025749208,10|2,2:2|2:2,0:0:0:0:
106,155,103344,1,2,0:0:0:0:
106,155,103441,2,0,P|118:118|156:96,1,67.5000025749208,2|2,1:2|2:2,0:0:0:0:
225,271,103831,1,8,2:2:0:0:
78,243,104026,1,2,2:2:0:0:
78,243,104123,1,2,0:0:0:0:
78,243,104221,6,0,L|166:258,1,67.5000025749208,0|2,1:1|2:2,0:0:0:0:
223,360,104610,2,0,L|135:344,1,67.5000025749208,10|2,2:2|2:2,0:0:0:0:
231,277,104902,1,2,0:0:0:0:
231,277,105000,6,0,L|239:230,1,33.7500012874604,2|8,1:2|2:2,0:0:0:0:
315,304,105195,2,0,L|308:352,1,33.7500012874604,2|0,1:2|0:0,0:0:0:0:
390,233,105389,1,10,2:2:0:0:
238,163,105584,1,2,0:0:0:0:
238,163,105682,1,2,0:0:0:0:
238,163,105779,5,6,1:2:0:0:
344,96,105974,1,2,2:2:0:0:
312,197,106169,1,10,2:2:0:0:
287,45,106364,1,2,2:2:0:0:
398,156,106558,5,2,1:2:0:0:
223,81,106753,1,2,2:2:0:0:
356,11,106948,1,10,2:2:0:0:
507,203,107143,6,0,P|463:233|406:222,1,101.250003862381,6|0,1:2|0:0,0:0:0:0:
398,156,107532,2,0,P|442:126|499:137,1,101.250003862381,6|0,1:2|0:0,0:0:0:0:
340,213,107922,6,0,L|288:205,1,33.7500012874604,6|0,1:2|0:0,0:0:0:0:
238,240,108117,1,14,2:2:0:0:
125,152,108312,2,0,L|121:112,2,33.7500012874604,8|8|8,2:2|2:2|2:2,0:0:0:0:
76,288,108701,1,8,2:2:0:0:
76,288,108799,1,8,2:2:0:0:
76,288,108896,6,0,L|161:274,1,67.5000025749208,6|2,1:2|2:2,0:0:0:0:
193,352,109286,2,0,L|108:366,1,67.5000025749208,10|2,2:2|2:2,0:0:0:0:
13,384,109675,5,2,1:2:0:0:
142,277,109870,1,2,0:0:0:0:
142,277,109967,1,2,0:0:0:0:
142,277,110065,2,0,L|133:206,1,67.5000025749208,10|2,2:2|2:2,0:0:0:0:
16,151,110454,2,0,L|7:222,1,67.5000025749208,2|2,1:2|2:2,0:0:0:0:
126,104,110844,5,10,2:2:0:0:
33,13,111039,1,2,0:0:0:0:
33,13,111136,1,2,0:0:0:0:
33,13,111234,2,0,L|28:55,1,33.7500012874604,2|0,1:2|0:0,0:0:0:0:
126,104,111428,2,0,L|121:62,1,33.7500012874604,2|0,2:2|0:0,0:0:0:0:
228,13,111623,1,8,2:2:0:0:
306,147,111818,6,0,B|361:141|361:141|377:146|377:146|446:140,1,135.000005149842,2|2,2:2|2:2,0:0:0:0:
410,1,112402,2,0,B|393:30|393:30|396:86,1,67.5000025749208,10|2,2:2|2:2,0:0:0:0:
439,140,112695,1,2,0:0:0:0:
439,140,112792,2,0,L|520:133,1,67.5000025749208,2|2,1:2|2:2,0:0:0:0:
310,210,113182,1,8,2:2:0:0:
310,210,113279,1,2,0:0:0:0:
310,210,113376,6,0,P|298:178|319:131,1,67.5000025749208,2|0,2:2|1:1,0:0:0:0:
394,63,113766,1,2,2:2:0:0:
375,177,113961,1,8,2:2:0:0:
282,43,114156,1,2,2:2:0:0:
282,43,114253,1,2,0:0:0:0:
282,43,114351,6,0,L|321:29,1,33.7500012874604,2|8,1:2|2:2,0:0:0:0:
305,146,114545,2,0,L|266:132,1,33.7500012874604,2|0,1:2|0:0,0:0:0:0:
173,51,114740,1,10,2:2:0:0:
198,200,114935,1,2,2:2:0:0:
58,50,115130,6,0,B|98:47|117:22|117:22|172:19|176:66,2,135.000005149842,6|10|2,1:2|2:2|1:2,0:0:0:0:
65,159,116104,1,0,0:0:0:0:
215,121,116299,1,10,2:2:0:0:
163,269,116493,1,2,2:2:0:0:
163,269,116591,1,2,0:0:0:0:
163,269,116688,6,0,B|130:289|97:275|97:275|70:250|31:259,2,135.000005149842,6|10|2,1:2|2:2|1:2,0:0:0:0:
255,328,117662,1,2,2:2:0:0:
259,223,117857,1,10,2:2:0:0:
372,296,118052,1,2,2:2:0:0:
367,161,118247,6,0,L|297:151,1,67.5000025749208,6|2,1:2|2:2,0:0:0:0:
300,151,118539,1,2,2:2:0:0:
300,151,118636,1,10,2:2:0:0:
443,243,118831,1,2,2:2:0:0:
443,243,118928,1,2,0:0:0:0:
443,243,119026,1,6,1:2:0:0:
425,83,119221,1,2,2:2:0:0:
300,151,119415,1,8,2:2:0:0:
470,335,119610,6,0,B|481:289|454:252|454:252|445:248|445:248|412:214|424:160,1,180,6|10,1:2|2:2,0:0:0:0:
334,268,120195,1,14,2:2:0:0:
506,183,120389,1,2,1:2:0:0:
345,89,120584,1,2,1:2:0:0:
420,228,120779,1,10,2:2:0:0:
420,228,120876,1,8,2:2:0:0:
420,228,120974,1,10,2:2:0:0:
440,43,121169,1,6,1:2:0:0:
272,179,121364,5,2,2:2:0:0:
469,114,121558,1,2,1:2:0:0:
273,40,121753,1,10,2:2:0:0:
420,228,121948,1,2,2:2:0:0:
360,9,122143,5,2,1:2:0:0:
320,251,122338,1,2,2:2:0:0:
230,113,122532,1,10,2:2:0:0:
377,166,122727,1,2,2:2:0:0:
203,212,122922,5,6,1:2:0:0:
315,118,123117,1,2,2:2:0:0:
242,286,123312,1,10,2:2:0:0:
158,146,123506,1,2,2:2:0:0:
320,251,123701,1,2,1:2:0:0:
320,251,123799,1,2,0:0:0:0:
320,251,123896,1,2,2:2:0:0:
380,69,124091,2,0,P|343:40|286:48,1,90,10|0,2:2|0:0,0:0:0:0:
235,78,124383,1,2,0:0:0:0:
235,78,124480,5,6,1:2:0:0:
135,244,124675,1,2,2:2:0:0:
110,22,124870,5,14,2:2:0:0:
216,252,125065,1,2,2:2:0:0:
236,3,125260,5,14,2:2:0:0:
55,235,125454,1,6,2:2:0:0:
301,40,125649,5,2,3:2:0:0:
372,352,125844,2,0,B|306:362|306:362|231:338,1,135,6|0,1:2|0:0,0:0:0:0:
270,266,126234,6,0,B|265:232|265:232|278:196,1,67.5000025749208,6|0,1:2|0:0,0:0:0:0:
359,209,126428,6,0,B|364:243|364:243|351:279,1,67.5000025749208,6|0,1:2|0:0,0:0:0:0:
280,346,126818,6,0,P|250:347|219:329,1,67.5000025749208,14|0,2:2|0:0,0:0:0:0:
208,248,127013,6,0,P|238:247|269:265,1,67.5000025749208,14|0,2:2|0:0,0:0:0:0:
115,209,127402,6,0,B|93:260|121:323|125:280|154:340|130:389,1,180,6|2,1:2|2:2,0:0:0:0:
0,267,127987,1,10,2:2:0:0:
208,248,128182,1,2,2:2:0:0:
37,123,128376,5,2,1:2:0:0:
54,352,128571,1,2,2:2:0:0:
185,143,128766,1,10,2:2:0:0:
210,373,128961,1,2,2:2:0:0:
340,157,129156,6,0,L|326:223,1,45,2|0,1:2|0:0,0:0:0:0:
199,273,129351,2,0,L|189:228,1,45
337,320,129545,1,8,2:2:0:0:
254,172,129740,6,0,L|262:127,1,45,2|0,2:2|0:0,0:0:0:0:
407,192,129935,2,0,L|415:236,1,45,0|0,1:1|2:2,0:0:0:0:
326,81,130130,1,0,1:1:0:0:
326,81,130227,1,2,1:2:0:0:
326,81,130325,1,8,2:2:0:0:
199,273,130519,6,0,B|169:257|126:269|126:269|109:262|109:262|72:277|5:258,1,180,6|2,1:2|2:2,0:0:0:0:
131,179,131104,1,10,2:2:0:0:
13,342,131299,1,2,2:2:0:0:
36,124,131493,5,2,1:2:0:0:
124,364,131688,1,2,2:2:0:0:
231,153,131883,1,10,2:2:0:0:
23,262,132078,1,2,2:2:0:0:
237,344,132273,6,0,B|242:297,1,45,2|0,1:2|0:0,0:0:0:0:
131,179,132467,2,0,B|136:226,1,45
302,206,132662,1,8,2:2:0:0:
162,80,132857,6,0,P|177:57|210:48,1,45,2|0,2:2|0:0,0:0:0:0:
337,131,133052,2,0,P|311:125|290:102,1,45,0|0,1:1|2:2,0:0:0:0:
294,7,133247,1,0,1:1:0:0:
294,7,133344,1,2,1:2:0:0:
294,7,133441,1,8,2:2:0:0:
410,199,133636,1,0,0:0:0:0:
512,8,133831,6,0,B|466:0|433:33|433:33|398:69|328:57,1,180,6|10,1:2|2:2,0:0:0:0:
496,182,134415,2,0,L|501:90,1,90,2|0,2:2|1:1,0:0:0:0:
293,208,134805,1,2,2:2:0:0:
347,60,135000,1,8,2:2:0:0:
457,257,135195,6,0,B|454:295|405:296|405:296|403:304|403:304|376:290|332:292|299:306,1,180,6|2,1:2|2:2,0:0:0:0:
393,178,135779,1,10,2:2:0:0:
232,256,135974,1,2,2:2:0:0:
284,113,136169,5,2,1:2:0:0:
314,352,136364,1,2,1:2:0:0:
191,179,136558,1,10,2:2:0:0:
137,364,136753,1,2,2:2:0:0:
137,364,136851,1,2,0:0:0:0:
137,364,136948,6,0,B|214:365|214:365|237:352|237:352|319:352,1,180,4|8,1:1|2:2,0:0:0:0:
371,197,137532,2,0,P|330:213|313:267,1,90,2|4,2:2|1:1,0:0:0:0:
428,348,137922,1,2,2:2:0:0:
454,164,138117,1,10,2:2:0:0:
313,352,138312,1,2,2:2:0:0:
257,116,138506,5,14,2:2:0:0:
493,273,138701,1,8,2:3:0:0:
388,38,138896,5,4,2:3:0:0:
245,287,139091,2,0,B|269:254|315:263|315:263|372:298|428:246,1,180,2|0,3:2|1:1,0:0:0:0:
462,206,139578,1,0,1:1:0:0:
462,206,139675,1,0,1:1:0:0:
341,87,139870,6,0,B|259:88|306:28|225:12|204:67|233:107|286:93|302:74,1,180,6|2,1:2|2:2,0:0:0:0:
288,241,140454,1,10,2:2:0:0:
466,136,140649,1,2,2:2:0:0:
371,313,140844,5,2,1:2:0:0:
341,87,141039,1,2,2:2:0:0:
193,289,141234,1,10,2:2:0:0:
227,63,141428,1,2,2:2:0:0:
76,202,141623,6,0,B|129:190,1,45,2|0,1:2|0:0,0:0:0:0:
236,298,141818,2,0,B|183:286,1,45
82,344,142013,1,8,2:2:0:0:
209,147,142208,6,0,P|222:176|221:193,1,45,2|0,2:2|0:0,0:0:0:0:
79,325,142402,2,0,P|80:302|91:283,1,45,0|0,1:1|0:0,0:0:0:0:
236,381,142597,1,0,0:0:0:0:
236,381,142695,1,2,1:2:0:0:
236,381,142792,1,8,2:2:0:0:
399,274,142987,6,0,B|364:262|364:262|289:308|289:308|225:295,1,180,6|2,1:2|2:2,0:0:0:0:
410,357,143571,1,10,2:2:0:0:
392,185,143766,1,2,2:2:0:0:
235,297,143961,2,0,L|181:285,1,45,2|0,1:2|0:0,0:0:0:0:
316,156,144156,1,2,2:2:0:0:
316,156,144253,1,2,1:2:0:0:
316,156,144351,1,10,2:2:0:0:
311,321,144545,1,2,2:2:0:0:
200,172,144740,6,0,P|192:146|199:122,1,45,6|0,1:2|0:0,0:0:0:0:
311,113,144935,2,0,P|319:139|312:163,1,45
209,53,145130,1,8,2:2:0:0:
113,219,145325,6,0,L|49:208,1,45,6|0,2:2|0:0,0:0:0:0:
190,305,145519,2,0,L|244:294,1,45,0|0,1:1|0:0,0:0:0:0:
48,373,145714,1,8,2:3:0:0:
48,373,145812,1,8,2:3:0:0:
48,373,145909,2,0,P|42:347|45:313,1,45,4|4,2:3|2:3,0:0:0:0:
113,219,146104,1,0,3:3:0:0:
113,219,146201,1,0,3:3:0:0:
113,219,146299,6,0,B|171:210|171:210|190:219|190:219|220:235|267:210|256:166,1,180,6|10,1:2|2:2,0:0:0:0:
208,60,146883,2,0,B|182:71|176:95|176:95|194:76|223:77,1,90,6|0,1:2|0:0,0:0:0:0:
348,179,147273,1,2,1:2:0:0:
286,25,147467,1,8,2:2:0:0:
485,112,147662,6,0,B|461:133|427:126|407:108|407:108|407:103|407:103|381:83|347:79|318:104,1,180,6|2,1:2|1:2,0:0:0:0:
309,253,148247,2,0,P|340:222|345:166,1,90,10|10,2:2|2:2,0:0:0:0:
266,189,148539,1,8,2:2:0:0:
266,189,148636,6,0,L|165:187,1,90,14|4,2:2|2:3,0:0:0:0:
305,115,148928,2,0,P|273:145|269:202,1,90,6|0,2:2|3:3,0:0:0:0:
317,260,149221,1,2,3:2:0:0:
407,73,149415,5,6,1:2:0:0:
504,246,149610,2,0,B|459:254|459:254|419:231,1,90,0|0,1:1|1:1,0:0:0:0:
197,363,150000,2,0,B|230:335|269:355|269:355|312:368|353:348|355:312,1,180,14|0,2:2|1:1,0:0:0:0:
317,260,150487,1,0,1:1:0:0:
317,260,150584,1,10,2:2:0:0:
216,56,150779,6,0,B|198:92|219:124|219:124|254:131|269:172,1,135,6|0,1:2|0:0,0:0:0:0:
187,238,151169,2,0,L|195:191,1,45,10|0,2:2|0:0,0:0:0:0:
355,120,151364,1,10,2:2:0:0:
251,315,151558,1,10,2:2:0:0:
228,74,151753,1,10,2:2:0:0:
430,222,151948,6,0,L|465:212,2,30,0|0|0,1:1|1:1|1:1,0:0:0:0:
414,213,152143,6,0,L|511:190,1,90,8|8,2:2|2:2,0:0:0:0:
512,118,152435,1,8,2:2:0:0:
512,118,152532,6,0,B|459:105|459:105|452:98|452:98|357:75,1,135.000005149842,6|10,1:2|2:2,0:0:0:0:
262,41,153117,2,0,B|293:64|301:97|283:94|295:135|337:163,1,135.000005149842,2|2,2:2|2:2,0:0:0:0:
211,110,153701,1,8,2:2:0:0:
76,114,153896,6,0,B|214:109,1,135.000005149842,6|2,2:2|2:2,0:0:0:0:
251,180,154480,1,10,2:2:0:0:
212,246,154675,1,2,2:2:0:0:
212,246,154773,1,2,0:0:0:0:
212,246,154870,1,0,1:1:0:0:
91,135,155065,2,0,L|94:176,1,33.7500012874604,2|0,1:2|0:0,0:0:0:0:
96,240,155260,1,14,2:2:0:0:
181,328,155454,1,2,2:2:0:0:
181,328,155552,1,2,0:0:0:0:
181,328,155649,6,0,P|245:332|290:261,1,135.000005149842,6|10,1:2|2:2,0:0:0:0:
200,179,156234,2,0,L|216:271,1,67.5000025749208,2|0,2:2|1:1,0:0:0:0:
368,167,156623,1,2,2:2:0:0:
287,281,156818,1,10,2:2:0:0:
309,108,157013,6,0,B|251:103|251:103|241:99|241:99|158:93,1,135.000005149842,6|0,1:2|0:0,0:0:0:0:
26,188,157597,2,0,P|60:197|97:214,1,67.5000025749208,14|0,2:2|0:0,0:0:0:0:
222,281,157987,2,0,B|254:265|288:256,1,67.5000025749208,14|0,2:2|0:0,0:0:0:0:
113,73,158376,2,0,P|154:99|166:130,1,67.5000025749208,14|0,2:2|0:0,0:0:0:0:
22,322,158766,6,0,L|26:170,1,135.000005149842,6|8,1:2|2:2,0:0:0:0:
163,115,159351,1,2,2:2:0:0:
163,115,159448,1,2,0:0:0:0:
163,115,159545,2,0,P|144:138|109:149,1,67.5000025749208,2|2,1:2|2:2,0:0:0:0:
28,71,159935,1,10,2:2:0:0:
219,31,160130,6,0,P|259:87|237:176,1,135.000005149842,6|2,1:2|1:2,0:0:0:0:
163,115,160714,1,10,2:2:0:0:
246,237,160909,2,0,B|292:238|325:208|300:205|341:175|376:187,1,135.000005149842,6|0,1:2|1:1,0:0:0:0:
423,230,161396,1,0,0:0:0:0:
426,270,161493,1,8,2:3:0:0:
403,303,161591,1,4,2:3:0:0:
362,304,161688,1,0,3:3:0:0:
200,212,161883,6,0,B|171:218|142:190|142:190|119:222|68:224,1,135,6|0,1:2|0:0,0:0:0:0:
19,179,162273,1,10,2:2:0:0:
76,302,162467,1,6,1:2:0:0:
76,302,162565,1,0,1:0:0:0:
76,302,162662,1,2,1:2:0:0:
135,160,162857,1,2,1:2:0:0:
135,160,162954,1,0,1:1:0:0:
135,160,163052,1,8,2:2:0:0:
239,285,163247,6,0,B|308:289|308:289|326:298|326:298|390:301,1,135,6|0,1:2|0:0,0:0:0:0:
394,284,163636,1,2,1:2:0:0:
342,216,163831,1,14,2:2:0:0:
284,370,164026,1,10,2:2:0:0:
454,357,164221,1,10,2:2:0:0:
454,357,164318,1,4,2:3:0:0:
454,357,164415,1,2,3:2:0:0:
342,216,164610,1,2,1:2:0:0:
442,91,164805,1,0,1:1:0:0:
442,91,164902,1,0,1:1:0:0:
442,91,165000,5,6,1:2:0:0:
332,230,165195,1,2,2:2:0:0:
305,107,165389,1,10,2:2:0:0:
419,173,165584,1,2,2:2:0:0:
226,127,165779,1,2,1:2:0:0:
192,285,165974,1,2,2:2:0:0:
332,230,166169,1,8,2:2:0:0:
109,252,166364,6,0,P|193:286|192:371,1,180,6|2,1:2|2:2,0:0:0:0:
271,242,166948,1,10,2:2:0:0:
131,164,167143,1,2,2:2:0:0:
131,164,167240,1,2,0:0:0:0:
130,164,167338,2,0,P|175:165|222:191,1,90,2|0,1:2|0:0,0:0:0:0:
419,331,167727,2,0,B|410:246|410:246|404:278|375:290,1,135,14|0,2:2|0:0,0:0:0:0:
305,321,168117,6,0,B|241:318|241:318|227:309|227:309|125:301,1,168.75,14|0,2:2|0:0,0:0:0:0:
227,86,168506,2,0,B|256:142|256:142|255:159|255:159|299:251,1,168.75,12|0,2:1|0:0,0:0:0:0:
98,212,168896,2,0,B|114:189|114:189|125:184|125:184|151:139,1,56.25,12|0,2:1|0:0,0:0:0:0:
225,5,169091,2,0,B|186:2|160:31|160:31|144:28|144:28|112:57|61:44,1,168.75,12|0,2:1|3:3,0:0:0:0:
13,113,169480,6,0,P|12:152|35:119,1,101.250003862381,14|0,2:2|0:0,0:0:0:0:
98,212,169870,6,0,L|173:206,1,67.5000025749208,14|0,2:2|0:0,0:0:0:0:
236,117,170065,6,0,L|169:122,1,67.5,14|0,2:2|0:0,0:0:0:0:
264,251,170454,6,0,P|283:219|253:171,1,67.5000025749208,14|0,2:2|0:0,0:0:0:0:
248,56,170649,6,0,P|229:88|259:136,1,67.5000025749208,14|0,2:2|0:0,0:0:0:0:
387,230,171039,6,0,B|387:166|447:198|467:146|467:94|431:46|367:94|359:34|359:34|339:91|294:96|220:96|168:78|150:25|150:25|107:132|139:195|181:185|179:242|179:242|315:246|315:246|320:186|354:201|385:138|354:85,1,1062,6|0,2:2|0:0,0:0:0:0:
268,161,176883,6,0,P|247:161|199:149,1,45,2|0,0:0|0:0,0:0:0:0:
238,10,177078,2,0,P|257:14|304:10,1,45,10|8,2:2|2:3,0:0:0:0:
143,77,177273,1,4,2:3:0:0:
143,77,177370,1,0,3:3:0:0:
143,77,177467,6,0,B|96:83|68:63|68:63|58:71|58:71|3:79|-7:151,1,180,6|10,1:2|2:2,0:0:0:0:
87,266,178052,2,0,B|48:275|48:275|40:273|40:273|-6:284,1,90,2|0,2:2|1:1,0:0:0:0:
147,182,178441,1,2,2:2:0:0:
106,352,178636,1,8,2:2:0:0:
341,313,178831,6,0,B|322:283|275:278|275:278|236:327|157:304,1,180,6|2,1:2|2:2,0:0:0:0:
66,178,179415,1,10,2:2:0:0:
106,352,179610,1,2,2:2:0:0:
230,112,179805,5,2,1:2:0:0:
87,266,180000,1,2,1:2:0:0:
325,238,180195,1,10,2:2:0:0:
151,148,180389,1,2,2:2:0:0:
151,148,180487,1,2,0:0:0:0:
151,148,180584,6,0,B|261:177|237:107|334:130,1,180,4|8,1:1|2:2,0:0:0:0:
395,287,181169,2,0,P|360:276|323:234,1,90,2|4,2:2|1:1,0:0:0:0:
436,172,181558,1,2,1:2:0:0:
248,323,181753,1,10,2:2:0:0:
324,127,181948,1,2,2:2:0:0:
446,364,182143,5,14,2:2:0:0:
425,73,182338,1,8,2:3:0:0:
326,384,182532,5,4,2:3:0:0:
170,89,182727,2,0,B|281:52|281:52|245:68|235:117,1,180,6|8,3:2|2:3,0:0:0:0:
263,172,183214,1,4,2:3:0:0:
263,172,183312,1,0,3:3:0:0:
144,330,183506,6,0,B|135:300|98:287|98:287|69:313|26:312|26:312|14:295|-1:288,1,180,6|2,1:2|2:2,0:0:0:0:
164,184,184091,1,10,2:2:0:0:
217,379,184286,1,2,2:2:0:0:
240,104,184480,5,2,1:2:0:0:
144,330,184675,1,2,2:2:0:0:
78,162,184870,1,10,2:2:0:0:
291,256,185065,1,2,2:2:0:0:
188,84,185260,6,0,B|138:78,1,45,2|0,1:2|0:0,0:0:0:0:
52,250,185454,2,0,B|102:244,1,45
157,158,185649,1,8,2:2:0:0:
291,255,185844,6,0,P|297:234|294:212,1,45,2|0,2:2|0:0,0:0:0:0:
135,327,186039,2,0,P|128:348|129:372,1,45,0|0,1:1|0:0,0:0:0:0:
243,158,186234,1,0,0:0:0:0:
243,158,186331,1,2,1:2:0:0:
243,158,186428,1,8,2:2:0:0:
389,369,186623,6,0,B|308:365|308:365|294:357|294:357|187:352,1,180,6|2,1:2|2:2,0:0:0:0:
315,237,187208,1,10,2:2:0:0:
135,327,187402,1,2,2:2:0:0:
117,137,187597,2,0,L|161:131,1,45,2|0,1:2|0:0,0:0:0:0:
227,228,187792,2,0,L|183:222,1,45,2|0,2:2|0:0,0:0:0:0:
56,316,187987,1,10,2:2:0:0:
32,117,188182,1,2,2:2:0:0:
234,150,188376,6,0,P|253:132|255:111,1,45,6|0,1:2|0:0,0:0:0:0:
109,11,188571,2,0,P|115:36|132:48,1,45
271,5,188766,1,8,2:2:0:0:
97,212,188961,6,0,L|104:259,1,45,6|0,2:2|0:0,0:0:0:0:
307,208,189156,2,0,L|314:161,1,45,0|0,1:1|0:0,0:0:0:0:
187,354,189351,1,8,2:3:0:0:
187,354,189448,1,8,2:3:0:0:
187,354,189545,2,0,B|147:351|147:351|134:342|134:342|82:339,1,90,4|0,2:3|3:3,0:0:0:0:
19,308,189838,1,0,3:3:0:0:
19,308,189935,6,0,B|22:272|-4:237|-4:237|12:186|51:170|95:190,1,180,6|10,1:2|2:2,0:0:0:0:
229,199,190519,2,0,B|243:245|243:245|219:319,1,90,6|0,1:2|0:0,0:0:0:0:
351,146,190909,1,2,1:2:0:0:
351,146,191104,1,8,2:2:0:0:
118,51,191299,6,0,B|148:64|189:55|189:55|218:69|218:69|257:54|302:83,1,180,6|2,1:2|1:2,0:0:0:0:
229,199,191883,2,0,L|117:181,1,90,10|10,2:2|2:2,0:0:0:0:
67,185,192175,1,8,2:2:0:0:
67,185,192273,6,0,P|47:220|67:270,1,90,14|4,2:2|2:3,0:0:0:0:
134,264,192565,2,0,P|154:229|134:179,1,90,6|0,2:2|3:3,0:0:0:0:
52,167,192857,1,2,3:2:0:0:
176,347,193052,5,6,1:2:0:0:
229,199,193247,2,0,P|180:193|126:179,1,90,0|0,1:1|1:1,0:0:0:0:
295,50,193636,2,0,B|351:51|377:83|377:83|395:131|446:139,1,180,14|0,2:2|1:1,0:0:0:0:
479,129,194123,1,0,1:1:0:0:
479,129,194221,1,10,2:2:0:0:
416,342,194415,6,0,B|351:348|351:348|288:311,1,135,6|0,1:2|0:0,0:0:0:0:
195,376,194805,2,0,L|250:365,1,45,14|0,2:2|0:0,0:0:0:0:
365,274,195000,1,14,2:2:0:0:
125,137,195195,1,14,2:2:0:0:
334,51,195389,6,0,L|314:166,1,90,14|0,2:2|1:1,0:0:0:0:
265,196,195682,1,0,1:1:0:0:
265,196,195779,1,8,2:2:0:0:
66,76,195974,1,8,2:2:0:0:
66,76,196071,1,8,2:2:0:0:
66,76,196169,6,0,B|97:44|146:41|121:57|169:60|190:16,1,135,6|0,1:2|0:0,0:0:0:0:
192,6,196558,1,10,2:2:0:0:
94,199,196753,2,0,P|58:182|-2:178,1,90,6|0,1:2|0:0,0:0:0:0:
195,126,197143,1,2,1:2:0:0:
87,297,197338,1,8,2:2:0:0:
271,340,197532,6,0,B|260:306|279:266|288:304|309:248|275:207|275:207|271:236|240:258,1,180,6|0,1:2|1:1,0:0:0:0:
189,229,198019,1,2,0:0:0:0:
189,229,198117,1,8,2:2:0:0:
397,288,198312,1,8,2:2:0:0:
397,288,198409,1,8,2:2:0:0:
397,288,198506,6,0,B|418:237|418:237|402:196,1,90,14|4,2:2|2:3,0:0:0:0:
320,143,198799,2,0,B|299:194|299:194|315:235,1,90,6|0,2:2|3:3,0:0:0:0:
410,115,199091,1,2,3:2:0:0:
227,293,199286,6,0,P|174:305|111:248,1,135,6|0,1:2|0:0,0:0:0:0:
82,190,199675,1,0,1:1:0:0:
255,66,199870,2,0,B|262:122|221:162|223:124|181:171|193:239,1,180,14|0,2:2|1:1,0:0:0:0:
56,31,200454,2,0,L|158:15,1,90,14|0,2:2|1:1,0:0:0:0:
287,217,200844,5,14,2:2:0:0:
32,111,201039,1,4,2:3:0:0:
287,0,201234,1,0,3:3:0:0:
132,262,201428,2,0,L|126:101,1,135,14|0,2:2|0:0,0:0:0:0:
205,92,201818,1,0,1:1:0:0:
205,92,201915,1,0,1:1:0:0:
205,92,202013,2,0,L|209:152,1,45,10|0,2:2|0:0,0:0:0:0:
410,182,202208,6,0,P|392:119|305:109,1,135,6|0,1:2|0:0,0:0:0:0:
276,157,202597,1,10,2:2:0:0:
403,363,202792,1,10,2:2:0:0:
483,138,202987,1,2,3:2:0:0:
346,225,203182,1,4,1:1:0:0:
328,6,203376,5,10,2:2:0:0:
425,286,203571,1,10,2:2:0:0:
502,0,203766,1,2,3:2:0:0:
184,183,204156,5,14,2:2:0:0:
502,353,204351,1,14,2:2:0:0:
470,98,204545,5,14,2:2:0:0:
243,339,204740,1,14,2:2:0:0:
115,165,204935,6,0,L|157:158,2,30,0|0|0,1:1|1:1|1:1,0:0:0:0:
98,153,205130,6,0,L|198:140,1,90,12|8,2:1|2:2,0:0:0:0:
226,80,205422,1,8,2:2:0:0:
226,80,205519,5,6,1:2:0:0:
210,253,205714,1,2,2:2:0:0:
328,114,205909,1,10,2:2:0:0:
124,177,206104,1,2,2:2:0:0:
362,263,206299,5,2,1:2:0:0:
297,33,206493,1,2,2:2:0:0:
211,254,206688,1,10,2:2:0:0:
436,147,206883,1,2,2:2:0:0:
310,333,207078,5,2,1:2:0:0:
216,106,207273,1,2,2:2:0:0:
362,263,207467,1,10,2:2:0:0:
368,80,207662,6,0,L|320:77,1,45,2|0,2:2|0:0,0:0:0:0:
260,171,207857,2,0,L|312:174,1,45,2|8,1:2|2:2,0:0:0:0:
362,263,208052,1,2,1:2:0:0:
457,85,208247,2,0,L|346:78,1,90,10|0,2:2|0:0,0:0:0:0:
297,77,208539,1,2,0:0:0:0:
297,77,208636,5,6,1:2:0:0:
423,207,208831,1,2,2:2:0:0:
333,5,209026,1,10,2:2:0:0:
257,218,209221,1,2,2:2:0:0:
164,10,209415,5,2,1:2:0:0:
303,153,209610,1,2,2:2:0:0:
86,88,209805,1,10,2:2:0:0:
284,51,210000,6,0,L|274:144,1,90,6|0,1:2|0:0,0:0:0:0:
107,257,210389,2,0,L|97:164,1,90,6|0,1:2|0:0,0:0:0:0:
257,218,210779,5,14,2:2:0:0:
86,88,210974,1,6,1:2:0:0:
249,28,211169,2,0,L|243:83,1,45,2|2,1:2|2:2,0:0:0:0:
107,257,211364,2,0,L|101:204,2,45,10|0|0,2:2|0:0|0:0,0:0:0:0:
251,143,211753,5,6,1:2:0:0:
189,337,211948,1,2,2:2:0:0:
169,118,212143,1,10,2:2:0:0:
267,295,212338,1,2,2:2:0:0:
337,72,212532,5,2,1:2:0:0:
196,242,212727,1,2,2:2:0:0:
415,291,212922,1,10,2:2:0:0:
251,143,213117,1,2,2:2:0:0:
449,112,213312,5,2,1:2:0:0:
330,355,213506,1,2,2:2:0:0:
251,143,213701,1,10,2:2:0:0:
415,291,213896,1,2,2:2:0:0:
203,364,214091,5,2,1:2:0:0:
369,197,214286,1,2,1:2:0:0:
369,197,214383,1,0,1:2:0:0:
369,197,214480,1,10,2:2:0:0:
148,232,214675,1,0,3:3:0:0:
405,364,214870,5,6,1:2:0:0:
236,60,215065,1,2,2:2:0:0:
203,364,215260,5,14,2:2:0:0:
320,55,215454,1,2,2:2:0:0:
320,55,215552,1,2,1:2:0:0:
320,55,215649,5,10,2:2:0:0:
42,193,215844,1,6,2:2:0:0:
314,303,216039,5,2,3:2:0:0:
136,8,216234,1,6,1:2:0:0:
388,177,216623,5,6,1:2:0:0:
99,320,217013,6,0,L|98:253,1,45,6|0,1:2|0:0,0:0:0:0:
376,168,217208,6,0,L|377:235,1,45,14|0,2:2|0:0,0:0:0:0:
