osu file format v14

[General]
AudioFilename: No Poi!.mp3
AudioLeadIn: 0
PreviewTime: 60489
Countdown: 0
SampleSet: Normal
StackLeniency: 0.7
Mode: 1
LetterboxInBreaks: 0
WidescreenStoryboard: 0

[Editor]
DistanceSpacing: 1
BeatDivisor: 4
GridSize: 32
TimelineZoom: 1.6

[Metadata]
Title:No Poi!
TitleUnicode:ノーポイッ!
Artist:Petit Rabbit's
ArtistUnicode:Petit Rabbit's
Creator:walaowey
Version:tasuke's Oni
Source:ご注文はうさぎですか??
Tags:Gochuumon wa Usagi Desu ka? GochiUsa Is the Order a Rabbit? Season 2 Opening [Sc4v4ng3r] Sc4v4ng3r ffstar0716 [ -Scarlet- ] Kagari CLSW crystalseed Minato Yukina tasuke912 Chino Kafū Kafuu Kafu Cocoa Hoto Rize Tedeza Chiya Ujimatsu Syaro Kirima sakura ayane 佐倉綾音 保登心愛 ココア minase inori 水瀬いのり 香風智乃 チノ taneda risa 種田梨沙 天々座理世 リゼ satou satomi 佐藤聡美 宇治松千夜 uchida maaya 内田真礼 桐間紗路 シャロ
BeatmapID:849007
BeatmapSetID:378094

[Difficulty]
HPDrainRate:6
CircleSize:5
OverallDifficulty:6
ApproachRate:5
SliderMultiplier:1.4
SliderTickRate:1

[Events]
//Background and Video events
0,0,"bg.png",0,40
//Break Periods
//Storyboard Layer 0 (Background)
//Storyboard Layer 1 (Fail)
//Storyboard Layer 2 (Pass)
//Storyboard Layer 3 (Foreground)
//Storyboard Sound Samples

[TimingPoints]
405,379.746835443038,4,1,0,65,1,0
4867,-100,4,1,0,50,0,0
6196,-100,4,1,0,80,0,0
6291,-100,4,1,0,85,0,0
18158,-100,4,1,0,70,0,0
55088,-100,4,1,0,80,0,0
61164,-100,4,1,0,85,0,1
86987,-100,4,1,0,80,0,1
88411,-100,4,1,0,50,0,1
88506,-100,4,1,0,50,0,0

[HitObjects]
256,192,405,5,2,0:0:0:0:
256,192,784,1,0,0:0:0:0:
256,192,974,1,2,0:0:0:0:
256,192,1354,1,0,0:0:0:0:
256,192,1734,1,2,0:0:0:0:
256,192,2113,1,2,0:0:0:0:
256,192,2493,1,2,0:0:0:0:
256,192,2683,1,2,0:0:0:0:
256,192,3063,1,0,0:0:0:0:
256,192,3442,1,2,0:0:0:0:
256,192,4202,1,2,0:0:0:0:
256,192,4582,1,2,0:0:0:0:
256,192,4961,12,0,6101,0:0:0:0:
256,192,6291,5,6,0:0:0:0:
256,192,6670,1,0,0:0:0:0:
256,192,6860,1,2,0:0:0:0:
256,192,7050,1,0,0:0:0:0:
256,192,7145,1,0,0:0:0:0:
256,192,7240,1,0,0:0:0:0:
256,192,7430,1,0,0:0:0:0:
256,192,7620,1,2,0:0:0:0:
256,192,7810,1,2,0:0:0:0:
256,192,7905,1,2,0:0:0:0:
256,192,7999,1,0,0:0:0:0:
256,192,8189,1,2,0:0:0:0:
256,192,8379,1,0,0:0:0:0:
256,192,8569,1,0,0:0:0:0:
256,192,8664,1,0,0:0:0:0:
256,192,8759,1,2,0:0:0:0:
256,192,8854,1,2,0:0:0:0:
256,192,8949,1,0,0:0:0:0:
256,192,9139,1,2,0:0:0:0:
256,192,9329,5,4,0:0:0:0:
256,192,9708,1,0,0:0:0:0:
256,192,9898,1,2,0:0:0:0:
256,192,10088,1,0,0:0:0:0:
256,192,10183,1,2,0:0:0:0:
256,192,10278,1,0,0:0:0:0:
256,192,10468,1,0,0:0:0:0:
256,192,10658,1,2,0:0:0:0:
256,192,10848,1,2,0:0:0:0:
256,192,10942,1,2,0:0:0:0:
256,192,11037,1,0,0:0:0:0:
256,192,11227,1,0,0:0:0:0:
256,192,11417,1,2,0:0:0:0:
256,192,11607,1,0,0:0:0:0:
256,192,11797,1,2,0:0:0:0:
256,192,11892,1,0,0:0:0:0:
256,192,11987,1,0,0:0:0:0:
256,192,12177,1,2,0:0:0:0:
256,192,12367,1,6,0:0:0:0:
256,192,12746,1,0,0:0:0:0:
256,192,12936,1,2,0:0:0:0:
256,192,13126,1,0,0:0:0:0:
256,192,13221,1,0,0:0:0:0:
256,192,13316,1,0,0:0:0:0:
256,192,13506,1,0,0:0:0:0:
256,192,13696,1,2,0:0:0:0:
256,192,13886,1,2,0:0:0:0:
256,192,13980,1,2,0:0:0:0:
256,192,14075,1,0,0:0:0:0:
256,192,14265,1,2,0:0:0:0:
256,192,14455,1,0,0:0:0:0:
256,192,14645,1,0,0:0:0:0:
256,192,14740,1,0,0:0:0:0:
256,192,14835,1,2,0:0:0:0:
256,192,14930,1,2,0:0:0:0:
256,192,15025,1,0,0:0:0:0:
256,192,15215,1,2,0:0:0:0:
256,192,15405,1,2,0:0:0:0:
256,192,15499,1,2,0:0:0:0:
256,192,15594,1,0,0:0:0:0:
256,192,15689,1,2,0:0:0:0:
256,192,15784,1,0,0:0:0:0:
256,192,16164,1,2,0:0:0:0:
256,192,16259,1,2,0:0:0:0:
256,192,16354,1,0,0:0:0:0:
256,192,16734,1,0,0:0:0:0:
256,192,16829,1,2,0:0:0:0:
256,192,16923,1,0,0:0:0:0:
256,192,17303,1,6,0:0:0:0:
256,192,17683,1,6,0:0:0:0:
256,192,17873,1,6,0:0:0:0:
256,192,18253,1,2,0:0:0:0:
256,192,18442,1,2,0:0:0:0:
256,192,18537,1,2,0:0:0:0:
256,192,18632,5,0,0:0:0:0:
256,192,18822,1,0,0:0:0:0:
256,192,19012,1,2,0:0:0:0:
256,192,19297,1,2,0:0:0:0:
256,192,19392,1,0,0:0:0:0:
256,192,19582,1,0,0:0:0:0:
256,192,19772,1,2,0:0:0:0:
256,192,19961,1,2,0:0:0:0:
256,192,20151,1,0,0:0:0:0:
256,192,20341,1,2,0:0:0:0:
256,192,20531,1,0,0:0:0:0:
256,192,20721,1,0,0:0:0:0:
256,192,20816,1,0,0:0:0:0:
256,192,20911,1,2,0:0:0:0:
256,192,21101,1,0,0:0:0:0:
256,192,21291,1,2,0:0:0:0:
256,192,21575,1,2,0:0:0:0:
256,192,21670,1,0,0:0:0:0:
256,192,21860,1,0,0:0:0:0:
256,192,22050,1,2,0:0:0:0:
256,192,22240,1,0,0:0:0:0:
256,192,22335,1,0,0:0:0:0:
256,192,22430,1,2,0:0:0:0:
256,192,22620,1,0,0:0:0:0:
256,192,22810,1,2,0:0:0:0:
256,192,22999,1,2,0:0:0:0:
256,192,23189,1,0,0:0:0:0:
256,192,23379,1,2,0:0:0:0:
256,192,23474,1,2,0:0:0:0:
256,192,23569,1,0,0:0:0:0:
256,192,23759,1,2,0:0:0:0:
256,192,23949,1,0,0:0:0:0:
256,192,24044,1,0,0:0:0:0:
256,192,24139,1,2,0:0:0:0:
256,192,24234,1,2,0:0:0:0:
256,192,24329,1,0,0:0:0:0:
256,192,24518,1,0,0:0:0:0:
256,192,24613,1,0,0:0:0:0:
256,192,24708,5,2,0:0:0:0:
256,192,25088,1,2,0:0:0:0:
256,192,25278,1,0,0:0:0:0:
256,192,25468,1,2,0:0:0:0:
256,192,25563,1,2,0:0:0:0:
256,192,25658,1,0,0:0:0:0:
256,192,25848,1,2,0:0:0:0:
256,192,26037,1,0,0:0:0:0:
256,192,26227,1,2,0:0:0:0:
256,192,26322,1,0,0:0:0:0:
256,192,26417,1,0,0:0:0:0:
256,192,26607,1,2,0:0:0:0:
256,192,26797,1,0,0:0:0:0:
256,192,27177,1,0,0:0:0:0:
256,192,27367,1,2,0:0:0:0:
256,192,27556,1,0,0:0:0:0:
256,192,27651,1,2,0:0:0:0:
256,192,27746,1,2,0:0:0:0:
256,192,28031,1,0,0:0:0:0:
256,192,28126,1,2,0:0:0:0:
256,192,28316,1,2,0:0:0:0:
256,192,28506,1,0,0:0:0:0:
256,192,28696,1,2,0:0:0:0:
256,192,28791,1,2,0:0:0:0:
256,192,28886,1,2,0:0:0:0:
256,192,29075,1,0,0:0:0:0:
256,192,29360,1,2,0:0:0:0:
256,192,29455,1,0,0:0:0:0:
256,192,29645,1,2,0:0:0:0:
256,192,29835,1,0,0:0:0:0:
256,192,29930,1,2,0:0:0:0:
256,192,30025,1,2,0:0:0:0:
256,192,30215,1,2,0:0:0:0:
256,192,30310,1,0,0:0:0:0:
256,192,30405,1,2,0:0:0:0:
256,192,30594,1,2,0:0:0:0:
256,192,30689,1,2,0:0:0:0:
256,192,30784,5,0,0:0:0:0:
256,192,31164,1,2,0:0:0:0:
256,192,31449,1,2,0:0:0:0:
256,192,31544,1,0,0:0:0:0:
256,192,31734,1,0,0:0:0:0:
256,192,31923,1,2,0:0:0:0:
256,192,32113,1,2,0:0:0:0:
256,192,32303,1,0,0:0:0:0:
256,192,32493,1,2,0:0:0:0:
256,192,32683,1,0,0:0:0:0:
256,192,32873,1,0,0:0:0:0:
256,192,32968,1,0,0:0:0:0:
256,192,33063,1,2,0:0:0:0:
256,192,33253,1,0,0:0:0:0:
256,192,33442,1,2,0:0:0:0:
256,192,33822,1,0,0:0:0:0:
256,192,34107,1,0,0:0:0:0:
256,192,34202,5,2,0:0:0:0:
256,192,34392,1,0,0:0:0:0:
256,192,34582,1,2,0:0:0:0:
256,192,34772,1,0,0:0:0:0:
256,192,34867,1,0,0:0:0:0:
256,192,34961,1,2,0:0:0:0:
256,192,35151,1,0,0:0:0:0:
256,192,35341,1,2,0:0:0:0:
256,192,35531,1,0,0:0:0:0:
256,192,35626,1,0,0:0:0:0:
256,192,35721,1,2,0:0:0:0:
256,192,35911,1,0,0:0:0:0:
256,192,36101,1,2,0:0:0:0:
256,192,36196,1,2,0:0:0:0:
256,192,36291,1,0,0:0:0:0:
256,192,36386,1,0,0:0:0:0:
256,192,36480,1,2,0:0:0:0:
256,192,36670,1,0,0:0:0:0:
256,192,36765,1,0,0:0:0:0:
256,192,36860,1,0,0:0:0:0:
256,192,37240,1,2,0:0:0:0:
256,192,37430,1,0,0:0:0:0:
256,192,37620,1,2,0:0:0:0:
256,192,37715,1,2,0:0:0:0:
256,192,37810,1,0,0:0:0:0:
256,192,37999,1,2,0:0:0:0:
256,192,38189,1,0,0:0:0:0:
256,192,38379,1,2,0:0:0:0:
256,192,38474,1,0,0:0:0:0:
256,192,38569,1,0,0:0:0:0:
256,192,38759,1,2,0:0:0:0:
256,192,38949,1,0,0:0:0:0:
256,192,39329,1,0,0:0:0:0:
256,192,39518,1,2,0:0:0:0:
256,192,39708,1,0,0:0:0:0:
256,192,39803,1,2,0:0:0:0:
256,192,39898,1,2,0:0:0:0:
256,192,40183,1,0,0:0:0:0:
256,192,40278,1,2,0:0:0:0:
256,192,40468,1,0,0:0:0:0:
256,192,40563,1,0,0:0:0:0:
256,192,40658,1,2,0:0:0:0:
256,192,40753,1,2,0:0:0:0:
256,192,40848,1,0,0:0:0:0:
256,192,41037,1,2,0:0:0:0:
256,192,41227,1,0,0:0:0:0:
256,192,41512,1,2,0:0:0:0:
256,192,41607,1,0,0:0:0:0:
256,192,41797,1,2,0:0:0:0:
256,192,41987,1,0,0:0:0:0:
256,192,42082,1,2,0:0:0:0:
256,192,42177,1,2,0:0:0:0:
256,192,42367,1,2,0:0:0:0:
256,192,42461,1,0,0:0:0:0:
256,192,42556,1,2,0:0:0:0:
256,192,42746,1,2,0:0:0:0:
256,192,42841,1,2,0:0:0:0:
256,192,42936,5,0,0:0:0:0:
256,192,43316,1,2,0:0:0:0:
256,192,43601,1,2,0:0:0:0:
256,192,43696,1,0,0:0:0:0:
256,192,43886,1,0,0:0:0:0:
256,192,44075,1,2,0:0:0:0:
256,192,44265,1,2,0:0:0:0:
256,192,44360,1,2,0:0:0:0:
256,192,44455,1,0,0:0:0:0:
256,192,44645,1,2,0:0:0:0:
256,192,44835,1,2,0:0:0:0:
256,192,45025,1,0,0:0:0:0:
256,192,45120,1,0,0:0:0:0:
256,192,45215,1,2,0:0:0:0:
256,192,45310,1,2,0:0:0:0:
256,192,45405,1,0,0:0:0:0:
256,192,45594,1,0,0:0:0:0:
256,192,45784,1,2,0:0:0:0:
256,192,45974,1,0,0:0:0:0:
256,192,46354,1,2,0:0:0:0:
256,192,46544,1,0,0:0:0:0:
256,192,46734,1,2,0:0:0:0:
256,192,46829,1,2,0:0:0:0:
256,192,46923,1,0,0:0:0:0:
256,192,47113,1,2,0:0:0:0:
256,192,47303,1,0,0:0:0:0:
256,192,47398,1,2,0:0:0:0:
256,192,47588,1,2,0:0:0:0:
256,192,47683,1,0,0:0:0:0:
256,192,47873,1,2,0:0:0:0:
256,192,48063,1,2,0:0:0:0:
256,192,48158,1,2,0:0:0:0:
256,192,48253,1,0,0:0:0:0:
256,192,48442,1,0,0:0:0:0:
256,192,48537,1,0,0:0:0:0:
256,192,48632,1,2,0:0:0:0:
256,192,48727,1,2,0:0:0:0:
256,192,48822,1,2,0:0:0:0:
256,192,49012,5,0,0:0:0:0:
256,192,49392,1,2,0:0:0:0:
256,192,49677,1,0,0:0:0:0:
256,192,49772,1,0,0:0:0:0:
256,192,49961,1,0,0:0:0:0:
256,192,50151,1,2,0:0:0:0:
256,192,50341,1,0,0:0:0:0:
256,192,50436,1,2,0:0:0:0:
256,192,50531,1,2,0:0:0:0:
256,192,50721,1,0,0:0:0:0:
256,192,50911,1,2,0:0:0:0:
256,192,51101,1,0,0:0:0:0:
256,192,51196,1,2,0:0:0:0:
256,192,51291,1,0,0:0:0:0:
256,192,51480,1,0,0:0:0:0:
256,192,51575,1,0,0:0:0:0:
256,192,51670,1,2,0:0:0:0:
256,192,51860,1,2,0:0:0:0:
256,192,51955,1,2,0:0:0:0:
256,192,52050,1,0,0:0:0:0:
256,192,52430,1,2,0:0:0:0:
256,192,52715,1,2,0:0:0:0:
256,192,52810,1,0,0:0:0:0:
256,192,52999,1,0,0:0:0:0:
256,192,53189,1,2,0:0:0:0:
256,192,53379,1,0,0:0:0:0:
256,192,53474,1,2,0:0:0:0:
256,192,53569,1,2,0:0:0:0:
256,192,53759,1,0,0:0:0:0:
256,192,53949,1,2,0:0:0:0:
256,192,54139,1,0,0:0:0:0:
256,192,54234,1,2,0:0:0:0:
256,192,54329,1,0,0:0:0:0:
256,192,54518,1,0,0:0:0:0:
256,192,54613,1,0,0:0:0:0:
256,192,54708,1,2,0:0:0:0:
256,192,54803,1,2,0:0:0:0:
256,192,54898,1,2,0:0:0:0:
256,192,54993,1,2,0:0:0:0:
256,192,55088,5,0,0:0:0:0:
256,192,55468,1,2,0:0:0:0:
256,192,55753,1,0,0:0:0:0:
256,192,55848,1,0,0:0:0:0:
256,192,56037,1,0,0:0:0:0:
256,192,56227,1,2,0:0:0:0:
256,192,56417,1,0,0:0:0:0:
256,192,56607,1,2,0:0:0:0:
256,192,56797,1,0,0:0:0:0:
256,192,56892,1,0,0:0:0:0:
256,192,56987,1,2,0:0:0:0:
256,192,57177,1,2,0:0:0:0:
256,192,57272,1,0,0:0:0:0:
256,192,57367,1,0,0:0:0:0:
256,192,57461,1,2,0:0:0:0:
256,192,57556,1,0,0:0:0:0:
256,192,57746,1,2,0:0:0:0:
256,192,57936,1,2,0:0:0:0:
256,192,58031,1,2,0:0:0:0:
256,192,58126,1,0,0:0:0:0:
256,192,58506,1,2,0:0:0:0:
256,192,58696,1,4,0:0:0:0:
256,192,59075,1,6,0:0:0:0:
256,192,59455,1,6,0:0:0:0:
256,192,59835,1,6,0:0:0:0:
256,192,60025,1,6,0:0:0:0:
256,192,60215,1,0,0:0:0:0:
256,192,60310,1,0,0:0:0:0:
256,192,60405,1,0,0:0:0:0:
256,192,60594,1,0,0:0:0:0:
256,192,60784,1,2,0:0:0:0:
256,192,60974,1,2,0:0:0:0:
256,192,61069,1,2,0:0:0:0:
256,192,61164,5,0,0:0:0:0:
256,192,61449,1,0,0:0:0:0:
256,192,61544,1,2,0:0:0:0:
256,192,61734,1,0,0:0:0:0:
256,192,61923,1,2,0:0:0:0:
256,192,62113,1,0,0:0:0:0:
256,192,62208,1,0,0:0:0:0:
256,192,62303,1,0,0:0:0:0:
256,192,62493,1,2,0:0:0:0:
256,192,62683,1,0,0:0:0:0:
256,192,62873,1,2,0:0:0:0:
256,192,62968,1,2,0:0:0:0:
256,192,63063,1,0,0:0:0:0:
256,192,63253,1,0,0:0:0:0:
256,192,63348,1,2,0:0:0:0:
256,192,63442,1,0,0:0:0:0:
256,192,63537,1,0,0:0:0:0:
256,192,63632,1,2,0:0:0:0:
256,192,63727,1,2,0:0:0:0:
256,192,63822,1,0,0:0:0:0:
256,192,64012,1,0,0:0:0:0:
256,192,64107,1,0,0:0:0:0:
256,192,64202,1,2,0:0:0:0:
256,192,64487,1,2,0:0:0:0:
256,192,64582,1,0,0:0:0:0:
256,192,64772,1,2,0:0:0:0:
256,192,64867,1,2,0:0:0:0:
256,192,64961,1,2,0:0:0:0:
256,192,65151,1,0,0:0:0:0:
256,192,65341,1,0,0:0:0:0:
256,192,65531,1,2,0:0:0:0:
256,192,65721,1,0,0:0:0:0:
256,192,65816,1,0,0:0:0:0:
256,192,65911,1,2,0:0:0:0:
256,192,66006,1,2,0:0:0:0:
256,192,66101,1,0,0:0:0:0:
256,192,66291,1,0,0:0:0:0:
256,192,66386,1,2,0:0:0:0:
256,192,66480,1,0,0:0:0:0:
256,192,66670,1,2,0:0:0:0:
256,192,66860,1,2,0:0:0:0:
256,192,67050,1,0,0:0:0:0:
256,192,67145,1,0,0:0:0:0:
256,192,67240,5,0,0:0:0:0:
256,192,67525,1,0,0:0:0:0:
256,192,67620,1,2,0:0:0:0:
256,192,67810,1,2,0:0:0:0:
256,192,67999,1,0,0:0:0:0:
256,192,68189,1,2,0:0:0:0:
256,192,68284,1,2,0:0:0:0:
256,192,68379,1,0,0:0:0:0:
256,192,68569,1,2,0:0:0:0:
256,192,68759,1,0,0:0:0:0:
256,192,68854,1,0,0:0:0:0:
256,192,68949,1,2,0:0:0:0:
256,192,69044,1,2,0:0:0:0:
256,192,69139,1,0,0:0:0:0:
256,192,69329,1,2,0:0:0:0:
256,192,69518,1,0,0:0:0:0:
256,192,69613,1,0,0:0:0:0:
256,192,69708,1,2,0:0:0:0:
256,192,69898,1,2,0:0:0:0:
256,192,70088,1,2,0:0:0:0:
256,192,70183,1,2,0:0:0:0:
256,192,70278,1,0,0:0:0:0:
256,192,70468,1,0,0:0:0:0:
256,192,70658,1,2,0:0:0:0:
256,192,70848,1,0,0:0:0:0:
256,192,70942,1,2,0:0:0:0:
256,192,71037,1,0,0:0:0:0:
256,192,71227,1,2,0:0:0:0:
256,192,71322,1,2,0:0:0:0:
256,192,71417,1,2,0:0:0:0:
256,192,71607,1,4,0:0:0:0:
256,192,71987,1,0,0:0:0:0:
256,192,72177,1,2,0:0:0:0:
256,192,72367,1,0,0:0:0:0:
256,192,72461,1,0,0:0:0:0:
256,192,72556,1,2,0:0:0:0:
256,192,72746,1,0,0:0:0:0:
256,192,72841,1,0,0:0:0:0:
256,192,72936,1,2,0:0:0:0:
256,192,73031,1,2,0:0:0:0:
256,192,73126,1,2,0:0:0:0:
256,192,73221,1,2,0:0:0:0:
256,192,73316,5,0,0:0:0:0:
256,192,73601,1,0,0:0:0:0:
256,192,73696,1,2,0:0:0:0:
256,192,73886,1,0,0:0:0:0:
256,192,74075,1,2,0:0:0:0:
256,192,74265,1,0,0:0:0:0:
256,192,74360,1,0,0:0:0:0:
256,192,74455,1,0,0:0:0:0:
256,192,74645,1,2,0:0:0:0:
256,192,74835,1,0,0:0:0:0:
256,192,75025,1,2,0:0:0:0:
256,192,75120,1,2,0:0:0:0:
256,192,75215,1,0,0:0:0:0:
256,192,75405,1,0,0:0:0:0:
256,192,75499,1,2,0:0:0:0:
256,192,75594,1,0,0:0:0:0:
256,192,75689,1,0,0:0:0:0:
256,192,75784,1,2,0:0:0:0:
256,192,75879,1,2,0:0:0:0:
256,192,75974,1,0,0:0:0:0:
256,192,76164,1,0,0:0:0:0:
256,192,76259,1,0,0:0:0:0:
256,192,76354,1,2,0:0:0:0:
256,192,76639,1,2,0:0:0:0:
256,192,76734,1,0,0:0:0:0:
256,192,76923,1,2,0:0:0:0:
256,192,77018,1,2,0:0:0:0:
256,192,77113,1,0,0:0:0:0:
256,192,77303,1,2,0:0:0:0:
256,192,77398,1,2,0:0:0:0:
256,192,77493,1,2,0:0:0:0:
256,192,77683,1,4,0:0:0:0:
256,192,78063,1,6,0:0:0:0:
256,192,78442,1,6,0:0:0:0:
256,192,78632,1,4,0:0:0:0:
256,192,78917,1,0,0:0:0:0:
256,192,79012,1,2,0:0:0:0:
256,192,79202,1,2,0:0:0:0:
256,192,79297,1,2,0:0:0:0:
256,192,79392,5,0,0:0:0:0:
256,192,79582,1,0,0:0:0:0:
256,192,79772,1,2,0:0:0:0:
256,192,80056,1,2,0:0:0:0:
256,192,80151,1,0,0:0:0:0:
256,192,80341,1,0,0:0:0:0:
256,192,80436,1,0,0:0:0:0:
256,192,80531,1,2,0:0:0:0:
256,192,80721,1,2,0:0:0:0:
256,192,80816,1,2,0:0:0:0:
256,192,80911,1,0,0:0:0:0:
256,192,81196,1,0,0:0:0:0:
256,192,81291,1,2,0:0:0:0:
256,192,81480,1,2,0:0:0:0:
256,192,81670,1,0,0:0:0:0:
256,192,81860,1,2,0:0:0:0:
256,192,81955,1,2,0:0:0:0:
256,192,82050,1,2,0:0:0:0:
256,192,82145,1,2,0:0:0:0:
256,192,82240,1,0,0:0:0:0:
256,192,82335,1,0,0:0:0:0:
256,192,82430,1,0,0:0:0:0:
256,192,82810,1,0,0:0:0:0:
256,192,82999,1,2,0:0:0:0:
256,192,83189,1,0,0:0:0:0:
256,192,83379,1,2,0:0:0:0:
256,192,83474,1,2,0:0:0:0:
256,192,83569,1,2,0:0:0:0:
256,192,83759,1,0,0:0:0:0:
256,192,84044,1,2,0:0:0:0:
256,192,84139,1,0,0:0:0:0:
256,192,84329,1,2,0:0:0:0:
256,192,84518,1,0,0:0:0:0:
256,192,84613,1,0,0:0:0:0:
256,192,84708,1,2,0:0:0:0:
256,192,84898,1,0,0:0:0:0:
256,192,84993,1,0,0:0:0:0:
256,192,85088,1,2,0:0:0:0:
256,192,85183,1,2,0:0:0:0:
256,192,85278,1,2,0:0:0:0:
256,192,85373,1,2,0:0:0:0:
256,192,85468,1,0,0:0:0:0:
256,192,85658,1,0,0:0:0:0:
256,192,85753,1,2,0:0:0:0:
256,192,85848,1,2,0:0:0:0:
256,192,86037,1,4,0:0:0:0:
256,192,86417,1,6,0:0:0:0:
256,192,86797,1,6,0:0:0:0:
256,192,87177,1,2,0:0:0:0:
256,192,87367,1,2,0:0:0:0:
256,192,87746,1,2,0:0:0:0:
256,192,87936,1,2,0:0:0:0:
256,192,88126,1,2,0:0:0:0:
256,192,88316,1,4,0:0:0:0:
256,192,88506,12,0,89645,0:0:0:0:
