osu file format v14

[General]
AudioFilename: No Poi!.mp3
AudioLeadIn: 0
PreviewTime: 60489
Countdown: 0
SampleSet: Soft
StackLeniency: 0.7
Mode: 0
LetterboxInBreaks: 0
WidescreenStoryboard: 0

[Editor]
Bookmarks: 8565
DistanceSpacing: 1.5
BeatDivisor: 4
GridSize: 32
TimelineZoom: 1.6

[Metadata]
Title:No Poi!
TitleUnicode:ノーポイッ!
Artist:Petit Rabbit's
ArtistUnicode:Petit Rabbit's
Creator:walaowey
Version:ffstar's Hard
Source:ご注文はうさぎですか??
Tags:Gochuumon wa Usagi Desu ka? GochiUsa Is the Order a Rabbit? Season 2 Opening [Sc4v4ng3r] Sc4v4ng3r ffstar0716 [ -Scarlet- ] Kagari CLSW crystalseed Minato Yukina tasuke912 Chino Kafū Kafuu Kafu Cocoa Hoto Rize Tedeza Chiya Ujimatsu Syaro Kirima sakura ayane 佐倉綾音 保登心愛 ココア minase inori 水瀬いのり 香風智乃 チノ taneda risa 種田梨沙 天々座理世 リゼ satou satomi 佐藤聡美 宇治松千夜 uchida maaya 内田真礼 桐間紗路 シャロ
BeatmapID:830626
BeatmapSetID:378094

[Difficulty]
HPDrainRate:5.5
CircleSize:3.5
OverallDifficulty:6
ApproachRate:8
SliderMultiplier:1.6
SliderTickRate:2

[Events]
//Background and Video events
0,0,"BG.jpg",0,0
Video,405,"poi.avi"
//Break Periods
//Storyboard Layer 0 (Background)
//Storyboard Layer 1 (Fail)
//Storyboard Layer 2 (Pass)
//Storyboard Layer 3 (Foreground)
//Storyboard Sound Samples

[TimingPoints]
405,379.746835443038,4,2,20,70,1,0
405,-125,4,2,20,30,0,0
4961,-125,4,2,20,50,0,0
6291,-100,4,2,20,70,0,0
61164,-100,4,2,20,70,0,1
79392,-100,4,2,20,70,0,0
89645,-100,4,2,20,30,0,0

[Colours]
Combo1 : 255,164,72
Combo2 : 255,128,128
Combo3 : 255,47,255
Combo4 : 108,255,108

[HitObjects]
204,322,405,6,0,P|264:320|302:264,1,128,2|2,0:0|0:0,0:0:0:0:
326,175,974,2,0,P|329:239|392:290,1,128,2|2,0:0|0:0,0:0:0:0:
200,194,1734,6,0,B|192:174|167:170|167:170|141:221|112:234,1,128,2|2,0:0|0:0,0:0:0:0:
30,284,2303,1,0,0:0:0:0:
112,233,2493,1,2,0:0:0:0:
158,320,2683,1,2,0:0:0:0:
66,148,3063,5,2,0:0:0:0:
112,234,3253,1,0,0:0:0:0:
158,320,3442,1,2,0:0:0:0:
287,176,3822,1,0,0:0:0:0:
414,320,4202,1,2,0:0:0:0:
287,176,4582,1,0,0:0:0:0:
286,366,4961,6,0,B|297:292|182:246|289:188|289:188|375:240|297:292,1,320,4|0,1:0|0:0,0:0:0:0:
234,324,6101,1,8,0:0:0:0:
114,339,6291,6,0,P|64:301|126:295,1,160,4|0,1:0|0:0,0:0:0:0:
210,210,6860,1,2,0:0:0:0:
280,112,7050,1,0,0:0:0:0:
210,15,7240,5,2,0:0:0:0:
304,89,7430,1,0,0:0:0:0:
236,187,7620,5,2,0:0:0:0:
330,111,7810,1,0,0:0:0:0:
211,100,7999,6,0,P|170:116|149:154,1,80,2|0,0:0|0:0,0:0:0:0:
264,185,8379,1,2,0:0:0:0:
177,268,8569,2,0,P|103:280|53:212,1,160,2|0,0:0|0:0,0:0:0:0:
40,99,9139,1,0,0:0:0:0:
264,185,9329,6,0,P|297:249|271:329,1,160,4|0,0:0|0:0,0:0:0:0:
158,370,9898,2,0,P|119:379|81:366,1,80,2|0,0:0|0:0,0:0:0:0:
0,279,10278,1,2,0:0:0:0:
111,233,10468,1,0,0:0:0:0:
35,140,10658,1,2,0:0:0:0:
142,85,10848,1,0,0:0:0:0:
250,135,11037,6,0,P|290:148|331:137,1,80,2|0,0:0|0:0,0:0:0:0:
430,79,11417,1,2,0:0:0:0:
495,179,11607,2,0,L|465:339,1,160,2|0,0:0|0:0,0:0:0:0:
364,269,12177,1,0,0:0:0:0:
430,79,12367,6,0,B|336:31|336:31|282:56,1,160,4|0,1:0|0:0,0:0:0:0:
185,118,12936,1,2,0:0:0:0:
76,66,13126,1,0,0:0:0:0:
24,174,13316,2,0,L|35:262,1,80,2|0,0:0|0:0,0:0:0:0:
122,334,13696,2,0,L|112:254,1,80,2|0,0:0|0:0,0:0:0:0:
180,156,14075,6,0,L|189:235,2,80,2|0|2,0:0|0:0|0:0,0:0:0:0:
252,59,14645,2,0,L|272:224,2,160,2|0|0,0:0|0:0|0:0,0:0:0:0:
134,33,15594,5,2,0:0:0:0:
134,33,15784,1,8,0:0:0:0:
368,249,16164,5,8,0:0:0:0:
368,249,16354,1,2,0:0:0:0:
48,245,16734,5,2,0:0:0:0:
48,245,16923,1,8,0:0:0:0:
347,127,17303,5,8,0:0:0:0:
126,222,17683,1,8,0:0:0:0:
126,222,17873,2,0,P|174:256|169:175,1,160,8|0,0:0|0:0,0:0:0:0:
305,215,18442,1,0,3:0:0:0:
343,227,18537,1,0,3:0:0:0:
381,239,18632,1,4,0:0:0:0:
475,166,18822,5,0,0:0:0:0:
475,166,19012,2,0,L|471:82,1,80
359,41,19392,1,0,0:0:0:0:
266,117,19582,1,0,0:0:0:0:
181,32,19772,2,0,L|267:34,1,80
346,117,20151,5,2,0:0:0:0:
259,200,20341,1,0,0:0:0:0:
186,104,20531,1,2,0:0:0:0:
99,187,20721,1,0,0:0:0:0:
26,91,20911,5,2,0:0:0:0:
266,117,21291,1,2,0:0:0:0:
116,304,21670,1,4,0:0:0:0:
231,272,21860,5,0,0:0:0:0:
231,272,22050,2,0,L|324:295,1,80
427,312,22430,1,0,0:0:0:0:
492,211,22620,1,0,0:0:0:0:
408,125,22810,2,0,L|379:204,1,80
427,312,23189,5,2,0:0:0:0:
492,211,23379,1,0,0:0:0:0:
408,125,23569,1,2,0:0:0:0:
346,228,23759,2,0,P|275:258|199:233,1,160,2|0,0:0|0:0,0:0:0:0:
110,152,24329,1,2,0:0:0:0:
110,152,24518,1,0,0:0:0:0:
69,264,24708,6,0,L|74:358,2,80,2|0|8,0:0|0:0|3:0,0:0:0:0:
69,264,25278,1,0,0:0:0:0:
174,320,25468,6,0,L|244:382,2,80,2|0|8,0:0|0:0|3:0,0:0:0:0:
174,320,26037,1,0,0:0:0:0:
293,316,26227,6,0,L|387:311,1,80,2|0,0:0|0:0,0:0:0:0:
471,241,26607,1,2,0:0:0:0:
471,241,26797,2,0,L|390:389,1,160,2|0,0:0|0:0,0:0:0:0:
293,316,27367,1,0,0:0:0:0:
178,350,27556,1,0,3:0:0:0:
178,350,27651,1,0,3:0:0:0:
178,350,27746,5,0,3:0:0:0:
382,223,28126,1,8,3:0:0:0:
150,160,28506,2,0,L|161:244,2,80,0|0|8,0:0|0:0|3:0,0:0:0:0:
150,160,29075,5,4,0:0:0:0:
382,223,29455,1,2,0:0:0:0:
178,350,29835,1,0,0:0:0:0:
178,350,30025,2,0,L|342:349,1,160,2|0,0:0|0:0,0:0:0:0:
445,296,30594,1,0,3:0:0:0:
445,296,30689,1,0,3:0:0:0:
445,296,30784,1,0,3:0:0:0:
414,179,30974,5,0,0:0:0:0:
297,149,31164,2,0,L|323:235,1,80
247,321,31544,2,0,L|223:244,1,80
140,157,31923,1,0,0:0:0:0:
34,215,32113,1,0,0:0:0:0:
98,316,32303,6,0,L|129:219,1,80,2|0,0:0|0:0,0:0:0:0:
60,135,32683,2,0,L|91:38,1,80,2|0,0:0|0:0,0:0:0:0:
84,58,33063,5,2,0:0:0:0:
12,287,33442,1,2,0:0:0:0:
240,213,33822,1,4,0:0:0:0:
266,330,34012,5,0,0:0:0:0:
266,330,34202,2,0,P|227:339|190:325,1,80
84,268,34582,1,2,0:0:0:0:
84,268,34772,2,0,L|19:331,2,80,0|8|0,0:0|3:0|0:0,0:0:0:0:
124,155,35341,5,2,0:0:0:0:
124,155,35531,2,0,L|33:153,2,80,0|8|0,0:0|3:0|0:0,0:0:0:0:
232,103,36101,5,2,0:0:0:0:
232,103,36291,2,0,L|169:37,2,80,0|8|0,0:0|3:0|0:0,0:0:0:0:
345,142,36860,5,2,0:0:0:0:
448,81,37050,1,0,0:0:0:0:
461,200,37240,2,0,L|391:280,1,80,8|0,3:0|0:0,0:0:0:0:
319,178,37620,5,2,0:0:0:0:
438,176,37810,1,0,0:0:0:0:
390,286,37999,2,0,L|289:320,1,80,8|0,3:0|0:0,0:0:0:0:
278,196,38379,5,2,0:0:0:0:
382,253,38569,1,0,0:0:0:0:
285,325,38759,1,2,0:0:0:0:
177,270,38949,2,0,B|135:163|135:163|125:217,1,160,2|0,0:0|0:0,0:0:0:0:
67,311,39518,1,0,0:0:0:0:
13,203,39708,1,0,3:0:0:0:
13,203,39803,1,0,3:0:0:0:
13,203,39898,6,0,P|2:157|16:124,1,80,0|0,3:0|0:0,0:0:0:0:
116,64,40278,2,0,P|127:110|113:143,1,80,8|0,3:0|0:0,0:0:0:0:
113,259,40658,2,0,P|150:270|188:259,1,80
285,189,41037,1,8,3:0:0:0:
392,241,41227,5,4,0:0:0:0:
270,34,41607,1,2,0:0:0:0:
188,259,41987,1,0,0:0:0:0:
285,189,42177,2,0,L|301:367,1,160,2|0,0:0|0:0,0:0:0:0:
182,377,42746,1,0,3:0:0:0:
182,377,42841,1,0,3:0:0:0:
182,377,42936,1,4,0:0:0:0:
299,348,43126,5,0,0:0:0:0:
390,270,43316,2,0,L|382:185,1,80,8|0,0:0|0:0,0:0:0:0:
466,103,43696,1,2,0:0:0:0:
357,51,43886,2,0,L|272:59,2,80,0|8|2,0:0|0:0|0:0,0:0:0:0:
466,103,44455,1,0,0:0:0:0:
406,207,44645,6,0,P|370:221|325:214,2,80,0|8|0,0:0|0:0|0:0,0:0:0:0:
362,319,45215,1,2,0:0:0:0:
252,270,45405,1,0,0:0:0:0:
154,339,45594,1,8,0:0:0:0:
252,270,45784,1,2,0:0:0:0:
178,175,45974,1,0,0:0:0:0:
78,242,46164,6,0,P|9:181|23:101,1,160,2|0,0:0|0:0,0:0:0:0:
94,30,46734,1,0,0:0:0:0:
94,30,46923,1,0,0:0:0:0:
213,44,47113,1,8,0:0:0:0:
94,30,47303,6,0,L|160:193,2,160,4|0|0,0:0|0:0|0:0,0:0:0:0:
213,44,48253,1,4,0:0:0:0:
289,135,48442,1,0,0:0:0:0:
405,164,48632,2,0,P|447:147|383:131,1,160,8|4,0:0|0:0,0:0:0:0:
336,233,49202,5,0,0:0:0:0:
240,306,49392,2,0,L|162:351,1,80
65,287,49772,1,0,0:0:0:0:
131,188,49961,6,0,L|153:275,2,80,2|0|2,0:0|0:0|0:0,0:0:0:0:
29,123,50531,1,0,0:0:0:0:
146,95,50721,2,0,P|187:75|206:24,1,80,2|0,0:0|0:0,0:0:0:0:
282,137,51101,1,2,0:0:0:0:
399,113,51291,2,0,P|445:112|477:133,1,80,2|0,0:0|0:0,0:0:0:0:
393,219,51670,1,0,0:0:0:0:
393,219,52050,6,0,L|400:59,1,160,4|0,0:0|0:0,0:0:0:0:
288,13,52620,1,0,0:0:0:0:
177,59,52810,1,0,0:0:0:0:
174,178,52999,6,0,L|202:272,2,80,2|0|2,0:0|0:0|0:0,0:0:0:0:
71,114,53569,1,0,0:0:0:0:
177,59,53759,2,0,P|222:50|256:63,1,80,2|0,0:0|0:0,0:0:0:0:
371,36,54139,1,2,0:0:0:0:
467,107,54329,2,0,L|429:194,1,80,2|0,0:0|0:0,0:0:0:0:
378,286,54708,1,0,0:0:0:0:
148,214,55088,6,0,L|313:229,1,160,4|0,0:0|0:0,0:0:0:0:
307,228,55658,1,2,0:0:0:0:
88,130,56037,1,2,0:0:0:0:
34,362,56417,6,0,B|120:294|120:294|130:242,1,160,2|0,0:0|0:0,0:0:0:0:
88,130,56987,1,0,0:0:0:0:
176,48,57177,2,0,B|203:95|198:142|198:142|221:175|253:174,1,160,2|0,0:0|0:0,0:0:0:0:
367,152,57746,1,0,0:0:0:0:
446,241,57936,1,0,0:0:0:0:
344,305,58126,6,0,L|435:144,1,160,4|0,0:0|0:0,0:0:0:0:
477,58,58696,1,4,0:0:0:0:
220,248,59075,1,4,0:0:0:0:
477,58,59455,1,4,0:0:0:0:
78,76,59835,5,8,0:0:0:0:
78,76,60025,1,8,0:0:0:0:
174,147,60215,1,0,3:0:0:0:
174,147,60310,1,0,3:0:0:0:
174,147,60405,1,0,3:0:0:0:
280,92,60594,2,0,L|271:7,2,80,2|0|2,0:0|0:0|0:0,0:0:0:0:
375,165,61164,6,0,P|415:188|385:130,1,160,6|8,0:0|0:0,0:0:0:0:
368,241,61734,6,0,P|391:280|394:215,1,160,2|0,0:0|0:0,0:0:0:0:
323,303,62303,5,8,0:0:0:0:
395,123,62493,6,0,P|437:170|375:165,1,160,2|0,0:0|0:0,0:0:0:0:
287,82,63063,1,8,0:0:0:0:
193,157,63253,1,2,0:0:0:0:
265,61,63442,5,2,0:0:0:0:
171,136,63632,1,8,0:0:0:0:
121,26,63822,1,8,0:0:0:0:
27,101,64012,1,2,0:0:0:0:
87,204,64202,6,0,P|88:278|15:252,1,160,2|8,0:0|0:0,0:0:0:0:
142,280,64772,6,0,P|105:344|55:285,1,160,2|0,0:0|0:0,0:0:0:0:
151,373,65341,5,8,0:0:0:0:
22,267,65531,6,0,P|92:274|87:204,1,160,2|0,0:0|0:0,0:0:0:0:
36,94,66101,1,8,0:0:0:0:
155,80,66291,1,2,0:0:0:0:
62,4,66480,5,2,0:0:0:0:
155,80,66670,1,8,0:0:0:0:
248,156,66860,1,8,0:0:0:0:
341,232,67050,1,0,0:0:0:0:
434,308,67240,6,0,L|434:218,1,80,2|0,0:0|0:0,0:0:0:0:
434,107,67620,1,8,0:0:0:0:
330,168,67810,1,0,0:0:0:0:
434,107,67999,2,0,L|293:27,1,160,0|8,0:0|0:0,0:0:0:0:
181,68,68569,5,0,0:0:0:0:
220,181,68759,2,0,L|264:104,1,80
143,144,69139,2,0,P|141:225|210:267,1,160,8|0,0:0|0:0,0:0:0:0:
433,206,69708,1,2,0:0:0:0:
433,206,70088,6,0,P|365:170|295:208,1,160,2|0,0:0|0:0,0:0:0:0:
262,321,70658,2,0,L|256:159,1,160,8|0,0:0|0:0,0:0:0:0:
363,214,71227,1,0,0:0:0:0:
356,94,71417,1,8,0:0:0:0:
363,214,71607,6,0,L|368:373,1,160,4|0,0:0|0:0,0:0:0:0:
262,321,72177,2,0,P|214:314|180:328,1,80,8|0,0:0|0:0,0:0:0:0:
75,373,72556,1,0,0:0:0:0:
4,275,72746,2,0,L|-1:185,2,80,2|0|2,0:0|0:0|0:0,0:0:0:0:
108,215,73316,6,0,B|184:143|184:143|163:201,1,160,6|8,0:0|0:0,0:0:0:0:
63,130,73886,6,0,B|164:105|164:105|117:145,1,160,2|0,0:0|0:0,0:0:0:0:
66,33,74455,5,8,0:0:0:0:
165,195,74645,6,0,B|184:143|184:143|108:215,1,160,2|0,0:0|0:0,0:0:0:0:
122,334,75215,1,8,0:0:0:0:
238,305,75405,1,2,0:0:0:0:
120,283,75594,5,2,0:0:0:0:
224,341,75784,1,8,0:0:0:0:
311,259,75974,1,8,0:0:0:0:
415,317,76164,1,0,0:0:0:0:
475,213,76354,6,0,P|459:164|453:228,1,160,2|8,0:0|0:0,0:0:0:0:
469,110,76923,6,0,P|430:75|457:133,1,160,2|0,0:0|0:0,0:0:0:0:
412,23,77493,5,8,0:0:0:0:
431,224,77683,5,4,0:0:0:0:
205,143,78063,1,4,0:0:0:0:
412,23,78442,5,4,0:0:0:0:
412,23,78632,1,4,0:0:0:0:
306,80,78822,2,0,L|378:122,1,80,0|10,0:0|0:0,0:0:0:0:
481,177,79202,1,0,0:0:0:0:
484,205,79297,1,0,0:0:0:0:
488,232,79392,6,0,L|436:392,1,160,0|8,0:0|0:0,0:0:0:0:
196,375,80151,2,0,L|326:282,1,160,2|8,0:0|0:0,0:0:0:0:
484,100,80911,6,0,L|326:73,1,160,0|8,0:0|0:0,0:0:0:0:
89,31,81670,2,0,L|181:161,1,160,2|8,0:0|0:0,0:0:0:0:
245,264,82240,1,0,0:0:0:0:
125,277,82430,6,0,P|74:295|59:327,1,80,2|0,0:0|0:0,0:0:0:0:
24,200,82810,1,8,0:0:0:0:
94,103,82999,2,0,P|167:72|237:102,1,160,2|0,0:0|0:0,0:0:0:0:
313,196,83569,1,8,0:0:0:0:
430,169,83759,6,0,L|374:18,1,160,2|0,0:0|0:0,0:0:0:0:
272,84,84329,2,0,P|200:53|128:84,1,160,8|2,0:0|0:0,0:0:0:0:
44,170,84898,1,0,0:0:0:0:
117,264,85088,2,0,L|175:192,1,80,10|0,0:0|0:0,0:0:0:0:
184,321,85468,6,0,P|145:348|41:310,1,160,4|0,0:0|0:0,0:0:0:0:
233,244,86037,1,4,0:0:0:0:
453,340,86417,1,4,0:0:0:0:
373,113,86797,6,0,L|353:283,1,160,4|0,0:0|0:0,0:0:0:0:
285,172,87367,1,0,0:0:0:0:
285,172,87556,1,0,0:0:0:0:
178,227,87746,2,0,P|137:238|98:227,2,80,2|0|2,0:0|0:0|0:0,0:0:0:0:
199,344,88316,6,0,B|217:94|217:94|290:36|393:70|410:163|298:242|256:200,1,560,4|0,0:0|0:0,0:0:0:0:
