osu file format v14

[General]
AudioFilename: No Poi!.mp3
AudioLeadIn: 0
PreviewTime: 60489
Countdown: 0
SampleSet: Soft
StackLeniency: 0.7
Mode: 2
LetterboxInBreaks: 0
WidescreenStoryboard: 0

[Editor]
DistanceSpacing: 1.2
BeatDivisor: 4
GridSize: 8
TimelineZoom: 2.5

[Metadata]
Title:No Poi!
TitleUnicode:ノーポイッ!
Artist:Petit Rabbit's
ArtistUnicode:Petit Rabbit's
Creator:walaowey
Version:Kagari's Rain
Source:ご注文はうさぎですか??
Tags:Gochuumon wa Usagi Desu ka? GochiUsa Is the Order a Rabbit? Season 2 Opening [Sc4v4ng3r] Sc4v4ng3r ffstar0716 [ -Scarlet- ] Kagari CLSW crystalseed Minato Yukina tasuke912 Chino Kafū Kafuu Kafu Cocoa Hoto Rize Tedeza Chiya Ujimatsu Syaro Kirima sakura ayane 佐倉綾音 保登心愛 ココア minase inori 水瀬いのり 香風智乃 チノ taneda risa 種田梨沙 天々座理世 リゼ satou satomi 佐藤聡美 宇治松千夜 uchida maaya 内田真礼 桐間紗路 シャロ
BeatmapID:842717
BeatmapSetID:378094

[Difficulty]
HPDrainRate:5
CircleSize:4
OverallDifficulty:9
ApproachRate:9
SliderMultiplier:2
SliderTickRate:1

[Events]
//Background and Video events
0,0,"ctb_bg.jpg",0,0
Video,405,"poi.avi"
//Break Periods
//Storyboard Layer 0 (Background)
//Storyboard Layer 1 (Fail)
//Storyboard Layer 2 (Pass)
//Storyboard Layer 3 (Foreground)
//Storyboard Sound Samples

[TimingPoints]
405,379.746835443038,4,2,1,40,1,0
4961,-100,4,2,1,50,0,0
6291,-100,4,2,1,60,0,0
17588,-100,4,2,1,10,0,0
17683,-100,4,2,1,60,0,0
18632,-100,4,2,1,50,0,0
33822,-100,4,2,1,70,0,0
36860,-100,4,2,1,60,0,0
42936,-100,4,2,1,70,0,0
61164,-100,4,2,1,80,0,1
79392,-100,4,2,1,60,0,0
88411,-100,4,2,1,30,0,0

[Colours]
Combo1 : 255,164,72
Combo2 : 255,128,128
Combo3 : 255,47,255
Combo4 : 108,255,108

[HitObjects]
264,216,405,6,0,P|304:128|400:96,1,200
240,256,974,1,0,0:0:0:0:
440,256,1354,1,0,0:0:0:0:
144,248,1734,6,0,P|200:152|280:112,1,200
448,48,2303,1,0,0:0:0:0:
368,48,2493,1,0,0:0:0:0:
168,208,2683,2,0,P|200:112|288:72,1,200
200,128,3253,1,0,0:0:0:0:
400,120,3442,6,0,P|328:192|232:208,1,200
8,232,4202,2,0,P|56:152|144:96,1,200
424,288,4961,6,0,L|136:200,1,300,2|0,2:0|0:0,0:0:0:0:
328,192,5721,1,0,3:0:0:0:
376,192,5816,1,0,3:0:0:0:
416,192,5911,2,0,P|464:160|456:120,1,100,0|0,3:0|3:0,3:0:0:0:
200,168,6291,6,0,P|103:154|46:76,1,200,4|0,0:0|0:0,0:0:0:0:
304,240,6860,1,8,0:0:0:0:
160,120,7050,1,0,0:0:0:0:
112,120,7145,1,0,0:0:0:0:
168,72,7240,1,2,0:0:0:0:
352,72,7430,1,0,0:0:0:0:
216,120,7620,1,8,0:0:0:0:
352,160,7810,1,0,0:0:0:0:
32,184,7999,5,2,0:0:0:0:
128,208,8189,1,0,0:0:0:0:
32,248,8379,1,8,0:0:0:0:
336,288,8569,2,0,L|408:216,1,100,0|2,0:0|0:0,0:0:0:0:
216,288,8949,2,0,L|144:216,1,100,0|8,0:0|0:0,0:0:0:0:
488,112,9329,6,0,P|440:192|336:224,1,200,4|0,0:0|0:0,0:0:0:0:
96,224,9898,1,8,0:0:0:0:
192,224,10088,1,0,0:0:0:0:
368,80,10278,1,2,0:0:0:0:
272,80,10468,1,0,0:0:0:0:
16,80,10658,1,8,0:0:0:0:
112,80,10848,1,0,0:0:0:0:
408,312,11037,5,2,0:0:0:0:
504,288,11227,1,0,0:0:0:0:
408,248,11417,1,8,0:0:0:0:
136,208,11607,2,0,P|144:160|168:112,1,100,0|2,0:0|0:0,0:0:0:0:
448,200,11987,2,0,P|440:152|416:104,1,100,0|8,0:0|0:0,0:0:0:0:
24,80,12367,6,0,P|72:152|192:168,1,200,4|0,0:0|0:0,0:0:0:0:
360,240,12936,1,8,0:0:0:0:
224,168,13126,1,0,0:0:0:0:
152,152,13221,1,0,0:0:0:0:
80,56,13316,1,2,0:0:0:0:
176,56,13506,1,0,0:0:0:0:
280,160,13696,1,8,0:0:0:0:
152,160,13886,1,0,0:0:0:0:
408,184,14075,5,2,0:0:0:0:
312,208,14265,1,0,0:0:0:0:
408,272,14455,1,8,0:0:0:0:
112,136,14645,2,0,P|152:208|264:216,1,200
80,64,15215,2,0,L|184:64,1,100,8|0,0:0|0:0,0:0:0:0:
368,248,15594,5,2,0:0:0:0:
112,248,15784,2,0,P|64:184|120:88,1,200,2|2,0:0|0:0,0:0:0:0:
376,248,16354,2,0,P|424:184|368:88,1,200,2|2,0:0|0:0,0:0:0:0:
48,96,16923,1,2,0:0:0:0:
352,264,17303,5,2,0:0:0:0:
48,264,17683,1,2,0:0:0:0:
304,96,17873,2,0,P|322:163|262:199,1,150,2|0,0:0|0:0,0:0:0:0:
160,200,18253,2,0,P|128:192|104:128,1,100,2|2,0:0|0:0,0:0:0:0:
120,112,18537,1,2,0:0:0:0:
312,152,18632,5,4,0:0:0:0:
400,152,18822,1,0,0:0:0:0:
216,64,19012,1,8,0:0:0:0:
128,64,19202,1,0,0:0:0:0:
400,184,19392,1,2,0:0:0:0:
312,184,19582,1,0,0:0:0:0:
496,248,19772,1,8,0:0:0:0:
408,248,19961,1,0,0:0:0:0:
112,296,20151,6,0,L|200:248,1,100,2|0,0:0|0:0,0:0:0:0:
24,240,20531,2,0,L|112:192,1,100,8|0,0:0|0:0,0:0:0:0:
416,192,20911,2,0,L|320:160,1,100,2|0,0:0|0:0,0:0:0:0:
48,192,21291,2,0,L|144:160,1,100,8|0,0:0|0:0,0:0:0:0:
488,152,21670,5,0,0:0:0:0:
392,152,21860,1,0,0:0:0:0:
200,152,22050,1,8,0:0:0:0:
288,64,22240,1,0,0:0:0:0:
488,248,22430,1,2,0:0:0:0:
400,248,22620,1,0,0:0:0:0:
208,248,22810,1,8,0:0:0:0:
296,248,22999,1,0,0:0:0:0:
32,184,23189,5,2,0:0:0:0:
128,184,23379,1,0,0:0:0:0:
32,88,23569,1,8,0:0:0:0:
424,40,23759,2,0,L|496:112,2,100,0|2|0,0:0|0:0|0:0,0:0:0:0:
248,112,24329,1,8,0:0:0:0:
408,128,24518,1,0,0:0:0:0:
160,192,24708,6,0,L|248:144,1,100,4|0,0:0|0:0,0:0:0:0:
408,208,25088,2,0,L|320:160,1,100,8|0,0:0|0:0,0:0:0:0:
144,272,25468,2,0,L|48:224,1,100,2|0,0:0|0:0,0:0:0:0:
232,264,25848,2,0,L|320:216,1,100,8|0,0:0|0:0,0:0:0:0:
64,160,26227,5,2,0:0:0:0:
160,128,26417,1,0,0:0:0:0:
64,64,26607,1,8,0:0:0:0:
320,88,26797,1,0,0:0:0:0:
416,88,26987,1,2,0:0:0:0:
320,176,27177,1,0,0:0:0:0:
64,192,27367,2,0,P|48:144|80:112,1,100,8|0,0:0|0:0,0:0:0:0:
160,112,27651,1,0,0:0:0:0:
400,328,27746,6,0,P|480:280|424:224,1,200,2|8,0:0|0:0,0:0:0:0:
280,176,28316,1,0,0:0:0:0:
464,168,28506,1,2,0:0:0:0:
504,112,28696,1,0,0:0:0:0:
440,80,28886,1,8,0:0:0:0:
192,56,29075,2,0,P|208:136|304:192,1,200,4|0,0:0|0:0,0:0:0:0:
136,64,29645,1,8,0:0:0:0:
232,128,29835,1,2,0:0:0:0:
40,152,30025,5,2,0:0:0:0:
120,152,30215,1,2,0:0:0:0:
376,216,30405,1,8,0:0:0:0:
432,192,30499,1,0,0:0:0:0:
448,152,30594,1,2,0:0:0:0:
416,120,30689,1,2,0:0:0:0:
224,272,30784,5,4,0:0:0:0:
136,272,30974,1,0,0:0:0:0:
328,272,31164,1,8,0:0:0:0:
416,272,31354,1,0,0:0:0:0:
216,200,31544,1,2,0:0:0:0:
304,200,31734,1,0,0:0:0:0:
504,200,31923,1,8,0:0:0:0:
416,200,32113,1,0,0:0:0:0:
168,112,32303,5,2,0:0:0:0:
328,128,32493,1,0,0:0:0:0:
208,128,32683,1,8,0:0:0:0:
350,80,32873,1,0,0:0:0:0:
96,248,33063,2,0,L|144:160,1,100,2|0,0:0|0:0,0:0:0:0:
480,224,33442,2,0,L|432:136,1,100,8|0,0:0|0:0,0:0:0:0:
104,144,33822,5,4,0:0:0:0:
16,144,34012,1,0,0:0:0:0:
16,72,34202,1,8,0:0:0:0:
104,72,34392,1,0,0:0:0:0:
360,240,34582,1,2,0:0:0:0:
272,240,34772,1,0,0:0:0:0:
80,240,34961,1,8,0:0:0:0:
168,240,35151,1,0,0:0:0:0:
424,176,35341,6,0,L|472:80,1,100,8|0,0:0|0:0,0:0:0:0:
272,176,35721,2,0,L|320:80,1,100,8|0,0:0|0:0,0:0:0:0:
64,176,36101,2,0,L|16:80,1,100,8|0,0:0|0:0,0:0:0:0:
272,176,36480,2,0,L|200:104,1,100,8|0,0:0|0:0,0:0:0:0:
456,192,36860,6,0,P|440:144|400:112,1,100,4|0,0:0|0:0,0:0:0:0:
289,103,37240,1,8,0:0:0:0:
448,272,37430,1,0,0:0:0:0:
184,80,37620,1,2,0:0:0:0:
280,80,37810,1,0,0:0:0:0:
464,80,37999,1,8,0:0:0:0:
368,80,38189,1,0,0:0:0:0:
64,192,38379,5,2,0:0:0:0:
176,192,38569,1,0,0:0:0:0:
16,320,38759,1,8,0:0:0:0:
264,304,38949,1,0,0:0:0:0:
368,240,39139,2,0,L|272:208,1,100,2|0,0:0|0:0,0:0:0:0:
112,248,39518,2,0,P|128:192|160:168,1,100,8|0,0:0|0:0,0:0:0:0:
216,176,39803,1,0,0:0:0:0:
416,152,39898,6,0,L|328:104,1,100,4|0,0:0|0:0,0:0:0:0:
160,152,40278,2,0,L|248:104,1,100,8|0,0:0|0:0,0:0:0:0:
496,120,40658,2,0,L|408:72,2,100,2|0|8,0:0|0:0|0:0,0:0:0:0:
240,72,41227,2,0,P|280:168|368:200,1,200,4|0,0:0|0:0,0:0:0:0:
224,208,41797,5,8,0:0:0:0:
328,128,41987,1,2,0:0:0:0:
80,176,42177,2,0,P|96:112|120:88,1,100,2|2,0:0|0:0,0:0:0:0:
168,72,42461,1,0,0:0:0:0:
400,72,42556,1,8,0:0:0:0:
448,72,42651,1,0,0:0:0:0:
448,120,42746,1,2,0:0:0:0:
400,120,42841,1,2,0:0:0:0:
112,248,42936,5,4,0:0:0:0:
24,216,43126,1,0,0:0:0:0:
112,176,43316,1,8,0:0:0:0:
200,176,43506,1,0,0:0:0:0:
448,96,43696,1,2,0:0:0:0:
352,96,43886,1,0,0:0:0:0:
448,176,44075,1,8,0:0:0:0:
168,96,44265,1,0,0:0:0:0:
328,96,44455,5,2,0:0:0:0:
416,32,44645,1,0,0:0:0:0:
240,112,44835,1,8,0:0:0:0:
328,112,45025,1,0,0:0:0:0:
32,112,45215,1,2,0:0:0:0:
128,128,45405,1,0,0:0:0:0:
32,184,45594,1,8,0:0:0:0:
288,176,45784,1,0,0:0:0:0:
128,168,45974,5,2,0:0:0:0:
48,168,46164,1,0,0:0:0:0:
224,48,46354,1,8,0:0:0:0:
144,48,46544,1,0,0:0:0:0:
392,48,46734,1,2,0:0:0:0:
488,80,46923,1,0,0:0:0:0:
392,112,47113,1,8,0:0:0:0:
32,136,47303,1,4,0:0:0:0:
120,136,47493,5,0,0:0:0:0:
416,128,47683,1,0,0:0:0:0:
328,128,47873,1,8,0:0:0:0:
152,232,48063,1,0,0:0:0:0:
400,192,48253,1,4,0:0:0:0:
488,192,48442,1,2,0:0:0:0:
200,280,48632,1,8,0:0:0:0:
112,280,48822,1,0,0:0:0:0:
440,288,49012,6,0,P|384:168|320:136,1,200,4|8,0:0|0:0,0:0:0:0:
128,136,49582,1,0,0:0:0:0:
304,128,49772,1,2,0:0:0:0:
392,80,49961,1,0,0:0:0:0:
200,56,50151,1,8,0:0:0:0:
480,192,50341,6,0,L|416:112,1,100,0|2,0:0|0:0,0:0:0:0:
216,192,50721,2,0,L|280:112,1,100,0|8,0:0|0:0,0:0:0:0:
464,264,51101,1,0,0:0:0:0:
176,280,51291,2,0,L|112:200,1,100,2|0,0:0|0:0,0:0:0:0:
320,280,51670,2,0,L|392:200,1,100,8|0,0:0|0:0,0:0:0:0:
96,288,52050,6,0,P|152:168|208:144,1,200,2|8,0:0|0:0,0:0:0:0:
384,120,52620,1,0,0:0:0:0:
208,112,52810,1,2,0:0:0:0:
144,48,52999,1,0,0:0:0:0:
304,40,53189,1,8,0:0:0:0:
48,208,53379,6,0,L|112:128,1,100,0|2,0:0|0:0,0:0:0:0:
296,208,53759,2,0,L|232:128,1,100,0|8,0:0|0:0,0:0:0:0:
48,280,54139,1,0,0:0:0:0:
352,280,54329,2,0,L|416:200,1,100,2|0,0:0|0:0,0:0:0:0:
160,280,54708,2,0,L|88:200,1,100,8|0,0:0|0:0,0:0:0:0:
488,32,55088,6,0,P|400:120|328:120,1,200,4|8,0:0|0:0,0:0:0:0:
72,72,55658,2,0,L|176:64,1,100,2|2,0:0|0:0,0:0:0:0:
360,112,56037,2,0,L|448:64,1,100,0|8,0:0|0:0,0:0:0:0:
368,160,56417,1,0,0:0:0:0:
112,160,56607,5,4,0:0:0:0:
208,160,56797,1,0,0:0:0:0:
48,160,56987,1,8,0:0:0:0:
392,224,57177,1,2,0:0:0:0:
288,224,57367,1,2,0:0:0:0:
184,224,57556,1,2,0:0:0:0:
488,168,57746,1,8,0:0:0:0:
392,168,57936,1,2,0:0:0:0:
112,240,58126,6,0,P|176:168|288:144,1,200,4|8,0:0|0:0,0:0:0:0:
16,48,58696,2,0,P|60:67|73:114,1,100,2|0,0:0|0:0,0:0:0:0:
368,80,59075,2,0,P|360:144|336:184,1,100,2|0,0:0|0:0,0:0:0:0:
88,128,59455,6,0,P|176:232|248:248,1,200,4|2,0:0|0:0,0:0:0:0:
384,240,60025,1,2,0:0:0:0:
120,224,60215,1,2,0:0:0:0:
88,224,60278,1,2,0:0:0:0:
56,224,60341,1,2,0:0:0:0:
24,224,60405,2,0,P|32:176|64:136,1,100,2|0,0:0|0:0,0:0:0:0:
312,176,60784,1,0,0:0:0:0:
152,112,60974,1,0,0:0:0:0:
416,112,61164,6,0,P|384:72|336:64,1,100,4|0,0:0|0:0,0:0:0:0:
176,64,61544,1,8,0:0:0:0:
424,208,61734,2,0,L|472:192,2,50,0|0|2,0:0|0:0|0:0,0:0:0:0:
240,264,62113,2,0,L|144:232,1,100,0|8,0:0|0:0,0:0:0:0:
408,192,62493,6,0,L|504:160,2,100
256,320,63063,1,8,0:0:0:0:
408,328,63253,1,0,0:0:0:0:
160,176,63442,1,2,0:0:0:0:
304,176,63632,1,0,0:0:0:0:
160,104,63822,1,8,0:0:0:0:
336,104,64012,1,0,0:0:0:0:
80,112,64202,6,0,P|120:72|160:56,1,100,2|0,0:0|0:0,0:0:0:0:
256,64,64582,1,8,0:0:0:0:
64,208,64772,2,0,L|16:192,2,50,0|0|2,0:0|0:0|0:0,0:0:0:0:
256,240,65151,2,0,L|144:240,1,100,0|8,0:0|0:0,0:0:0:0:
424,168,65531,6,0,L|504:104,1,100
448,80,65911,1,0,0:0:0:0:
264,256,66101,1,8,0:0:0:0:
448,272,66291,1,0,0:0:0:0:
192,144,66480,2,0,L|304:144,1,100,2|0,0:0|0:0,0:0:0:0:
472,144,66860,2,0,L|360:144,1,100,8|0,0:0|0:0,0:0:0:0:
112,80,67240,6,0,L|216:80,1,100,4|0,0:0|0:0,0:0:0:0:
80,88,67620,1,8,0:0:0:0:
264,144,67810,1,0,0:0:0:0:
16,192,67999,2,0,L|112:224,1,100,2|0,0:0|0:0,0:0:0:0:
208,192,68379,1,8,0:0:0:0:
80,288,68569,1,0,0:0:0:0:
336,304,68759,5,2,0:0:0:0:
200,304,68949,1,0,0:0:0:0:
448,304,69139,2,0,L|344:304,1,100,8|0,0:0|0:0,0:0:0:0:
192,304,69518,1,2,0:0:0:0:
488,224,69708,2,0,L|416:152,1,100,0|8,0:0|0:0,0:0:0:0:
120,208,70088,6,0,L|32:160,2,100,4|0|0,0:0|0:0|0:0,0:0:0:0:
376,216,70658,2,0,P|352:168|320:136,1,100,8|0,0:0|0:0,0:0:0:0:
40,120,71037,1,2,0:0:0:0:
176,72,71227,1,0,0:0:0:0:
24,56,71417,1,8,0:0:0:0:
384,88,71607,2,0,P|344:184|256:192,1,200,4|0,0:0|0:0,0:0:0:0:
400,264,72177,5,8,0:0:0:0:
240,280,72367,1,2,0:0:0:0:
232,216,72461,1,0,0:0:0:0:
496,200,72556,2,0,P|472:152|432:128,1,100,2|0,0:0|0:0,0:0:0:0:
184,192,72936,1,8,0:0:0:0:
352,152,73126,1,0,0:0:0:0:
104,112,73316,6,0,P|136:72|184:64,1,100,4|0,0:0|0:0,0:0:0:0:
360,72,73696,1,8,0:0:0:0:
112,208,73886,2,0,L|64:192,2,50,0|0|2,0:0|0:0|0:0,0:0:0:0:
312,272,74265,2,0,L|400:224,1,100,0|8,0:0|0:0,0:0:0:0:
104,256,74645,6,0,L|8:224,2,100
288,328,75215,1,8,0:0:0:0:
128,336,75405,1,0,0:0:0:0:
392,184,75594,1,2,0:0:0:0:
248,168,75784,1,0,0:0:0:0:
392,112,75974,1,8,0:0:0:0:
216,112,76164,1,0,0:0:0:0:
472,136,76354,6,0,L|392:72,1,100,4|0,0:0|0:0,0:0:0:0:
296,64,76734,1,8,0:0:0:0:
496,216,76923,2,0,L|408:168,1,100,0|2,0:0|0:0,0:0:0:0:
224,216,77303,2,0,L|320:184,1,100,0|8,0:0|0:0,0:0:0:0:
16,128,77683,5,2,0:0:0:0:
312,128,78063,1,2,0:0:0:0:
32,208,78442,1,8,0:0:0:0:
352,312,78632,2,0,P|392:288|416:240,1,100,8|0,0:0|0:0,0:0:0:0:
368,240,78917,1,0,0:0:0:0:
312,240,79012,1,8,0:0:0:0:
176,240,79202,1,0,0:0:0:0:
200,184,79297,1,0,0:0:0:0:
480,112,79392,5,4,0:0:0:0:
392,112,79582,1,0,0:0:0:0:
208,112,79772,1,8,0:0:0:0:
296,112,79961,1,0,0:0:0:0:
112,112,80151,1,2,0:0:0:0:
24,112,80341,1,0,0:0:0:0:
208,184,80531,1,8,0:0:0:0:
296,184,80721,1,0,0:0:0:0:
16,280,80911,5,4,0:0:0:0:
104,280,81101,1,0,0:0:0:0:
288,280,81291,1,8,0:0:0:0:
200,280,81480,1,0,0:0:0:0:
464,240,81670,5,2,0:0:0:0:
488,184,81765,1,0,0:0:0:0:
456,128,81860,1,0,0:0:0:0:
408,80,81955,1,0,0:0:0:0:
224,240,82050,1,8,0:0:0:0:
200,184,82145,1,0,0:0:0:0:
232,128,82240,1,0,0:0:0:0:
280,88,82335,1,0,0:0:0:0:
504,312,82430,6,0,P|416:240|320:232,1,200,4|8,0:0|0:0,0:0:0:0:
80,224,82999,1,0,0:0:0:0:
168,224,83189,1,2,0:0:0:0:
352,224,83379,1,0,0:0:0:0:
312,184,83569,1,8,0:0:0:0:
8,312,83759,6,0,P|96:240|192:232,1,200,0|0,0:0|0:0,0:0:0:0:
8,160,84329,2,0,P|54:144|86:106,1,100,8|2,0:0|0:0,0:0:0:0:
144,104,84613,1,0,0:0:0:0:
360,160,84708,1,2,0:0:0:0:
272,160,84898,1,2,0:0:0:0:
16,160,85088,1,8,0:0:0:0:
104,160,85278,1,2,0:0:0:0:
408,160,85468,6,0,P|304:104|216:104,1,200,4|8,0:0|0:0,0:0:0:0:
488,248,86037,2,0,L|384:224,1,100,2|0,0:0|0:0,0:0:0:0:
72,248,86417,2,0,L|176:224,1,100,2|0,0:0|0:0,0:0:0:0:
464,104,86797,6,0,P|360:48|272:48,1,200,2|0,0:0|0:0,0:0:0:0:
488,168,87367,1,0,0:0:0:0:
384,176,87556,1,0,0:0:0:0:
120,64,87746,2,0,L|216:96,2,100
416,208,88316,1,4,0:0:0:0:
256,192,88506,12,0,89645,0:0:0:0:
