osu file format v14

[General]
AudioFilename: No Poi!.mp3
AudioLeadIn: 0
PreviewTime: 60489
Countdown: 0
SampleSet: Soft
StackLeniency: 0.7
Mode: 2
LetterboxInBreaks: 0
WidescreenStoryboard: 0

[Editor]
DistanceSpacing: 1.2
BeatDivisor: 4
GridSize: 8
TimelineZoom: 2.5

[Metadata]
Title:No Poi!
TitleUnicode:ノーポイッ!
Artist:Petit Rabbit's
ArtistUnicode:Petit Rabbit's
Creator:walaowey
Version:Kagari's Poidose
Source:ご注文はうさぎですか??
Tags:Gochuumon wa Usagi Desu ka? GochiUsa Is the Order a Rabbit? Season 2 Opening [Sc4v4ng3r] Sc4v4ng3r ffstar0716 [ -Scarlet- ] Kagari CLSW crystalseed Minato Yukina tasuke912 Chino Kafū Kafuu Kafu Cocoa Hoto Rize Tedeza Chiya Ujimatsu Syaro Kirima sakura ayane 佐倉綾音 保登心愛 ココア minase inori 水瀬いのり 香風智乃 チノ taneda risa 種田梨沙 天々座理世 リゼ satou satomi 佐藤聡美 宇治松千夜 uchida maaya 内田真礼 桐間紗路 シャロ
BeatmapID:842716
BeatmapSetID:378094

[Difficulty]
HPDrainRate:6
CircleSize:4.2
OverallDifficulty:9.2
ApproachRate:9.2
SliderMultiplier:2
SliderTickRate:1

[Events]
//Background and Video events
0,0,"ctb_bg.jpg",0,0
Video,405,"poi.avi"
//Break Periods
//Storyboard Layer 0 (Background)
//Storyboard Layer 1 (Fail)
//Storyboard Layer 2 (Pass)
//Storyboard Layer 3 (Foreground)
//Storyboard Sound Samples

[TimingPoints]
405,379.746835443038,4,2,1,40,1,0
4961,-100,4,2,1,50,0,0
5721,-100,4,2,1,50,0,0
6291,-100,4,2,1,60,0,0
17588,-100,4,2,1,10,0,0
17683,-100,4,2,1,60,0,0
18632,-100,4,2,1,50,0,0
33822,-100,4,2,1,70,0,0
36860,-100,4,2,1,60,0,0
42936,-100,4,2,1,70,0,0
61164,-100,4,2,1,80,0,1
79392,-100,4,2,1,60,0,0
88411,-100,4,2,1,10,0,0

[Colours]
Combo1 : 255,164,72
Combo2 : 255,128,128
Combo3 : 255,47,255
Combo4 : 108,255,108

[HitObjects]
384,192,405,5,0,0:0:0:0:
112,192,784,1,0,0:0:0:0:
312,272,974,2,0,L|136:176,1,200
464,112,1734,6,0,L|264:112,1,200
352,56,2303,1,0,0:0:0:0:
192,56,2493,1,0,0:0:0:0:
392,112,2683,2,0,L|184:112,1,200
336,112,3253,1,0,0:0:0:0:
32,120,3442,5,0,0:0:0:0:
280,192,3822,1,0,0:0:0:0:
32,216,4202,1,0,0:0:0:0:
368,240,4582,1,0,0:0:0:0:
8,280,4961,6,0,L|312:280,1,300,2|0,0:0|0:0,0:0:0:0:
480,192,5721,1,0,3:0:0:0:
432,192,5816,1,0,3:0:0:0:
280,192,5911,1,0,3:0:0:0:
288,152,6006,1,0,3:0:0:0:
336,120,6101,1,0,3:0:0:0:
392,120,6196,1,0,3:0:0:0:
136,208,6291,6,0,P|160:136|272:120,1,200,4|0,0:0|0:0,0:0:0:0:
120,136,6860,1,8,0:0:0:0:
272,40,7050,1,0,0:0:0:0:
328,40,7145,1,0,0:0:0:0:
128,224,7240,1,2,0:0:0:0:
16,200,7430,1,0,0:0:0:0:
328,168,7620,1,8,0:0:0:0:
440,216,7810,1,0,0:0:0:0:
48,288,7999,5,2,0:0:0:0:
200,240,8189,1,0,0:0:0:0:
48,192,8379,1,8,0:0:0:0:
320,160,8569,2,0,L|280:64,1,100,0|2,0:0|0:0,0:0:0:0:
24,144,8949,2,0,P|32:96|64:56,1,100,0|8,0:0|0:0,0:0:0:0:
488,112,9329,2,0,P|440:192|336:224,1,200,4|0,0:0|0:0,0:0:0:0:
56,224,9898,5,8,0:0:0:0:
160,224,10088,1,0,0:0:0:0:
408,80,10278,1,2,0:0:0:0:
304,80,10468,1,0,0:0:0:0:
16,152,10658,1,8,0:0:0:0:
120,144,10848,1,0,0:0:0:0:
456,312,11037,5,2,0:0:0:0:
312,280,11227,1,0,0:0:0:0:
456,248,11417,1,8,0:0:0:0:
176,208,11607,2,0,P|184:160|208:112,1,100,0|2,0:0|0:0,0:0:0:0:
480,208,11987,2,0,P|480:160|464:104,1,100,0|8,0:0|0:0,0:0:0:0:
144,200,12367,6,0,P|200:104|296:96,1,200,4|0,0:0|0:0,0:0:0:0:
128,88,12936,1,8,0:0:0:0:
280,88,13126,1,0,0:0:0:0:
336,88,13221,1,0,0:0:0:0:
136,224,13316,1,2,0:0:0:0:
24,192,13506,1,0,0:0:0:0:
280,104,13696,1,8,0:0:0:0:
136,144,13886,1,0,0:0:0:0:
424,224,14075,5,2,0:0:0:0:
304,232,14265,1,0,0:0:0:0:
424,280,14455,1,8,0:0:0:0:
24,136,14645,2,0,L|224:136,1,200,0|0,0:0|0:0,0:0:0:0:
40,80,15215,2,0,L|144:112,1,100,8|0,0:0|0:0,0:0:0:0:
424,248,15594,5,2,0:0:0:0:
168,248,15784,1,2,0:0:0:0:
424,248,16164,1,2,0:0:0:0:
120,248,16354,1,2,0:0:0:0:
424,248,16734,1,2,0:0:0:0:
72,248,16923,1,2,0:0:0:0:
376,184,17303,1,2,0:0:0:0:
72,160,17683,1,2,0:0:0:0:
392,72,17873,6,0,P|392:152|344:200,1,150,2|0,0:0|0:0,0:0:0:0:
144,192,18253,2,0,P|102:167|94:120,1,100,2|2,0:0|0:0,0:0:0:0:
134,88,18537,1,2,0:0:0:0:
400,144,18632,6,0,L|496:112,1,100,4|0,0:0|0:0,0:0:0:0:
240,104,19012,2,0,L|336:72,1,100,8|0,0:0|0:0,0:0:0:0:
80,112,19392,1,2,0:0:0:0:
224,160,19582,1,0,0:0:0:0:
80,200,19772,1,8,0:0:0:0:
336,192,19961,1,0,0:0:0:0:
16,328,20151,6,0,L|112:296,1,100,2|0,0:0|0:0,0:0:0:0:
296,320,20531,1,8,0:0:0:0:
144,320,20721,1,0,0:0:0:0:
464,240,20911,2,0,L|416:152,1,100,2|0,0:0|0:0,0:0:0:0:
48,224,21291,2,0,L|96:136,1,100,8|0,0:0|0:0,0:0:0:0:
144,96,21575,1,0,0:0:0:0:
392,144,21670,6,0,L|480:96,1,100
224,144,22050,2,0,L|312:96,1,100,8|0,0:0|0:0,0:0:0:0:
56,136,22430,1,2,0:0:0:0:
176,136,22620,1,0,0:0:0:0:
360,248,22810,1,8,0:0:0:0:
176,200,22999,1,0,0:0:0:0:
440,184,23189,5,2,0:0:0:0:
296,160,23379,1,0,0:0:0:0:
440,96,23569,1,8,0:0:0:0:
112,96,23759,2,0,L|24:40,2,100,0|2|0,0:0|0:0|0:0,0:0:0:0:
296,176,24329,1,8,0:0:0:0:
104,176,24518,1,0,0:0:0:0:
448,264,24708,6,0,L|360:216,1,100,4|0,0:0|0:0,0:0:0:0:
96,264,25088,2,0,L|184:216,1,100,8|0,0:0|0:0,0:0:0:0:
440,144,25468,2,0,L|352:96,1,100,2|0,0:0|0:0,0:0:0:0:
48,144,25848,2,0,L|136:96,1,100,8|0,0:0|0:0,0:0:0:0:
472,112,26227,5,2,0:0:0:0:
344,112,26417,1,0,0:0:0:0:
472,48,26607,1,8,0:0:0:0:
128,72,26797,2,0,L|32:104,2,100,0|2|0,0:0|0:0|0:0,0:0:0:0:
448,208,27367,1,8,0:0:0:0:
488,168,27461,1,0,0:0:0:0:
448,128,27556,1,0,0:0:0:0:
376,168,27651,1,0,0:0:0:0:
184,344,27746,6,0,P|136:264|192:184,1,200,2|8,0:0|0:0,0:0:0:0:
496,192,28316,1,0,0:0:0:0:
240,184,28506,1,2,0:0:0:0:
328,184,28696,1,0,0:0:0:0:
72,88,28886,1,8,0:0:0:0:
440,56,29075,2,0,L|392:144,1,100,4|0,0:0|0:0,0:0:0:0:
208,72,29455,6,0,L|208:176,1,100,0|8,0:0|0:0,0:0:0:0:
464,88,29835,1,2,0:0:0:0:
152,200,30025,5,2,0:0:0:0:
64,200,30215,1,2,0:0:0:0:
408,256,30405,1,8,0:0:0:0:
456,208,30499,1,0,0:0:0:0:
464,120,30594,1,2,0:0:0:0:
416,168,30689,1,2,0:0:0:0:
168,264,30784,5,4,0:0:0:0:
80,264,30974,1,0,0:0:0:0:
448,264,31164,1,8,0:0:0:0:
384,264,31354,1,0,0:0:0:0:
136,200,31544,1,2,0:0:0:0:
48,200,31734,1,0,0:0:0:0:
240,192,31923,1,8,0:0:0:0:
80,128,32113,1,0,0:0:0:0:
376,120,32303,6,0,L|264:96,1,100,2|0,0:0|0:0,0:0:0:0:
80,128,32683,2,0,L|184:96,1,100,8|0,0:0|0:0,0:0:0:0:
472,240,33063,2,0,L|424:152,1,100,2|0,0:0|0:0,0:0:0:0:
32,224,33442,2,0,L|80:136,1,100,8|0,0:0|0:0,0:0:0:0:
128,96,33727,1,0,0:0:0:0:
336,152,33822,5,4,0:0:0:0:
184,152,34012,1,0,0:0:0:0:
336,72,34202,1,8,0:0:0:0:
160,88,34392,1,0,0:0:0:0:
472,216,34582,2,0,L|376:184,1,100,2|0,0:0|0:0,0:0:0:0:
120,224,34961,2,0,L|216:192,1,100,8|0,0:0|0:0,0:0:0:0:
464,176,35341,5,8,0:0:0:0:
368,176,35531,1,0,0:0:0:0:
16,104,35721,1,8,0:0:0:0:
104,104,35911,1,0,0:0:0:0:
352,216,36101,1,8,0:0:0:0:
192,216,36291,1,0,0:0:0:0:
440,168,36480,1,8,0:0:0:0:
160,160,36670,1,0,0:0:0:0:
504,200,36860,6,0,P|488:152|456:112,1,100,4|0,0:0|0:0,0:0:0:0:
296,64,37240,1,8,0:0:0:0:
456,64,37430,1,0,0:0:0:0:
128,72,37620,1,2,0:0:0:0:
32,72,37810,1,0,0:0:0:0:
216,176,37999,1,8,0:0:0:0:
64,176,38189,1,0,0:0:0:0:
360,192,38379,5,2,0:0:0:0:
272,192,38569,1,0,0:0:0:0:
448,320,38759,1,8,0:0:0:0:
200,320,38949,1,0,0:0:0:0:
456,256,39139,2,0,L|368:208,1,100,2|0,0:0|0:0,0:0:0:0:
96,208,39518,1,8,0:0:0:0:
64,176,39613,1,0,0:0:0:0:
94,145,39708,1,0,0:0:0:0:
168,144,39803,1,0,0:0:0:0:
416,152,39898,6,0,L|328:104,1,100,4|0,0:0|0:0,0:0:0:0:
144,152,40278,2,0,L|232:104,1,100,8|0,0:0|0:0,0:0:0:0:
488,72,40658,1,2,0:0:0:0:
328,64,40848,1,0,0:0:0:0:
488,144,41037,1,8,0:0:0:0:
168,176,41227,2,0,L|200:80,1,100,4|0,0:0|0:0,0:0:0:0:
456,96,41607,5,0,0:0:0:0:
320,112,41797,1,8,0:0:0:0:
456,176,41987,1,2,0:0:0:0:
80,80,42177,2,0,P|24:112|16:152,1,100,2|2,0:0|0:0,0:0:0:0:
48,176,42461,1,0,0:0:0:0:
200,176,42556,1,8,0:0:0:0:
256,112,42651,1,0,0:0:0:0:
176,104,42746,1,2,0:0:0:0:
120,168,42841,1,2,0:0:0:0:
384,152,42936,6,0,L|480:120,1,100,4|0,0:0|0:0,0:0:0:0:
296,248,43316,1,8,0:0:0:0:
184,248,43506,1,0,0:0:0:0:
440,96,43696,1,2,0:0:0:0:
288,96,43886,1,0,0:0:0:0:
480,176,44075,1,8,0:0:0:0:
224,176,44265,1,0,0:0:0:0:
496,248,44455,6,0,P|488:200|456:160,1,100,2|0,0:0|0:0,0:0:0:0:
200,112,44835,1,8,0:0:0:0:
360,120,45025,1,0,0:0:0:0:
104,184,45215,1,2,0:0:0:0:
272,184,45405,1,0,0:0:0:0:
16,264,45594,1,8,0:0:0:0:
272,272,45784,1,0,0:0:0:0:
16,248,45974,6,0,P|24:200|56:160,1,100,2|0,0:0|0:0,0:0:0:0:
328,120,46354,1,8,0:0:0:0:
232,120,46544,1,0,0:0:0:0:
488,96,46734,1,2,0:0:0:0:
352,120,46923,1,0,0:0:0:0:
488,160,47113,1,8,0:0:0:0:
88,96,47303,1,4,0:0:0:0:
184,96,47493,5,0,0:0:0:0:
432,96,47683,1,0,0:0:0:0:
312,96,47873,1,8,0:0:0:0:
456,168,48063,1,0,0:0:0:0:
120,192,48253,1,4,0:0:0:0:
32,192,48442,1,2,0:0:0:0:
72,248,48537,1,0,0:0:0:0:
312,280,48632,1,8,0:0:0:0:
400,280,48822,1,0,0:0:0:0:
48,288,49012,6,0,P|104:168|168:136,1,200,4|8,0:0|0:0,0:0:0:0:
312,136,49582,1,0,0:0:0:0:
112,120,49772,1,2,0:0:0:0:
24,72,49961,1,0,0:0:0:0:
112,48,50151,1,8,0:0:0:0:
384,208,50341,6,0,L|320:128,1,100,0|2,0:0|0:0,0:0:0:0:
120,208,50721,2,0,L|184:128,1,100,0|8,0:0|0:0,0:0:0:0:
384,280,51101,1,0,0:0:0:0:
88,280,51291,2,0,L|24:200,1,100,2|0,0:0|0:0,0:0:0:0:
224,280,51670,2,0,L|152:200,1,100,8|0,0:0|0:0,0:0:0:0:
440,288,52050,6,0,P|384:168|320:136,1,200,2|8,0:0|0:0,0:0:0:0:
128,136,52620,1,0,0:0:0:0:
400,120,52810,1,2,0:0:0:0:
488,72,52999,1,0,0:0:0:0:
400,48,53189,1,8,0:0:0:0:
128,208,53379,6,0,L|192:128,1,100,0|2,0:0|0:0,0:0:0:0:
392,208,53759,2,0,L|328:128,1,100,0|8,0:0|0:0,0:0:0:0:
128,280,54139,1,0,0:0:0:0:
424,280,54329,2,0,L|488:200,1,100,2|0,0:0|0:0,0:0:0:0:
208,280,54708,2,0,L|136:200,1,100,8|0,0:0|0:0,0:0:0:0:
480,32,55088,6,0,P|392:120|320:120,1,200,4|8,0:0|0:0,0:0:0:0:
32,152,55658,2,0,L|136:144,1,100,2|2,0:0|0:0,0:0:0:0:
384,152,56037,2,0,L|280:144,1,100,0|8,0:0|0:0,0:0:0:0:
88,112,56417,1,0,0:0:0:0:
336,88,56607,5,4,0:0:0:0:
160,72,56797,1,0,0:0:0:0:
336,56,56987,1,8,0:0:0:0:
32,256,57177,1,2,0:0:0:0:
128,216,57367,1,2,0:0:0:0:
32,192,57556,1,2,0:0:0:0:
312,208,57746,1,8,0:0:0:0:
416,152,57936,1,2,0:0:0:0:
72,160,58126,6,0,L|172:160,1,100,4|0,0:0|0:0,0:0:0:0:
40,96,58506,1,8,0:0:0:0:
448,56,58696,2,0,L|360:104,1,100,2|0,0:0|0:0,0:0:0:0:
56,56,59075,2,0,L|152:96,1,100,2|0,0:0|0:0,0:0:0:0:
496,88,59455,6,0,P|464:184|392:248,1,200,4|2,0:0|0:0,0:0:0:0:
136,240,60025,1,2,0:0:0:0:
392,224,60215,1,2,0:0:0:0:
440,216,60278,1,2,0:0:0:0:
472,168,60341,1,2,0:0:0:0:
216,176,60405,1,2,0:0:0:0:
168,168,60468,1,0,0:0:0:0:
128,160,60531,1,0,0:0:0:0:
104,112,60594,1,0,0:0:0:0:
144,112,60658,1,0,0:0:0:0:
184,104,60721,1,0,0:0:0:0:
328,152,60784,5,0,0:0:0:0:
384,152,60848,1,0,0:0:0:0:
408,104,60911,1,0,0:0:0:0:
208,136,60974,1,0,0:0:0:0:
152,136,61037,1,0,0:0:0:0:
128,104,61101,1,0,0:0:0:0:
336,128,61164,6,0,P|328:80|288:48,1,100,4|0,0:0|0:0,0:0:0:0:
152,64,61544,1,8,0:0:0:0:
400,208,61734,1,0,0:0:0:0:
448,208,61829,1,0,0:0:0:0:
400,264,61923,1,2,0:0:0:0:
216,256,62113,1,0,0:0:0:0:
136,256,62303,1,8,0:0:0:0:
416,304,62493,1,0,0:0:0:0:
504,304,62683,5,0,0:0:0:0:
320,304,62873,1,0,0:0:0:0:
40,176,63063,1,8,0:0:0:0:
168,176,63253,1,0,0:0:0:0:
416,176,63442,1,2,0:0:0:0:
128,232,63632,1,0,0:0:0:0:
376,104,63822,1,8,0:0:0:0:
216,104,64012,1,0,0:0:0:0:
240,64,64107,1,0,0:0:0:0:
496,88,64202,5,2,0:0:0:0:
400,88,64392,1,0,0:0:0:0:
304,88,64582,1,8,0:0:0:0:
56,72,64772,1,0,0:0:0:0:
8,112,64867,1,0,0:0:0:0:
56,128,64961,1,2,0:0:0:0:
304,208,65151,1,0,0:0:0:0:
160,208,65341,1,8,0:0:0:0:
408,160,65531,1,0,0:0:0:0:
312,160,65721,5,0,0:0:0:0:
216,160,65911,1,0,0:0:0:0:
408,256,66101,1,8,0:0:0:0:
504,256,66291,1,0,0:0:0:0:
216,280,66480,1,2,0:0:0:0:
360,272,66670,1,0,0:0:0:0:
72,176,66860,2,0,P|96:128|136:104,1,100,8|0,0:0|0:0,0:0:0:0:
208,96,67145,1,0,0:0:0:0:
408,80,67240,5,4,0:0:0:0:
288,80,67430,1,0,0:0:0:0:
408,144,67620,1,8,0:0:0:0:
232,144,67810,1,0,0:0:0:0:
496,200,67999,2,0,L|416:136,1,100,2|0,0:0|0:0,0:0:0:0:
240,304,68379,1,8,0:0:0:0:
400,296,68569,1,0,0:0:0:0:
376,248,68664,1,0,0:0:0:0:
152,304,68759,5,2,0:0:0:0:
288,304,68949,1,0,0:0:0:0:
40,304,69139,2,0,L|120:240,1,100,8|0,0:0|0:0,0:0:0:0:
288,248,69518,1,2,0:0:0:0:
16,224,69708,1,0,0:0:0:0:
88,224,69898,1,8,0:0:0:0:
400,208,70088,1,4,0:0:0:0:
288,208,70278,5,0,0:0:0:0:
472,152,70468,1,0,0:0:0:0:
184,136,70658,2,0,L|96:88,1,100,8|0,0:0|0:0,0:0:0:0:
400,128,71037,1,2,0:0:0:0:
240,96,71227,1,0,0:0:0:0:
400,64,71417,1,8,0:0:0:0:
24,56,71607,2,0,P|64:152|152:176,1,200,4|0,0:0|0:0,0:0:0:0:
400,264,72177,5,8,0:0:0:0:
224,272,72367,1,2,0:0:0:0:
184,272,72461,1,0,0:0:0:0:
384,200,72556,1,2,0:0:0:0:
448,200,72651,1,0,0:0:0:0:
472,152,72746,1,0,0:0:0:0:
432,120,72841,1,0,0:0:0:0:
232,168,72936,5,8,0:0:0:0:
176,168,73031,1,0,0:0:0:0:
440,64,73126,1,0,0:0:0:0:
496,64,73221,1,0,0:0:0:0:
152,128,73316,6,0,P|184:80|224:64,1,100,4|0,0:0|0:0,0:0:0:0:
360,56,73696,1,8,0:0:0:0:
112,200,73886,1,0,0:0:0:0:
64,200,73980,1,0,0:0:0:0:
112,256,74075,1,2,0:0:0:0:
296,256,74265,1,0,0:0:0:0:
384,256,74455,1,8,0:0:0:0:
120,296,74645,1,0,0:0:0:0:
24,296,74835,5,0,0:0:0:0:
208,296,75025,1,0,0:0:0:0:
488,168,75215,1,8,0:0:0:0:
360,168,75405,1,0,0:0:0:0:
112,168,75594,1,2,0:0:0:0:
384,168,75784,1,0,0:0:0:0:
136,96,75974,1,8,0:0:0:0:
296,96,76164,1,0,0:0:0:0:
16,88,76354,6,0,P|32:128|72:168,1,100,4|0,0:0|0:0,0:0:0:0:
168,88,76734,1,8,0:0:0:0:
496,88,76923,1,0,0:0:0:0:
400,88,77113,1,2,0:0:0:0:
144,192,77303,1,0,0:0:0:0:
296,192,77493,1,8,0:0:0:0:
16,192,77683,2,0,P|32:144|72:120,1,100,2|0,0:0|0:0,0:0:0:0:
392,200,78063,6,0,P|368:152|336:120,1,100,2|0,0:0|0:0,0:0:0:0:
40,192,78442,1,8,0:0:0:0:
488,272,78632,1,8,0:0:0:0:
408,272,78822,1,0,0:0:0:0:
360,272,78917,1,0,0:0:0:0:
152,272,79012,1,8,0:0:0:0:
296,192,79202,1,0,0:0:0:0:
264,184,79297,1,0,0:0:0:0:
8,112,79392,5,4,0:0:0:0:
96,112,79582,1,0,0:0:0:0:
256,112,79772,1,8,0:0:0:0:
168,112,79961,1,0,0:0:0:0:
416,112,80151,1,2,0:0:0:0:
504,112,80341,1,0,0:0:0:0:
240,200,80531,1,8,0:0:0:0:
384,200,80721,1,0,0:0:0:0:
8,280,80911,5,4,0:0:0:0:
96,280,81101,1,0,0:0:0:0:
296,280,81291,1,8,0:0:0:0:
152,280,81480,1,0,0:0:0:0:
432,240,81670,5,2,0:0:0:0:
480,176,81765,1,0,0:0:0:0:
464,120,81860,1,0,0:0:0:0:
416,64,81955,1,0,0:0:0:0:
232,240,82050,1,8,0:0:0:0:
176,184,82145,1,0,0:0:0:0:
400,160,82240,1,0,0:0:0:0:
456,104,82335,1,0,0:0:0:0:
176,224,82430,6,0,P|112:168|184:112,1,200,4|8,0:0|0:0,0:0:0:0:
488,224,82999,2,0,L|424:144,1,100,0|2,0:0|0:0,0:0:0:0:
168,192,83379,1,0,0:0:0:0:
312,192,83569,1,8,0:0:0:0:
56,328,83759,6,0,P|136:256|224:248,1,200
416,192,84329,2,0,P|464:176|472:128,1,100,8|2,0:0|0:0,0:0:0:0:
440,104,84613,1,0,0:0:0:0:
160,192,84708,2,0,P|112:176|104:128,1,100,2|2,0:0|0:0,0:0:0:0:
136,104,84993,1,0,0:0:0:0:
376,176,85088,2,0,P|424:160|432:112,1,100,8|2,0:0|0:0,0:0:0:0:
400,88,85373,1,0,0:0:0:0:
160,160,85468,6,0,P|216:80|312:64,1,200,4|8,0:0|0:0,0:0:0:0:
64,248,86037,2,0,L|144:184,1,100,2|0,0:0|0:0,0:0:0:0:
448,248,86417,2,0,L|368:184,1,100,2|0,0:0|0:0,0:0:0:0:
8,240,86797,6,0,P|48:152|136:104,1,200,2|0,0:0|0:0,0:0:0:0:
328,104,87367,1,0,0:0:0:0:
144,176,87556,1,0,0:0:0:0:
488,112,87746,1,0,0:0:0:0:
232,192,87936,1,0,0:0:0:0:
400,192,88126,1,0,0:0:0:0:
80,240,88316,1,4,0:0:0:0:
256,192,88506,12,0,89645,0:0:0:0:
