osu file format v14

[General]
AudioFilename: No Poi!.mp3
AudioLeadIn: 0
PreviewTime: 60489
Countdown: 0
SampleSet: Soft
StackLeniency: 0.7
Mode: 0
LetterboxInBreaks: 0
WidescreenStoryboard: 0

[Editor]
Bookmarks: 8565
DistanceSpacing: 1.6
BeatDivisor: 4
GridSize: 32
TimelineZoom: 3.599999

[Metadata]
Title:No Poi!
TitleUnicode:ノーポイッ!
Artist:Petit Rabbit's
ArtistUnicode:Petit Rabbit's
Creator:walaowey
Version:Insane
Source:ご注文はうさぎですか??
Tags:Gochuumon wa Usagi Desu ka? GochiUsa Is the Order a Rabbit? Season 2 Opening [Sc4v4ng3r] Sc4v4ng3r ffstar0716 [ -Scarlet- ] Kagari CLSW crystalseed Minato Yukina tasuke912 Chino Kafū Kafuu Kafu Cocoa Hoto Rize Tedeza Chiya Ujimatsu Syaro Kirima sakura ayane 佐倉綾音 保登心愛 ココア minase inori 水瀬いのり 香風智乃 チノ taneda risa 種田梨沙 天々座理世 リゼ satou satomi 佐藤聡美 宇治松千夜 uchida maaya 内田真礼 桐間紗路 シャロ
BeatmapID:827660
BeatmapSetID:378094

[Difficulty]
HPDrainRate:6
CircleSize:3.8
OverallDifficulty:7.5
ApproachRate:8.5
SliderMultiplier:1.8
SliderTickRate:1

[Events]
//Background and Video events
0,0,"BG.jpg",0,0
Video,405,"poi.avi"
//Break Periods
//Storyboard Layer 0 (Background)
//Storyboard Layer 1 (Fail)
//Storyboard Layer 2 (Pass)
//Storyboard Layer 3 (Foreground)
//Storyboard Sound Samples

[TimingPoints]
405,379.746835443038,4,2,1,40,1,0
405,-133.333333333333,4,2,1,40,0,0
4961,-200,4,2,1,50,0,0
5721,-100,4,2,1,50,0,0
6291,-100,4,2,1,60,0,0
17588,-100,4,2,1,10,0,0
17683,-100,4,2,1,60,0,0
18632,-100,4,2,1,50,0,0
33822,-100,4,2,1,70,0,0
36860,-100,4,2,1,60,0,0
42936,-100,4,2,1,70,0,0
61164,-100,4,2,1,80,0,1
79392,-100,4,2,1,60,0,0
88411,-100,4,2,1,10,0,0

[Colours]
Combo1 : 255,164,72
Combo2 : 255,128,128
Combo3 : 255,47,255
Combo4 : 108,255,108

[HitObjects]
144,113,405,5,2,0:0:0:0:
151,120,784,1,0,0:0:0:0:
233,243,974,1,0,0:0:0:0:
238,251,1354,2,0,L|299:223,1,67.5000025749208
376,94,1734,6,0,P|312:73|232:89,1,135.000005149842
230,169,2303,1,0,0:0:0:0:
299,223,2493,1,0,0:0:0:0:
377,182,2683,2,0,B|437:174|457:123|457:123|488:154,1,135.000005149842
467,231,3253,1,0,0:0:0:0:
376,94,3442,6,0,L|318:55,1,67.5000025749208
291,126,3822,2,0,L|225:104,1,67.5000025749208
222,186,4202,2,0,L|152:182,1,67.5000025749208
172,268,4582,2,0,L|104:282,1,67.5000025749208
235,366,4961,6,0,P|276:318|284:238,1,135,2|0,0:0|0:0,0:0:0:0:
154,182,5721,6,0,L|110:169,2,45
172,268,6101,1,0,0:0:0:0:
1,209,6291,6,0,P|14:108|93:55,1,180,4|0,0:0|0:0,0:0:0:0:
222,123,6860,1,8,0:0:0:0:
154,182,7050,2,0,L|116:209,2,45,0|0|2,0:0|0:0|0:0,0:0:0:0:
203,36,7430,1,0,0:0:0:0:
67,154,7620,1,8,0:0:0:0:
172,268,7810,1,0,0:0:0:0:
136,94,7999,6,0,P|95:66|45:64,1,90,2|0,0:0|0:0,0:0:0:0:
154,182,8379,1,8,0:0:0:0:
222,123,8569,1,0,0:0:0:0:
222,123,8664,1,0,0:0:0:0:
222,123,8759,1,2,0:0:0:0:
67,154,8949,1,0,0:0:0:0:
172,268,9139,1,8,0:0:0:0:
289,64,9329,6,0,P|210:33|137:93,1,180,4|0,0:0|0:0,0:0:0:0:
238,211,9898,1,8,0:0:0:0:
222,123,10088,2,0,L|214:78,2,45,0|0|2,0:0|0:0|0:0,0:0:0:0:
172,268,10468,1,0,0:0:0:0:
136,94,10658,1,8,0:0:0:0:
289,64,10848,1,0,0:0:0:0:
154,182,11037,6,0,L|80:246,1,90,2|0,0:0|0:0,0:0:0:0:
258,295,11417,1,8,0:0:0:0:
222,123,11607,2,0,L|125:91,1,90,0|2,0:0|0:0,0:0:0:0:
67,154,11987,1,0,0:0:0:0:
67,154,12082,1,0,0:0:0:0:
67,154,12177,1,8,0:0:0:0:
308,153,12367,6,0,P|290:62|208:31,1,180,4|0,0:0|0:0,0:0:0:0:
238,211,12936,1,8,0:0:0:0:
322,240,13126,1,0,0:0:0:0:
322,240,13221,1,0,0:0:0:0:
322,240,13316,2,0,P|366:218|395:166,1,90,2|0,0:0|0:0,0:0:0:0:
222,123,13696,1,8,0:0:0:0:
172,268,13886,1,0,0:0:0:0:
308,153,14075,5,2,0:0:0:0:
154,182,14265,1,0,0:0:0:0:
258,295,14455,1,8,0:0:0:0:
308,153,14645,2,0,L|294:109,2,45,0|0|2,0:0|0:0|0:0,0:0:0:0:
342,326,15025,1,0,0:0:0:0:
342,326,15120,1,0,0:0:0:0:
342,326,15215,1,8,0:0:0:0:
172,268,15405,1,0,0:0:0:0:
389,185,15594,6,0,L|447:210,1,45,2|0,0:0|0:0,0:0:0:0:
503,295,15784,1,2,0:0:0:0:
317,238,16164,6,0,L|309:175,1,45,2|0,0:0|0:0,0:0:0:0:
356,83,16354,1,2,0:0:0:0:
400,270,16734,6,0,L|349:307,1,45,2|0,0:0|0:0,0:0:0:0:
247,313,16923,1,2,0:0:0:0:
389,185,17303,6,0,P|458:208|480:293,1,135,2|0,0:0|0:0,0:0:0:0:
453,335,17683,1,2,0:0:0:0:
238,211,17873,2,0,B|204:136|236:88|236:88|280:116,1,180,2|2,0:0|0:0,0:0:0:0:
400,270,18442,1,2,0:0:0:0:
400,270,18537,1,2,0:0:0:0:
400,270,18632,6,0,L|320:328,1,90,4|0,0:0|0:0,0:0:0:0:
172,268,19012,1,8,0:0:0:0:
238,211,19202,2,0,L|288:225,2,45,0|0|2,0:0|0:0|0:0,0:0:0:0:
136,94,19582,1,0,0:0:0:0:
308,153,19772,1,8,0:0:0:0:
154,182,19961,1,0,0:0:0:0:
376,98,20151,5,2,0:0:0:0:
238,211,20341,1,0,0:0:0:0:
293,68,20531,1,8,0:0:0:0:
391,184,20721,1,0,0:0:0:0:
391,184,20816,1,0,0:0:0:0:
390,184,20911,2,0,P|365:220|325:240,1,90,2|0,0:0|0:0,0:0:0:0:
154,182,21291,2,0,L|125:128,2,45,8|0|0,0:0|0:0|0:0,0:0:0:0:
336,334,21670,6,0,P|386:311|416:259,1,90
376,98,22050,1,8,0:0:0:0:
308,153,22240,1,0,0:0:0:0:
308,153,22335,1,0,0:0:0:0:
308,153,22430,2,0,P|343:179|406:180,1,90,2|0,0:0|0:0,0:0:0:0:
443,44,22810,1,8,0:0:0:0:
289,64,22999,1,0,0:0:0:0:
405,269,23189,5,2,0:0:0:0:
376,98,23379,1,0,0:0:0:0:
222,123,23569,1,8,0:0:0:0:
388,184,23759,1,0,0:0:0:0:
388,184,23854,1,0,0:0:0:0:
388,184,23949,2,0,L|472:215,1,90,2|0,0:0|0:0,0:0:0:0:
336,334,24329,1,8,0:0:0:0:
308,153,24518,1,0,0:0:0:0:
494,303,24708,6,0,L|414:370,1,90,4|0,0:0|0:0,0:0:0:0:
252,299,25088,1,8,0:0:0:0:
388,184,25278,1,0,0:0:0:0:
336,334,25468,2,0,L|316:228,1,90,2|0,0:0|0:0,0:0:0:0:
456,131,25848,1,8,0:0:0:0:
405,269,26037,1,0,0:0:0:0:
222,123,26227,5,2,0:0:0:0:
374,98,26417,1,0,0:0:0:0:
319,245,26607,1,8,0:0:0:0:
289,64,26797,1,0,0:0:0:0:
456,131,26987,2,0,L|499:148,2,45,2|0|0,0:0|0:0|0:0,0:0:0:0:
238,211,27367,1,8,0:0:0:0:
232,237,27461,1,0,0:0:0:0:
234,263,27556,1,0,0:0:0:0:
243,288,27651,1,0,0:0:0:0:
259,309,27746,6,0,P|302:331|349:328,1,90,2|0,0:0|0:0,0:0:0:0:
374,98,28126,2,0,L|276:58,1,90,8|0,0:0|0:0,0:0:0:0:
154,182,28506,1,2,0:0:0:0:
304,153,28696,1,0,0:0:0:0:
203,36,28886,1,8,0:0:0:0:
1,209,29075,6,0,L|90:242,1,90,4|0,0:0|0:0,0:0:0:0:
50,64,29455,1,0,0:0:0:0:
23,296,29645,1,8,0:0:0:0:
172,268,29835,2,0,L|208:241,2,45,2|0|2,0:0|0:0|0:0,0:0:0:0:
1,209,30215,1,2,0:0:0:0:
1,209,30310,1,0,0:0:0:0:
1,209,30405,1,8,0:0:0:0:
222,123,30594,1,2,0:0:0:0:
222,123,30689,1,2,0:0:0:0:
222,123,30784,6,0,P|275:131|316:170,1,90,4|0,0:0|0:0,0:0:0:0:
172,268,31164,2,0,L|154:178,1,90,8|0,0:0|0:0,0:0:0:0:
256,294,31544,1,2,0:0:0:0:
85,240,31734,1,0,0:0:0:0:
136,94,31923,2,0,P|164:53|205:34,1,90,8|0,0:0|0:0,0:0:0:0:
388,184,32303,5,2,0:0:0:0:
238,211,32493,1,0,0:0:0:0:
290,63,32683,1,8,0:0:0:0:
456,131,32873,1,0,0:0:0:0:
456,131,32968,1,0,0:0:0:0:
455,130,33063,2,0,P|474:180|461:230,1,90,2|0,0:0|0:0,0:0:0:0:
302,296,33442,1,8,0:0:0:0:
374,98,33632,1,0,0:0:0:0:
482,347,33822,5,4,0:0:0:0:
297,328,34012,1,0,0:0:0:0:
308,153,34202,2,0,L|284:36,1,90,8|0,0:0|0:0,0:0:0:0:
85,240,34582,5,2,0:0:0:0:
322,243,34772,1,0,0:0:0:0:
203,36,34961,1,8,0:0:0:0:
172,268,35151,1,0,0:0:0:0:
358,14,35341,5,8,0:0:0:0:
136,94,35531,1,0,0:0:0:0:
388,184,35721,1,8,0:0:0:0:
203,36,35911,1,0,0:0:0:0:
85,240,36101,5,8,0:0:0:0:
308,153,36291,1,0,0:0:0:0:
50,64,36480,1,8,0:0:0:0:
172,268,36670,1,0,0:0:0:0:
172,268,36765,1,0,0:0:0:0:
172,268,36860,6,0,L|277:301,1,90,4|0,0:0|0:0,0:0:0:0:
388,184,37240,1,8,0:0:0:0:
222,123,37430,1,0,0:0:0:0:
326,241,37620,2,0,L|410:275,1,90,2|0,0:0|0:0,0:0:0:0:
257,294,37999,2,0,P|238:244|252:195,1,90,8|0,0:0|0:0,0:0:0:0:
359,8,38379,5,2,0:0:0:0:
455,130,38569,1,0,0:0:0:0:
289,64,38759,1,8,0:0:0:0:
440,40,38949,1,0,0:0:0:0:
308,153,39139,2,0,L|235:213,1,90,2|0,0:0|0:0,0:0:0:0:
405,269,39518,1,8,0:0:0:0:
289,64,39708,1,0,0:0:0:0:
289,64,39803,1,0,0:0:0:0:
289,64,39898,6,0,L|218:120,1,90,4|0,0:0|0:0,0:0:0:0:
471,217,40278,2,0,L|451:110,1,90,8|0,0:0|0:0,0:0:0:0:
322,243,40658,2,0,P|320:289|352:338,1,90,2|0,0:0|0:0,0:0:0:0:
374,98,41037,1,8,0:0:0:0:
162,269,41227,6,0,L|251:296,1,90,4|0,0:0|0:0,0:0:0:0:
289,64,41607,2,0,P|253:37|198:33,1,90,0|8,0:0|0:0,0:0:0:0:
50,64,41987,2,0,L|9:84,2,45,2|0|2,0:0|0:0|0:0,0:0:0:0:
218,120,42367,1,2,0:0:0:0:
218,120,42461,1,0,0:0:0:0:
218,120,42556,1,8,0:0:0:0:
102,329,42746,1,2,0:0:0:0:
102,329,42841,1,2,0:0:0:0:
102,329,42936,6,0,L|85:240,1,90,4|0,0:0|0:0,0:0:0:0:
203,36,43316,2,0,P|255:41|287:69,1,90,8|0,0:0|0:0,0:0:0:0:
238,210,43696,1,2,0:0:0:0:
218,120,43886,1,0,0:0:0:0:
388,184,44075,2,0,L|485:222,1,90,8|0,0:0|0:0,0:0:0:0:
405,269,44455,5,2,0:0:0:0:
238,210,44645,1,0,0:0:0:0:
374,98,44835,1,8,0:0:0:0:
322,243,45025,1,0,0:0:0:0:
218,120,45215,2,0,L|314:157,1,90,2|0,0:0|0:0,0:0:0:0:
172,268,45594,1,8,0:0:0:0:
67,151,45784,1,0,0:0:0:0:
238,210,45974,5,2,0:0:0:0:
85,240,46164,1,0,0:0:0:0:
218,120,46354,1,8,0:0:0:0:
322,243,46544,2,0,L|349:308,2,45,0|0|2,0:0|0:0|0:0,0:0:0:0:
152,188,46923,1,0,0:0:0:0:
195,356,47113,1,8,0:0:0:0:
301,152,47303,6,0,P|306:104|277:53,1,90,4|0,0:0|0:0,0:0:0:0:
152,188,47683,1,0,0:0:0:0:
322,243,47873,1,8,0:0:0:0:
218,120,48063,1,0,0:0:0:0:
195,356,48253,2,0,P|243:324|260:281,1,90,4|2,0:0|0:0,0:0:0:0:
261,274,48537,1,0,0:0:0:0:
258,251,48632,1,8,0:0:0:0:
136,94,48822,1,0,0:0:0:0:
24,297,49012,6,0,L|213:362,1,180,4|8,0:0|0:0,0:0:0:0:
336,334,49582,1,0,0:0:0:0:
336,334,49677,1,0,0:0:0:0:
336,333,49772,2,0,P|376:316|404:281,1,90,2|0,0:0|0:0,0:0:0:0:
301,152,50151,1,8,0:0:0:0:
173,268,50341,6,0,L|259:298,1,90,2|0,0:0|0:0,0:0:0:0:
388,184,50721,2,0,L|315:251,1,90,0|8,0:0|0:0,0:0:0:0:
150,180,51101,1,0,0:0:0:0:
284,62,51291,1,2,0:0:0:0:
238,210,51480,1,0,0:0:0:0:
136,94,51670,1,8,0:0:0:0:
301,152,51860,1,0,0:0:0:0:
194,355,52050,6,0,P|134:349|89:307,2,90,2|0|8,0:0|0:0|0:0,0:0:0:0:
238,210,52620,1,0,0:0:0:0:
136,94,52810,2,0,L|51:170,1,90,2|0,0:0|0:0,0:0:0:0:
35,309,53189,1,8,0:0:0:0:
255,298,53379,6,0,P|295:279|321:243,1,90,2|0,0:0|0:0,0:0:0:0:
330,98,53759,1,0,0:0:0:0:
238,210,53949,1,8,0:0:0:0:
376,171,54139,1,0,0:0:0:0:
244,120,54329,1,2,0:0:0:0:
322,243,54518,1,0,0:0:0:0:
322,243,54613,1,0,0:0:0:0:
322,243,54708,2,0,L|388:156,1,90,8|0,0:0|0:0,0:0:0:0:
136,94,55088,6,0,P|72:160|96:255,1,180,4|8,0:0|0:0,0:0:0:0:
258,294,55658,1,2,0:0:0:0:
258,294,55753,1,0,0:0:0:0:
258,294,55848,1,2,0:0:0:0:
372,97,56037,2,0,P|329:66|280:65,1,90,0|8,0:0|0:0,0:0:0:0:
404,281,56417,1,0,0:0:0:0:
443,42,56607,6,0,L|367:101,1,90,4|0,0:0|0:0,0:0:0:0:
258,294,56987,1,8,0:0:0:0:
388,184,57177,1,2,0:0:0:0:
388,184,57272,1,0,0:0:0:0:
388,184,57367,1,2,0:0:0:0:
203,36,57556,2,0,L|131:22,2,45,2|0|8,0:0|0:0|0:0,0:0:0:0:
322,243,57936,1,2,0:0:0:0:
322,243,58031,1,2,0:0:0:0:
322,243,58126,6,0,P|339:290|323:342,1,90,4|0,0:0|0:0,0:0:0:0:
152,188,58506,1,8,0:0:0:0:
364,6,58696,6,0,L|383:95,1,90,2|0,0:0|0:0,0:0:0:0:
174,275,59075,2,0,L|151:187,1,90,2|0,0:0|0:0,0:0:0:0:
409,268,59455,6,0,B|344:345|241:318,1,180,4|2,0:0|0:0,0:0:0:0:
289,64,60025,1,2,0:0:0:0:
388,184,60215,1,2,0:0:0:0:
388,184,60310,1,2,0:0:0:0:
388,184,60405,1,2,0:0:0:0:
151,187,60594,1,0,0:0:0:0:
296,32,60784,1,0,0:0:0:0:
322,243,60974,1,0,0:0:0:0:
66,151,61164,6,0,P|130:96|221:126,1,180,4|8,0:0|0:0,0:0:0:0:
168,275,61734,1,0,0:0:0:0:
168,275,61829,1,0,0:0:0:0:
168,275,61923,2,0,L|150:181,1,90,2|0,0:0|0:0,0:0:0:0:
289,64,62303,1,8,0:0:0:0:
258,294,62493,6,0,P|188:341|179:262,1,180
301,152,63063,2,0,L|327:264,1,90,8|0,0:0|0:0,0:0:0:0:
150,186,63442,2,0,L|106:139,2,45,2|0|0,0:0|0:0|0:0,0:0:0:0:
289,64,63822,2,0,L|181:28,1,90,8|0,0:0|0:0,0:0:0:0:
168,274,64202,6,0,P|245:295|325:232,1,180,2|8,0:0|0:0,0:0:0:0:
150,186,64772,1,0,0:0:0:0:
150,186,64867,1,0,0:0:0:0:
150,186,64961,2,0,P|107:208|82:250,1,90,2|0,0:0|0:0,0:0:0:0:
194,355,65341,1,8,0:0:0:0:
301,152,65531,6,0,P|291:69|199:31,1,180
66,151,66101,1,8,0:0:0:0:
168,274,66291,1,0,0:0:0:0:
136,94,66480,1,2,0:0:0:0:
85,240,66670,1,0,0:0:0:0:
218,120,66860,1,8,0:0:0:0:
1,209,67050,1,0,0:0:0:0:
1,209,67145,1,0,0:0:0:0:
1,209,67240,6,0,L|102:248,1,90,4|0,0:0|0:0,0:0:0:0:
258,294,67620,1,8,0:0:0:0:
218,120,67810,1,0,0:0:0:0:
102,329,67999,2,0,P|145:357|192:356,1,90,2|0,0:0|0:0,0:0:0:0:
150,186,68379,1,8,0:0:0:0:
24,297,68569,1,0,0:0:0:0:
258,294,68759,6,0,L|336:226,1,90,2|0,0:0|0:0,0:0:0:0:
136,94,69139,1,8,0:0:0:0:
238,210,69329,1,0,0:0:0:0:
239,209,69423,1,0,0:0:0:0:
239,209,69518,1,2,0:0:0:0:
289,64,69708,1,0,0:0:0:0:
66,151,69898,1,8,0:0:0:0:
258,294,70088,6,0,P|319:244|293:140,1,180,4|0,0:0|0:0,0:0:0:0:
203,36,70658,1,8,0:0:0:0:
84,241,70848,1,0,0:0:0:0:
84,241,70942,1,0,0:0:0:0:
84,241,71037,1,2,0:0:0:0:
239,209,71227,1,0,0:0:0:0:
83,30,71417,1,8,0:0:0:0:
168,274,71607,6,0,P|258:304|328:244,1,180,4|0,0:0|0:0,0:0:0:0:
366,50,72177,1,8,0:0:0:0:
239,209,72367,1,2,0:0:0:0:
239,209,72461,1,0,0:0:0:0:
239,209,72556,1,2,0:0:0:0:
409,268,72746,1,0,0:0:0:0:
289,64,72936,1,8,0:0:0:0:
168,274,73126,1,0,0:0:0:0:
382,94,73316,6,0,L|466:28,1,90,4|0,0:0|0:0,0:0:0:0:
409,268,73696,1,8,0:0:0:0:
219,120,73886,2,0,L|294:58,1,90,0|2,0:0|0:0,0:0:0:0:
239,209,74265,1,0,0:0:0:0:
203,35,74455,1,8,0:0:0:0:
388,184,74645,6,0,P|372:287|310:344,1,180
150,186,75215,2,0,P|170:149|212:121,1,90,8|0,0:0|0:0,0:0:0:0:
194,355,75594,1,2,0:0:0:0:
84,241,75784,1,0,0:0:0:0:
301,152,75974,1,8,0:0:0:0:
168,274,76164,1,0,0:0:0:0:
203,35,76354,6,0,P|287:73|298:160,1,180,4|8,0:0|0:0,0:0:0:0:
258,294,76923,1,0,0:0:0:0:
258,294,77018,1,0,0:0:0:0:
258,294,77113,1,2,0:0:0:0:
219,120,77303,2,0,P|244:83|319:68,1,90,0|8,0:0|0:0,0:0:0:0:
340,326,77683,6,0,L|257:293,1,90,6|0,0:0|0:0,0:0:0:0:
372,95,78063,2,0,L|478:138,1,90,6|0,0:0|0:0,0:0:0:0:
425,360,78442,1,8,0:0:0:0:
239,209,78632,1,8,0:0:0:0:
409,268,78822,1,0,0:0:0:0:
409,268,78917,1,0,0:0:0:0:
409,268,79012,1,8,0:0:0:0:
194,355,79202,1,0,0:0:0:0:
194,355,79297,1,0,0:0:0:0:
194,355,79392,6,0,L|163:255,1,90,4|0,0:0|0:0,0:0:0:0:
136,94,79772,1,8,0:0:0:0:
288,62,79961,2,0,L|335:62,2,45,0|0|2,0:0|0:0|0:0,0:0:0:0:
239,209,80341,1,0,0:0:0:0:
454,128,80531,2,0,P|459:75|436:32,1,90,8|0,0:0|0:0,0:0:0:0:
325,241,80911,6,0,L|432:275,1,90,4|0,0:0|0:0,0:0:0:0:
369,94,81291,2,0,L|301:152,1,90,8|0,0:0|0:0,0:0:0:0:
342,323,81670,1,2,0:0:0:0:
387,182,81860,1,0,0:0:0:0:
255,299,82050,2,0,L|185:364,1,90,8|0,0:0|0:0,0:0:0:0:
66,151,82430,6,0,P|112:68|210:64,1,180,4|8,0:0|0:0,0:0:0:0:
300,152,82999,1,0,0:0:0:0:
300,152,83094,1,0,0:0:0:0:
300,152,83189,2,0,L|325:238,1,90,2|0,0:0|0:0,0:0:0:0:
150,186,83569,1,8,0:0:0:0:
383,179,83759,6,0,P|398:277|309:320,1,180
167,269,84329,1,8,0:0:0:0:
219,120,84518,2,0,L|270:77,2,45,2|0|2,0:0|0:0|0:0,0:0:0:0:
258,294,84898,1,2,0:0:0:0:
258,294,84993,1,0,0:0:0:0:
258,294,85088,1,8,0:0:0:0:
369,94,85278,1,2,0:0:0:0:
369,94,85373,1,2,0:0:0:0:
369,94,85468,6,0,P|359:45|339:12,1,90,4|0,0:0|0:0,0:0:0:0:
136,94,85848,1,8,0:0:0:0:
325,238,86037,6,0,L|408:155,1,90,2|0,0:0|0:0,0:0:0:0:
150,186,86417,2,0,L|171:301,1,90,2|0,0:0|0:0,0:0:0:0:
279,60,86797,6,0,L|167:24,1,90,2|0,0:0|0:0,0:0:0:0:
46,79,87177,1,0,0:0:0:0:
150,186,87367,2,0,L|256:226,1,90
350,118,87746,2,0,P|368:77|363:24,2,90
166,274,88316,5,4,0:0:0:0:
256,192,88411,12,0,89645,0:0:0:0:
