osu file format v14

[General]
AudioFilename: No Poi!.mp3
AudioLeadIn: 0
PreviewTime: 60489
Countdown: 0
SampleSet: Soft
StackLeniency: 0.7
Mode: 0
LetterboxInBreaks: 0
WidescreenStoryboard: 0

[Editor]
Bookmarks: 8565
DistanceSpacing: 1
BeatDivisor: 4
GridSize: 32
TimelineZoom: 1.6

[Metadata]
Title:No Poi!
TitleUnicode:ノーポイッ!
Artist:Petit Rabbit's
ArtistUnicode:Petit Rabbit's
Creator:walaowey
Version:Easy
Source:ご注文はうさぎですか??
Tags:Gochuumon wa Usagi Desu ka? GochiUsa Is the Order a Rabbit? Season 2 Opening [Sc4v4ng3r] Sc4v4ng3r ffstar0716 [ -Scarlet- ] Kagari CLSW crystalseed Minato Yukina tasuke912 Chino Kafū Kafuu Kafu Cocoa Hoto Rize Tedeza Chiya Ujimatsu Syaro Kirima sakura ayane 佐倉綾音 保登心愛 ココア minase inori 水瀬いのり 香風智乃 チノ taneda risa 種田梨沙 天々座理世 リゼ satou satomi 佐藤聡美 宇治松千夜 uchida maaya 内田真礼 桐間紗路 シャロ
BeatmapID:830625
BeatmapSetID:378094

[Difficulty]
HPDrainRate:2
CircleSize:2.5
OverallDifficulty:2
ApproachRate:3
SliderMultiplier:0.999999999999999
SliderTickRate:1

[Events]
//Background and Video events
0,0,"BG.jpg",0,0
Video,405,"poi.avi"
//Break Periods
//Storyboard Layer 0 (Background)
//Storyboard Layer 1 (Fail)
//Storyboard Layer 2 (Pass)
//Storyboard Layer 3 (Foreground)
//Storyboard Sound Samples

[TimingPoints]
405,379.746835443038,4,2,1,40,1,0
405,-100,4,2,1,40,0,0
4961,-100,4,2,1,50,0,0
6291,-100,4,2,1,60,0,0
18632,-100,4,2,1,50,0,0
33822,-100,4,2,1,70,0,0
36860,-100,4,2,1,60,0,0
42936,-100,4,2,1,70,0,0
61164,-100,4,2,1,80,0,1
79392,-100,4,2,1,60,0,0
88411,-100,4,2,1,10,0,0

[Colours]
Combo1 : 255,164,72
Combo2 : 255,128,128
Combo3 : 255,47,255
Combo4 : 108,255,108

[HitObjects]
139,110,405,6,0,B|185:91|185:91|235:82|281:126,1,150,2|0,0:0|0:0,0:0:0:0:
321,211,1354,1,0,0:0:0:0:
265,294,1734,2,0,B|219:313|219:313|169:322|123:278,1,150
73,197,2683,2,0,L|73:82,1,99.9999999999999,0|0,0:0|0:0,0:0:0:0:
168,68,3442,6,0,L|281:68,1,99.9999999999999,0|0,0:0|0:0,0:0:0:0:
368,70,4202,2,0,P|352:124|308:160,1,99.9999999999999
221,157,4961,2,0,B|151:157|151:157|90:197|85:266,1,200,2|0,0:0|0:0,0:0:0:0:
234,283,6291,6,0,L|409:250,1,150,4|8,0:0|0:0,0:0:0:0:
437,173,7240,2,0,P|421:116|384:89,1,99.9999999999999,2|8,0:0|0:0,0:0:0:0:
294,63,7999,2,0,L|136:92,1,150,2|0,0:0|0:0,0:0:0:0:
79,164,8949,1,0,0:0:0:0:
17,242,9329,6,0,P|65:263|158:222,1,150,4|8,0:0|0:0,0:0:0:0:
232,171,10278,2,0,P|284:179|332:199,1,99.9999999999999,2|8,0:0|0:0,0:0:0:0:
354,293,11037,2,0,P|300:340|216:339,1,150,2|0,0:0|0:0,0:0:0:0:
132,301,11987,1,0,0:0:0:0:
101,205,12367,6,0,P|102:129|169:51,1,150,4|8,0:0|0:0,0:0:0:0:
241,59,13316,2,0,L|354:59,1,99.9999999999999,2|8,0:0|0:0,0:0:0:0:
414,126,14075,2,0,P|407:203|341:255,1,150,2|0,0:0|0:0,0:0:0:0:
255,249,15025,1,0,0:0:0:0:
141,150,15594,6,0,P|215:102|309:109,2,150,2|2|2,0:0|0:0|0:0,0:0:0:0:
149,299,17303,2,0,P|209:342|282:350,1,150,2|2,0:0|0:0,0:0:0:0:
374,309,18253,1,2,0:0:0:0:
383,209,18632,6,0,L|340:95,1,99.9999999999999,4|8,0:0|0:0,0:0:0:0:
257,158,19392,2,0,L|300:272,1,99.9999999999999,2|8,0:0|0:0,0:0:0:0:
374,309,20151,2,0,P|428:298|477:244,1,99.9999999999999,2|8,0:0|0:0,0:0:0:0:
472,170,20911,1,2,0:0:0:0:
430,78,21291,1,8,0:0:0:0:
334,49,21670,6,0,L|235:66,1,99.9999999999999,0|8,0:0|0:0,0:0:0:0:
136,84,22430,2,0,P|168:142|199:161,1,99.9999999999999,2|8,0:0|0:0,0:0:0:0:
294,145,23189,2,0,P|341:139|410:175,1,99.9999999999999,2|8,0:0|0:0,0:0:0:0:
332,239,23949,2,0,L|229:268,1,99.9999999999999,2|8,0:0|0:0,0:0:0:0:
173,344,24708,6,0,P|139:292|139:246,1,99.9999999999999,4|8,0:0|0:0,0:0:0:0:
198,176,25468,2,0,P|192:126|150:81,1,99.9999999999999,2|8,0:0|0:0,0:0:0:0:
66,62,26227,2,0,P|19:104|25:208,2,150,2|0|8,0:0|0:0|0:0,0:0:0:0:
103,151,27746,6,0,L|147:267,1,99.9999999999999,2|8,0:0|0:0,0:0:0:0:
230,284,28506,2,0,B|298:308|358:275|358:275|373:227,1,150,2|4,0:0|0:0,0:0:0:0:
353,159,29455,2,0,B|284:134|224:167|224:167|209:215,1,150,0|2,0:0|0:0,0:0:0:0:
230,284,30405,1,8,0:0:0:0:
312,340,30784,6,0,P|375:348|441:321,1,99.9999999999999,4|8,0:0|0:0,0:0:0:0:
430,240,31544,2,0,P|405:193|413:138,1,99.9999999999999,2|8,0:0|0:0,0:0:0:0:
431,50,32303,2,0,P|380:51|334:81,1,99.9999999999999,2|8,0:0|0:0,0:0:0:0:
306,170,33063,1,2,0:0:0:0:
331,266,33442,1,8,0:0:0:0:
268,344,33822,6,0,P|224:355|155:343,1,99.9999999999999,4|8,0:0|0:0,0:0:0:0:
94,283,34582,2,0,L|66:181,1,99.9999999999999,2|8,0:0|0:0,0:0:0:0:
165,208,35341,2,0,L|191:105,1,99.9999999999999,8|8,0:0|0:0,0:0:0:0:
265,177,36101,2,0,L|339:101,1,99.9999999999999,8|8,0:0|0:0,0:0:0:0:
357,203,36860,6,0,P|327:250|259:273,1,99.9999999999999,4|8,0:0|0:0,0:0:0:0:
192,241,37620,2,0,P|169:195|176:138,1,99.9999999999999,2|8,0:0|0:0,0:0:0:0:
237,72,38379,2,0,L|418:24,2,150,2|0|8,0:0|0:0|0:0,0:0:0:0:
280,162,39898,6,0,P|312:206|381:242,1,99.9999999999999,4|8,0:0|0:0,0:0:0:0:
442,193,40658,2,0,P|445:262|381:328,1,150,2|4,0:0|0:0,0:0:0:0:
295,325,41607,2,0,L|147:305,1,150,0|2,0:0|0:0,0:0:0:0:
88,223,42556,1,8,0:0:0:0:
107,124,42936,5,4,0:0:0:0:
185,61,43316,2,0,P|204:102|199:163,2,99.9999999999999,8|2|8,0:0|0:0|0:0,0:0:0:0:
107,124,44455,2,0,L|86:231,1,99.9999999999999,2|8,0:0|0:0,0:0:0:0:
181,257,45215,2,0,P|233:255|276:229,1,99.9999999999999,2|8,0:0|0:0,0:0:0:0:
302,135,45974,5,2,0:0:0:0:
362,55,46354,2,0,P|433:47|494:135,1,150,8|0,0:0|0:0,0:0:0:0:
476,196,47303,2,0,B|454:242|454:242|423:271|355:280,1,150,4|8,0:0|0:0,0:0:0:0:
263,274,48253,2,0,L|163:262,1,99.9999999999999,4|8,0:0|0:0,0:0:0:0:
66,237,49012,6,0,P|92:191|149:162,2,99.9999999999999,4|8|2,0:0|0:0|0:0,0:0:0:0:
102,330,50151,1,8,0:0:0:0:
198,350,50531,2,0,L|262:273,1,99.9999999999999,2|8,0:0|0:0,0:0:0:0:
300,180,51291,1,2,0:0:0:0:
397,160,51670,1,8,0:0:0:0:
458,239,52050,6,0,P|405:260|346:246,2,99.9999999999999,2|8|2,0:0|0:0|0:0,0:0:0:0:
493,145,53189,1,8,0:0:0:0:
432,65,53569,2,0,L|326:65,1,99.9999999999999,2|8,0:0|0:0,0:0:0:0:
264,136,54329,1,2,0:0:0:0:
252,236,54708,1,8,0:0:0:0:
312,316,55088,6,0,B|361:346|361:346|446:343|491:313,1,150,4|2,0:0|0:0,0:0:0:0:
388,256,56037,1,0,0:0:0:0:
296,216,56417,2,8,B|132:216,1,150
119,312,57367,2,0,P|64:272|48:228,1,99.9999999999999,2|8,0:0|0:0,0:0:0:0:
76,146,58126,6,0,L|208:48,1,150,4|2,0:0|0:0,0:0:0:0:
288,96,59075,1,2,0:0:0:0:
376,144,59455,2,0,B|414:187|401:233|401:233|356:271,1,150,4|2,0:0|0:0,0:0:0:0:
67,199,61164,6,0,L|67:98,1,99.9999999999999,4|8,0:0|0:0,0:0:0:0:
157,55,61923,1,2,0:0:0:0:
251,87,62303,1,8,0:0:0:0:
290,179,62683,2,0,P|301:233|355:278,1,99.9999999999999,0|8,0:0|0:0,0:0:0:0:
389,185,63442,2,0,P|376:129|345:95,1,99.9999999999999,2|8,0:0|0:0,0:0:0:0:
249,86,64202,6,0,P|201:105|132:95,1,99.9999999999999,2|8,0:0|0:0,0:0:0:0:
66,53,64961,1,2,0:0:0:0:
63,153,65341,1,8,0:0:0:0:
145,210,65721,2,0,L|248:268,1,99.9999999999999,0|8,0:0|0:0,0:0:0:0:
332,261,66480,2,0,P|387:247|430:208,1,99.9999999999999,2|8,0:0|0:0,0:0:0:0:
420,120,67240,6,0,P|388:86|321:69,2,99.9999999999999,4|8|2,0:0|0:0|0:0,0:0:0:0:
333,170,68379,1,8,0:0:0:0:
248,116,68759,2,0,P|200:95|144:102,1,99.9999999999999,2|8,0:0|0:0,0:0:0:0:
184,194,69518,2,0,L|225:298,1,99.9999999999999,2|8,0:0|0:0,0:0:0:0:
312,328,70278,5,0,0:0:0:0:
409,306,70658,2,0,P|448:244|444:151,1,150,8|0,0:0|0:0,0:0:0:0:
406,79,71607,2,0,P|344:40|251:44,1,150,4|8,0:0|0:0,0:0:0:0:
211,119,72556,2,0,L|166:224,1,99.9999999999999,2|8,0:0|0:0,0:0:0:0:
264,249,73316,6,0,L|307:152,1,99.9999999999999,4|8,0:0|0:0,0:0:0:0:
398,124,74075,1,2,0:0:0:0:
474,188,74455,1,8,0:0:0:0:
444,283,74835,2,0,P|410:319|357:340,1,99.9999999999999,0|8,0:0|0:0,0:0:0:0:
264,343,75594,2,0,L|162:334,1,99.9999999999999,2|8,0:0|0:0,0:0:0:0:
65,319,76354,6,0,P|101:257|174:235,1,150,4|0,0:0|0:0,0:0:0:0:
272,242,77303,1,0,0:0:0:0:
370,222,77683,2,0,P|426:195|455:145,1,99.9999999999999,6|2,0:0|0:0,0:0:0:0:
357,120,78442,2,0,L|199:120,1,150,6|8,0:0|0:0,0:0:0:0:
174,214,79392,6,0,P|189:258|248:297,1,99.9999999999999,4|8,0:0|0:0,0:0:0:0:
329,294,80151,1,2,0:0:0:0:
390,214,80531,2,0,L|348:96,1,99.9999999999999,8|4,0:0|0:0,0:0:0:0:
264,78,81291,1,8,0:0:0:0:
184,137,81670,2,0,P|141:177|100:189,1,99.9999999999999,2|8,0:0|0:0,0:0:0:0:
95,87,82430,6,0,P|130:49|200:34,1,99.9999999999999,4|8,0:0|0:0,0:0:0:0:
264,78,83189,2,0,L|288:209,1,99.9999999999999,2|8,0:0|0:0,0:0:0:0:
351,251,83949,2,0,P|393:256|455:226,1,99.9999999999999,2|8,0:0|0:0,0:0:0:0:
384,156,84708,2,0,L|365:55,1,99.9999999999999,0|8,0:0|0:0,0:0:0:0:
270,25,85468,6,0,P|201:33|146:117,1,150,4|2,0:0|0:0,0:0:0:0:
171,191,86417,1,2,0:0:0:0:
246,124,86797,1,2,0:0:0:0:
256,192,88316,12,0,89645,0:0:0:0:
