osu file format v14

[General]
AudioFilename: No Poi!.mp3
AudioLeadIn: 0
PreviewTime: 60489
Countdown: 0
SampleSet: Soft
StackLeniency: 0.7
Mode: 2
LetterboxInBreaks: 0
WidescreenStoryboard: 1

[Editor]
DistanceSpacing: 1.2
BeatDivisor: 4
GridSize: 16
TimelineZoom: 2.5

[Metadata]
Title:No Poi!
TitleUnicode:ノーポイッ!
Artist:Petit Rabbit's
ArtistUnicode:Petit Rabbit's
Creator:walaowey
Version:Crystal's Captivation
Source:ご注文はうさぎですか??
Tags:Gochuumon wa Usagi Desu ka? GochiUsa Is the Order a Rabbit? Season 2 Opening [Sc4v4ng3r] Sc4v4ng3r ffstar0716 [ -Scarlet- ] Kagari CLSW crystalseed Minato Yukina tasuke912 Chino Kafū Kafuu Kafu Cocoa Hoto Rize Tedeza Chiya Ujimatsu Syaro Kirima sakura ayane 佐倉綾音 保登心愛 ココア minase inori 水瀬いのり 香風智乃 チノ taneda risa 種田梨沙 天々座理世 リゼ satou satomi 佐藤聡美 宇治松千夜 uchida maaya 内田真礼 桐間紗路 シャロ
BeatmapID:978868
BeatmapSetID:378094

[Difficulty]
HPDrainRate:7
CircleSize:4.4
OverallDifficulty:9.5
ApproachRate:9.5
SliderMultiplier:1.6
SliderTickRate:2

[Events]
//Background and Video events
0,0,"ctb_bg.jpg",0,0
Video,405,"poi.avi"
//Break Periods
//Storyboard Layer 0 (Background)
//Storyboard Layer 1 (Fail)
//Storyboard Layer 2 (Pass)
//Storyboard Layer 3 (Foreground)
//Storyboard Sound Samples

[TimingPoints]
405,379.746835443038,4,2,1,40,1,0
405,-83.3333333333333,4,2,1,40,0,0
4961,-83.3333333333333,4,2,1,50,0,0
5721,-83.3333333333333,4,2,1,50,0,0
6291,-62.5,4,2,1,60,0,0
15025,-50,4,2,1,60,0,0
15215,-62.5,4,2,1,60,0,0
17683,-62.5,4,2,1,60,0,0
18632,-100,4,2,1,50,0,0
33822,-100,4,2,1,70,0,0
36860,-100,4,2,1,60,0,0
42936,-100,4,2,1,70,0,0
58126,-62.5,4,2,1,70,0,0
61164,-62.5,4,2,1,80,0,1
77683,-50,4,2,1,80,0,1
77968,-50,4,2,1,20,0,1
78063,-50,4,2,1,80,0,1
78348,-50,4,2,1,20,0,1
78442,-62.5,4,2,1,80,0,1
79392,-62.5,4,2,1,60,0,0
88316,-100,4,2,1,60,0,0
88411,-100,4,2,1,10,0,0

[Colours]
Combo1 : 255,164,72
Combo2 : 255,128,128
Combo3 : 255,47,255
Combo4 : 108,255,108

[HitObjects]
160,96,405,6,0,P|89:147|64:256,1,191.999994140625
352,256,974,2,0,L|144:256,1,191.999994140625
352,96,1734,6,0,P|422:147|448:256,1,191.999994140625
176,240,2303,2,0,L|272:304,1,95.9999970703126
96,144,2683,2,0,L|278:265,1,191.999994140625
176,208,3253,1,0,0:0:0:0:
336,208,3442,6,0,P|400:208|448:80,1,191.999994140625
176,208,4202,2,0,P|85:193|54:107,1,191.999994140625
400,96,4961,6,0,L|112:96,1,287.999991210938,2|0,0:0|0:0,0:0:0:0:
400,144,5721,6,0,L|480:144,1,47.9999985351563,0|0,3:0|3:0,0:0:0:0:
256,192,5911,2,0,L|192:192,1,47.9999985351563,0|0,3:0|3:0,0:0:0:0:
448,192,6101,2,0,L|512:192,1,47.9999985351563,0|0,3:0|3:0,0:0:0:0:
208,192,6291,6,0,P|144:160|221:101,1,192,4|0,0:0|0:0,0:0:0:0:
304,96,6670,1,0,0:0:0:0:
464,96,6860,2,0,L|304:96,1,128,8|0,0:0|0:0,0:0:0:0:
192,256,7240,2,0,L|352:256,1,128,2|0,0:0|0:0,0:0:0:0:
48,96,7620,2,0,L|208:96,1,128,8|0,0:0|0:0,0:0:0:0:
464,192,7999,5,2,0:0:0:0:
176,112,8189,1,0,0:0:0:0:
336,112,8379,1,8,0:0:0:0:
160,192,8569,2,0,L|352:192,1,192
192,192,8949,2,0,L|64:192,1,128,0|8,0:0|0:0,0:0:0:0:
384,208,9329,6,0,P|448:256|369:313,1,192,4|0,0:0|0:0,0:0:0:0:
288,320,9708,1,0,0:0:0:0:
96,320,9898,2,0,L|240:320,1,128,8|0,0:0|0:0,0:0:0:0:
416,320,10278,2,0,L|272:320,1,128,2|0,0:0|0:0,0:0:0:0:
96,272,10658,1,8,0:0:0:0:
416,256,10848,1,0,0:0:0:0:
256,192,11037,6,0,L|350:306,2,128,2|0|8,0:0|0:0|0:0,0:0:0:0:
128,192,11607,2,0,P|176:144|304:96,1,192
384,80,11987,2,0,L|331:127,2,64,0|0|8,0:0|0:0|0:0,0:0:0:0:
112,144,12367,6,0,L|304:144,1,192,4|0,0:0|0:0,0:0:0:0:
400,192,12746,2,0,L|256:192,2,128,0|8|0,0:0|0:0|0:0,0:0:0:0:
208,192,13316,2,0,P|145:257|224:304,1,192,2|0,0:0|0:0,0:0:0:0:
304,304,13696,1,8,0:0:0:0:
144,304,13886,1,0,0:0:0:0:
416,256,14075,5,2,0:0:0:0:
256,224,14265,1,0,0:0:0:0:
432,176,14455,1,8,0:0:0:0:
96,256,14645,2,0,L|80:128,1,128,2|0,0:0|0:0,0:0:0:0:
336,128,15025,1,0,0:0:0:0:
256,128,15120,1,0,0:0:0:0:
176,128,15215,1,8,0:0:0:0:
336,80,15405,1,0,0:0:0:0:
80,144,15594,6,0,L|16:144,1,64,2|0,0:0|0:0,0:0:0:0:
352,144,15784,2,0,L|161:144,1,192,2|0,0:0|0:0,0:0:0:0:
432,144,16164,6,0,L|528:144,1,64,2|0,0:0|0:0,0:0:0:0:
160,144,16354,2,0,L|351:144,1,192,2|0,0:0|0:0,0:0:0:0:
80,96,16734,6,0,L|16:96,1,64,2|0,0:0|0:0,0:0:0:0:
352,144,16923,2,0,L|144:144,1,192,2|0,0:0|0:0,0:0:0:0:
432,144,17303,6,0,L|512:144,1,64,2|0,0:0|0:0,0:0:0:0:
80,128,17683,2,0,L|0:128,1,64,2|0,0:0|0:0,0:0:0:0:
432,144,17873,6,0,P|496:208|411:242,1,192,2|0,0:0|0:0,0:0:0:0:
112,208,18253,1,2,0:0:0:0:
240,208,18442,2,0,L|176:208,1,64,2|2,0:0|0:0,0:0:0:0:
336,224,18632,6,0,L|352:304,1,80,4|0,0:0|0:0,0:0:0:0:
176,304,19012,2,0,L|368:304,1,160,8|2,0:0|0:0,0:0:0:0:
256,256,19582,1,0,0:0:0:0:
416,224,19772,2,0,L|320:224,1,80,8|0,0:0|0:0,0:0:0:0:
176,160,20151,5,2,0:0:0:0:
336,160,20341,1,0,0:0:0:0:
176,208,20531,2,0,L|64:208,1,80,8|0,0:0|0:0,0:0:0:0:
256,256,20911,5,2,0:0:0:0:
96,256,21101,1,0,0:0:0:0:
352,304,21291,1,8,0:0:0:0:
192,304,21480,2,0,L|144:304,1,40,0|0,3:0|3:0,3:0:0:0:
416,192,21670,6,0,L|496:192,1,80,2|0,0:0|0:0,0:0:0:0:
336,192,22050,2,0,L|256:192,1,80,8|0,0:0|0:0,0:0:0:0:
96,192,22430,2,0,L|192:192,1,80,2|0,0:0|0:0,0:0:0:0:
336,192,22810,2,0,L|256:192,1,80,8|0,0:0|0:0,0:0:0:0:
432,192,23189,5,2,0:0:0:0:
272,240,23379,1,0,0:0:0:0:
416,240,23569,1,8,0:0:0:0:
304,288,23759,2,0,L|400:288,1,80
224,288,24139,1,0,0:0:0:0:
384,208,24329,2,0,L|304:208,1,80,8|0,0:0|0:0,0:0:0:0:
48,224,24708,6,0,L|144:224,1,80,4|0,0:0|0:0,0:0:0:0:
464,224,25088,1,8,0:0:0:0:
288,192,25278,1,0,0:0:0:0:
448,144,25468,2,0,L|352:144,1,80,2|0,0:0|0:0,0:0:0:0:
48,144,25848,1,8,0:0:0:0:
208,144,26038,1,0,0:0:0:0:
64,176,26227,6,0,L|160:176,2,80,2|0|8,0:0|0:0|0:0,0:0:0:0:
336,176,26797,2,0,P|272:176|160:176,1,160
432,192,27367,1,8,0:0:0:0:
455,232,27461,1,0,0:0:0:0:
433,272,27556,1,0,0:0:0:0:
387,276,27651,1,0,0:0:0:0:
176,256,27746,6,0,L|336:256,1,160,2|8,0:0|0:0,0:0:0:0:
176,224,28316,1,0,0:0:0:0:
336,192,28506,2,0,L|240:192,2,80,2|0|8,0:0|0:0|0:0,0:0:0:0:
80,192,29075,6,0,L|64:272,1,80,4|0,0:0|0:0,0:0:0:0:
432,192,29455,2,0,L|448:272,1,80,4|8,0:0|0:0,0:0:0:0:
80,192,29835,1,2,0:0:0:0:
336,144,30025,1,6,0:0:0:0:
176,144,30215,2,0,L|112:144,1,40,2|0,0:0|0:0,0:0:0:0:
208,104,30405,2,0,L|256:104,1,40,8|0,0:0|0:0,0:0:0:0:
176,72,30594,2,0,L|128:72,1,40,2|2,0:0|0:0,0:0:0:0:
336,80,30784,6,0,L|432:80,1,80,4|0,0:0|0:0,0:0:0:0:
256,80,31164,2,0,L|352:80,1,80,8|0,0:0|0:0,0:0:0:0:
176,80,31544,2,0,L|96:80,1,80,2|0,0:0|0:0,0:0:0:0:
256,80,31924,2,0,L|176:80,1,80,8|0,0:0|0:0,0:0:0:0:
336,64,32303,5,2,0:0:0:0:
176,64,32493,1,0,0:0:0:0:
336,112,32683,2,0,L|416:112,1,80,8|0,0:0|0:0,0:0:0:0:
256,160,33063,2,0,L|432:160,1,160,2|8,0:0|0:0,0:0:0:0:
120,112,33632,2,0,L|56:112,1,40,0|0,0:0|0:0,0:0:0:0:
256,160,33822,6,0,L|272:240,1,80,4|0,0:0|0:0,0:0:0:0:
112,240,34202,2,0,L|192:240,1,80,8|0,0:0|0:0,0:0:0:0:
352,240,34582,2,0,L|256:240,1,80,2|0,0:0|0:0,0:0:0:0:
432,240,34962,2,0,L|448:320,1,80,8|0,0:0|0:0,0:0:0:0:
128,320,35341,5,8,0:0:0:0:
480,320,35531,1,0,0:0:0:0:
224,256,35721,1,8,0:0:0:0:
384,256,35911,1,0,0:0:0:0:
32,224,36101,5,8,0:0:0:0:
384,224,36291,1,0,0:0:0:0:
128,160,36481,1,8,0:0:0:0:
288,160,36671,1,8,0:0:0:0:
16,160,36860,6,0,L|112:160,1,80,4|0,0:0|0:0,0:0:0:0:
256,160,37240,1,8,0:0:0:0:
80,112,37430,1,0,0:0:0:0:
496,160,37620,2,0,L|400:160,1,80,2|0,0:0|0:0,0:0:0:0:
256,160,38000,1,8,0:0:0:0:
432,112,38190,1,0,0:0:0:0:
176,96,38379,6,0,L|256:96,1,80,2|0,0:0|0:0,0:0:0:0:
80,96,38759,1,8,0:0:0:0:
336,144,38949,2,0,L|176:144,1,160
432,144,39518,2,0,L|384:144,1,40,8|0,0:0|0:0,0:0:0:0:
304,144,39708,2,0,L|368:144,1,40
496,208,39898,6,0,L|352:208,1,120,4|0,0:0|0:0,0:0:0:0:
288,240,40278,2,0,L|432:240,1,120,8|0,0:0|0:0,0:0:0:0:
496,240,40658,1,2,0:0:0:0:
336,192,40848,2,0,L|432:192,1,80,0|8,0:0|0:0,0:0:0:0:
16,160,41227,6,0,L|136:160,1,120,4|0,0:0|0:0,0:0:0:0:
320,128,41607,1,0,0:0:0:0:
192,128,41797,1,8,0:0:0:0:
336,192,41987,1,2,0:0:0:0:
56,136,42177,1,2,0:0:0:0:
336,192,42367,6,0,L|384:192,1,40,2|0,0:0|0:0,0:0:0:0:
176,176,42556,2,0,L|128:176,1,40,8|0,0:0|0:0,0:0:0:0:
456,128,42746,2,0,L|504:128,1,40,2|2,0:0|0:0,0:0:0:0:
128,256,42936,6,0,L|48:256,2,80,4|0|8,0:0|0:0|0:0,0:0:0:0:
320,256,43506,1,0,0:0:0:0:
48,208,43696,2,0,L|128:208,2,80,2|0|8,0:0|0:0|0:0,0:0:0:0:
336,128,44265,6,0,L|160:128,1,160
432,128,44835,1,8,0:0:0:0:
80,128,45025,1,0,0:0:0:0:
336,192,45215,1,2,0:0:0:0:
176,192,45405,1,0,0:0:0:0:
352,144,45594,1,8,0:0:0:0:
160,144,45784,1,0,0:0:0:0:
464,256,45974,6,0,L|384:256,1,80,2|0,0:0|0:0,0:0:0:0:
216,256,46354,2,0,L|296:256,1,80,8|0,0:0|0:0,0:0:0:0:
48,256,46734,1,2,0:0:0:0:
296,192,46923,2,0,L|200:192,1,80,0|8,0:0|0:0,0:0:0:0:
496,112,47303,6,0,P|473:165|400:160,1,120,4|0,0:0|0:0,0:0:0:0:
336,160,47683,1,0,0:0:0:0:
176,112,47873,1,8,0:0:0:0:
336,160,48063,1,0,0:0:0:0:
80,160,48253,2,0,L|64:240,1,80,4|2,0:0|0:0,0:0:0:0:
112,272,48537,1,0,0:0:0:0:
268,274,48632,1,8,0:0:0:0:
112,272,48822,1,0,0:0:0:0:
400,320,49012,6,0,L|272:320,1,120,4|0,0:0|0:0,0:0:0:0:
208,272,49392,2,0,L|288:272,1,80,8|0,0:0|0:0,0:0:0:0:
176,224,49772,2,0,L|160:144,1,80,2|0,0:0|0:0,0:0:0:0:
320,144,50151,1,8,0:0:0:0:
48,112,50341,6,0,L|160:112,1,80,0|2,0:0|0:0,0:0:0:0:
464,112,50721,2,0,L|352:112,1,80,0|8,0:0|0:0,0:0:0:0:
48,144,51101,1,0,0:0:0:0:
384,112,51291,2,0,L|464:112,1,80,2|0,0:0|0:0,0:0:0:0:
128,112,51670,2,0,L|48:112,1,80,8|0,0:0|0:0,0:0:0:0:
336,160,52050,6,0,L|160:160,1,160,6|8,0:0|0:0,0:0:0:0:
256,112,52620,1,0,0:0:0:0:
96,112,52810,2,0,L|192:112,2,80,2|0|8,0:0|0:0|0:0,0:0:0:0:
464,112,53379,6,0,L|480:192,1,80,0|2,0:0|0:0,0:0:0:0:
176,192,53759,1,0,0:0:0:0:
336,192,53949,1,8,0:0:0:0:
48,112,54139,1,0,0:0:0:0:
320,112,54329,1,2,0:0:0:0:
192,112,54518,1,0,0:0:0:0:
464,112,54708,6,0,L|480:160,1,40,8|0,0:0|0:0,0:0:0:0:
384,160,54898,2,0,L|368:208,1,40,0|0,0:0|0:0,0:0:0:0:
176,240,55088,6,0,L|336:240,1,160,4|8,0:0|0:0,0:0:0:0:
160,192,55658,1,0,0:0:0:0:
112,192,55752,1,0,0:0:0:0:
80,192,55847,1,0,0:0:0:0:
352,192,56037,2,0,L|432:192,1,80,0|8,0:0|0:0,0:0:0:0:
176,160,56417,6,0,L|336:160,1,160,0|0,0:0|0:0,0:0:0:0:
256,128,56987,1,8,0:0:0:0:
416,128,57177,1,2,0:0:0:0:
96,112,57367,1,2,0:0:0:0:
256,112,57556,2,0,L|272:160,1,40,2|0,0:0|0:0,0:0:0:0:
176,160,57746,2,0,L|176:208,1,40,8|0,0:0|0:0,0:0:0:0:
80,208,57936,2,0,L|64:256,1,40,2|0,0:0|0:0,0:0:0:0:
448,112,58126,6,0,P|488:141|400:208,1,192,4|0,0:0|0:0,0:0:0:0:
320,208,58506,1,8,0:0:0:0:
32,208,58696,5,2,0:0:0:0:
480,208,59075,1,2,0:0:0:0:
32,112,59455,6,0,L|304:112,1,256,4|2,0:0|0:0,0:0:0:0:
16,160,60025,1,2,0:0:0:0:
176,160,60215,2,0,L|112:160,1,64,2|2,0:0|0:0,0:0:0:0:
272,184,60405,6,0,L|331:185,2,42.6666666666667,2|0|0,0:0|0:0|0:0,0:0:0:0:
202,186,60594,2,0,L|143:187,2,42.6666666666667,2|0|0,0:0|0:0|0:0,0:0:0:0:
357,144,60784,6,0,L|361:93,1,42.6666666666667,8|0,0:0|0:0,0:0:0:0:
302,92,60911,1,0,0:0:0:0:
173,127,60974,1,0,0:0:0:0:
115,142,61037,2,0,L|119:184,1,42.6666666666667
432,272,61164,6,0,P|352:256|304:160,1,192,4|0,0:0|0:0,0:0:0:0:
400,160,61544,1,8,0:0:0:0:
80,272,61734,2,0,P|160:256|208:160,1,192
112,160,62114,1,0,0:0:0:0:
288,160,62303,1,8,0:0:0:0:
16,160,62493,6,0,L|208:160,1,192,0|0,0:0|0:0,0:0:0:0:
496,160,62873,2,0,L|352:160,2,128,0|8|0,0:0|0:0|0:0,0:0:0:0:
32,224,63442,6,0,L|48:288,1,64,2|0,0:0|0:0,0:0:0:0:
224,288,63632,2,0,L|288:288,1,64
448,288,63822,2,0,L|480:160,1,128,8|0,0:0|0:0,0:0:0:0:
16,112,64202,6,0,P|54:196|144:220,1,192,2|0,0:0|0:0,0:0:0:0:
240,224,64582,1,8,0:0:0:0:
496,112,64772,2,0,P|457:196|367:220,1,192
272,176,65152,1,0,0:0:0:0:
432,176,65341,1,8,0:0:0:0:
32,160,65531,6,0,P|58:258|191:259,1,192
321,221,65911,2,0,L|176:219,2,128,0|8|0,0:0|0:0|0:0,0:0:0:0:
16,352,66480,5,2,0:0:0:0:
432,288,66670,1,0,0:0:0:0:
256,272,66860,1,8,0:0:0:0:
80,288,67050,1,0,0:0:0:0:
496,192,67240,6,0,L|368:192,1,128,4|0,0:0|0:0,0:0:0:0:
80,144,67620,2,0,L|208:144,1,128,8|0,0:0|0:0,0:0:0:0:
16,192,67999,2,0,L|256:192,1,192,2|0,0:0|0:0,0:0:0:0:
112,160,68379,1,8,0:0:0:0:
304,160,68569,1,0,0:0:0:0:
32,128,68759,6,0,L|192:128,1,128,2|0,0:0|0:0,0:0:0:0:
320,128,69139,2,0,P|272:128|128:128,1,192,8|0,0:0|0:0,0:0:0:0:
224,160,69518,1,2,0:0:0:0:
480,176,69708,2,0,L|496:304,1,128,0|8,0:0|0:0,0:0:0:0:
160,304,70088,6,0,L|416:304,1,256,4|0,0:0|0:0,0:0:0:0:
224,256,70658,2,0,L|80:256,1,128,8|0,0:0|0:0,0:0:0:0:
352,192,71037,1,2,0:0:0:0:
160,192,71227,1,0,0:0:0:0:
464,272,71417,1,8,0:0:0:0:
48,288,71607,6,0,P|112:272|208:112,1,256,4|0,0:0|0:0,0:0:0:0:
32,64,72177,1,8,0:0:0:0:
376,160,72367,2,0,L|360:224,1,64,2|0,0:0|0:0,0:0:0:0:
264,160,72556,2,0,L|248:224,1,64,2|0,0:0|0:0,0:0:0:0:
152,160,72746,6,0,L|136:223,1,64
416,208,72936,2,0,L|480:208,1,64,8|0,0:0|0:0,0:0:0:0:
96,208,73126,2,0,L|16:208,1,64
352,240,73316,6,0,L|128:240,1,192,4|0,0:0|0:0,0:0:0:0:
64,240,73696,1,8,0:0:0:0:
448,160,73886,2,0,L|256:160,1,192,0|0,0:0|0:0,0:0:0:0:
160,160,74265,1,0,0:0:0:0:
352,160,74455,1,8,0:0:0:0:
32,272,74645,6,0,P|68:188|160:181,1,192
496,176,75025,2,0,L|336:176,2,128,0|8|0,0:0|0:0|0:0,0:0:0:0:
64,272,75594,5,2,0:0:0:0:
432,240,75784,1,0,0:0:0:0:
256,192,75974,1,8,0:0:0:0:
80,192,76164,1,0,0:0:0:0:
448,112,76354,6,0,L|208:112,1,192,4|0,0:0|0:0,0:0:0:0:
352,160,76734,1,8,0:0:0:0:
64,112,76923,2,0,L|304:112,1,192,0|0,0:0|0:0,0:0:0:0:
160,160,77303,1,0,0:0:0:0:
352,160,77493,1,8,0:0:0:0:
16,192,77683,6,0,P|112:192|304:192,1,240,2|0,0:0|0:0,0:0:0:0:
496,192,78063,6,0,P|432:192|240:192,1,240,2|0,0:0|0:0,0:0:0:0:
176,176,78442,5,8,0:0:0:0:
336,176,78632,1,8,0:0:0:0:
64,128,78822,6,0,L|144:128,1,64
288,128,79012,2,0,L|224:128,1,64,8|0,0:0|0:0,0:0:0:0:
384,128,79202,2,0,L|464:128,1,64
208,192,79392,6,0,L|0:192,1,192,4|0,0:0|0:0,0:0:0:0:
256,112,79772,2,0,L|112:112,1,128,8|0,0:0|0:0,0:0:0:0:
304,192,80151,2,0,L|512:192,1,192,2|0,0:0|0:0,0:0:0:0:
256,112,80531,2,0,L|384:112,1,128,8|0,0:0|0:0,0:0:0:0:
80,208,80911,6,0,P|16:176|97:125,1,192,4|0,0:0|0:0,0:0:0:0:
320,192,81291,2,0,L|192:192,1,128,8|0,0:0|0:0,0:0:0:0:
448,192,81670,5,2,0:0:0:0:
480,132,81764,1,0,0:0:0:0:
446,80,81859,1,0,0:0:0:0:
385,72,81954,1,0,0:0:0:0:
224,80,82050,2,0,L|160:80,1,64,8|0,0:0|0:0,0:0:0:0:
320,128,82240,2,0,L|384:128,1,64
112,128,82430,6,0,P|28:158|34:248,1,192,4|0,0:0|0:0,0:0:0:0:
130,248,82810,1,8,0:0:0:0:
400,128,82999,2,0,P|484:158|478:248,1,192,0|0,0:0|0:0,0:0:0:0:
382,248,83379,1,0,0:0:0:0:
128,208,83569,1,8,0:0:0:0:
288,128,83759,6,0,L|32:128,1,256
384,224,84329,6,0,L|256:224,1,128,8|2,0:0|0:0,0:0:0:0:
312,192,84613,1,0,0:0:0:0:
120,191,84708,5,2,0:0:0:0:
256,144,84898,2,0,L|192:112,1,64,2|0,0:0|0:0,0:0:0:0:
401,144,85088,5,8,0:0:0:0:
256,192,85278,2,0,L|312:224,1,64,2|0,0:0|0:0,0:0:0:0:
16,272,85468,6,0,P|96:256|96:144,1,192,4|0,0:0|0:0,0:0:0:0:
16,160,85848,1,8,0:0:0:0:
496,272,86037,2,0,P|416:256|416:144,1,192,2|0,0:0|0:0,0:0:0:0:
496,160,86417,1,2,0:0:0:0:
16,112,86797,5,2,0:0:0:0:
384,192,87177,1,0,0:0:0:0:
128,192,87367,1,0,0:0:0:0:
336,80,87556,1,0,0:0:0:0:
176,80,87746,1,0,0:0:0:0:
320,112,87936,1,0,0:0:0:0:
192,112,88126,1,0,0:0:0:0:
485,240,88316,6,0,P|325:112|25:247,1,560,4|0,0:0|0:0,0:0:0:0:
