osu file format v14

[General]
AudioFilename: No Poi!.mp3
AudioLeadIn: 0
PreviewTime: 60489
Countdown: 0
SampleSet: Soft
StackLeniency: 0.7
Mode: 0
LetterboxInBreaks: 0
WidescreenStoryboard: 0

[Editor]
DistanceSpacing: 1
BeatDivisor: 4
GridSize: 4
TimelineZoom: 3.299999

[Metadata]
Title:No Poi!
TitleUnicode:ノーポイッ!
Artist:Petit Rabbit's
ArtistUnicode:Petit Rabbit's
Creator:walaowey
Version:[ -Scarlet- ]'s Extra
Source:ご注文はうさぎですか??
Tags:Gochuumon wa Usagi Desu ka? GochiUsa Is the Order a Rabbit? Season 2 Opening [Sc4v4ng3r] Sc4v4ng3r ffstar0716 [ -Scarlet- ] Kagari CLSW crystalseed Minato Yukina tasuke912 Chino Kafū Kafuu Kafu Cocoa Hoto Rize Tedeza Chiya Ujimatsu Syaro Kirima sakura ayane 佐倉綾音 保登心愛 ココア minase inori 水瀬いのり 香風智乃 チノ taneda risa 種田梨沙 天々座理世 リゼ satou satomi 佐藤聡美 宇治松千夜 uchida maaya 内田真礼 桐間紗路 シャロ
BeatmapID:842715
BeatmapSetID:378094

[Difficulty]
HPDrainRate:6
CircleSize:4.3
OverallDifficulty:8
ApproachRate:8.8
SliderMultiplier:2
SliderTickRate:1

[Events]
//Background and Video events
0,0,"BG.jpg",0,0
Video,405,"poi.avi"
//Break Periods
//Storyboard Layer 0 (Background)
//Storyboard Layer 1 (Fail)
//Storyboard Layer 2 (Pass)
//Storyboard Layer 3 (Foreground)
//Storyboard Sound Samples

[TimingPoints]
405,379.746835443038,4,2,2,40,1,0
405,-125,4,2,2,40,0,0
5721,-100,4,2,2,50,0,0
6291,-100,4,2,2,60,0,0
16923,-66.6666666666667,4,2,2,60,0,0
17303,-100,4,2,2,60,0,0
18632,-66.6666666666667,4,2,2,50,0,0
19012,-100,4,2,2,50,0,0
27746,-142.857142857143,4,2,2,50,0,0
28126,-100,4,2,2,50,0,0
30784,-66.6666666666667,4,2,2,50,0,0
31164,-100,4,2,2,50,0,0
33822,-100,4,2,2,70,0,0
36860,-100,4,2,2,60,0,0
42936,-100,4,2,2,70,0,0
59455,-125,4,2,2,60,0,0
60594,-125,4,2,2,70,0,0
61164,-100,4,2,2,80,0,1
79392,-100,4,2,2,60,0,0
85468,-83.3333333333333,4,2,2,60,0,0
86797,-125,4,2,2,60,0,0
88316,-125,4,2,2,30,0,0
89645,-125,4,2,2,5,0,0

[Colours]
Combo1 : 255,164,72
Combo2 : 255,128,128
Combo3 : 255,130,205
Combo4 : 108,255,108

[HitObjects]
176,176,405,6,0,P|196:92|148:16,1,160,2|0,0:0|0:0,0:0:0:0:
300,186,974,2,0,L|392:178,1,80,2|0,0:0|0:0,0:0:0:0:
96,104,1354,2,0,L|4:112,1,80,2|0,0:0|0:0,0:0:0:0:
300,186,1734,6,0,L|331:8,1,160,2|2,0:0|0:0,0:0:0:0:
404,176,2303,1,2,0:0:0:0:
327,28,2493,1,2,0:0:0:0:
208,152,2683,1,2,0:0:0:0:
208,152,3063,5,2,0:0:0:0:
404,176,3253,1,2,0:0:0:0:
196,320,3442,5,2,0:0:0:0:
120,124,3822,1,0,0:0:0:0:
332,56,4202,1,2,0:0:0:0:
392,260,4582,1,0,0:0:0:0:
156,204,4961,6,0,B|200:188|208:136|208:136|268:120|268:120|228:80|252:24,1,240,4|0,0:0|0:0,0:0:0:0:
332,56,5721,1,8,0:0:0:0:
336,64,5816,1,8,0:0:0:0:
340,72,5911,1,8,0:0:0:0:
296,220,6101,1,8,0:0:0:0:
140,96,6291,6,0,L|289:81,1,150,6|0,0:0|0:0,0:0:0:0:
340,72,6670,1,2,0:0:0:0:
232,216,6860,1,8,0:0:0:0:
68,144,7050,1,2,0:0:0:0:
52,96,7145,1,0,0:0:0:0:
64,52,7240,5,0,0:0:0:0:
304,132,7430,1,2,0:0:0:0:
108,236,7620,1,8,0:0:0:0:
344,152,7810,1,2,0:0:0:0:
144,104,7999,5,0,0:0:0:0:
348,248,8189,1,2,0:0:0:0:
112,328,8379,1,8,0:0:0:0:
424,216,8569,1,2,0:0:0:0:
436,264,8664,1,0,0:0:0:0:
416,308,8759,5,0,0:0:0:0:
200,184,8949,1,2,0:0:0:0:
420,68,9139,1,8,0:0:0:0:
213,283,9329,6,0,P|208:234|200:184,1,100,6|2,0:0|0:0,0:0:0:0:
420,68,9708,1,0,0:0:0:0:
352,216,9898,1,8,0:0:0:0:
216,32,10088,1,2,0:0:0:0:
248,68,10183,1,0,0:0:0:0:
252,116,10278,5,0,0:0:0:0:
68,200,10468,1,2,0:0:0:0:
112,4,10658,1,8,0:0:0:0:
184,192,10848,1,2,0:0:0:0:
308,60,11037,5,0,0:0:0:0:
120,156,11227,1,2,0:0:0:0:
300,232,11417,1,8,0:0:0:0:
136,72,11607,2,0,B|68:72|48:120|48:120|8:92|48:24,1,200,2|2,0:0|0:0,0:0:0:0:
41,36,12082,1,0,0:0:0:0:
41,36,12177,1,8,0:0:0:0:
336,144,12367,6,0,B|400:204|476:180|476:180|432:124,1,200,6|2,0:0|0:0,0:0:0:0:
328,56,12936,1,8,0:0:0:0:
276,224,13126,2,0,L|284:280,2,50,2|0|0,0:0|0:0|0:0,0:0:0:0:
200,152,13506,1,2,0:0:0:0:
328,56,13696,1,8,0:0:0:0:
112,28,13886,1,2,0:0:0:0:
392,160,14075,5,0,0:0:0:0:
144,244,14265,1,2,0:0:0:0:
228,32,14455,1,8,0:0:0:0:
464,220,14645,2,0,P|484:172|468:112,1,100,2|0,0:0|0:0,0:0:0:0:
460,104,14930,1,0,0:0:0:0:
440,88,15025,1,2,0:0:0:0:
416,80,15120,1,0,0:0:0:0:
392,76,15215,5,8,0:0:0:0:
348,116,15310,1,0,0:0:0:0:
288,128,15405,1,2,0:0:0:0:
232,112,15499,1,0,0:0:0:0:
192,68,15594,6,0,L|132:76,1,50,4|0,0:0|0:0,0:0:0:0:
64,48,15784,2,0,B|76:116|76:116|48:224,1,150,2|0,3:0|0:0,0:0:0:0:
124,328,16164,6,0,L|184:320,1,50,4|0,0:0|0:0,0:0:0:0:
252,348,16354,2,0,B|240:280|240:280|268:172,1,150,2|0,3:0|0:0,0:0:0:0:
328,68,16734,6,0,L|388:76,1,50,4|0,0:0|0:0,0:0:0:0:
456,48,16923,2,0,B|444:116|444:116|472:224,1,150.000005722046,2|0,3:0|0:0,0:0:0:0:
408,320,17303,6,0,B|228:308,1,150,4|0,0:0|0:0,0:0:0:0:
204,304,17683,1,4,0:0:0:0:
408,320,17873,1,4,0:0:0:0:
408,320,18253,5,2,0:0:0:0:
204,304,18442,1,2,0:0:0:0:
204,304,18537,1,2,0:0:0:0:
204,304,18632,6,0,P|104:344|164:368,1,225.000008583069,2|0,0:0|0:0,0:0:0:0:
148,232,19012,2,0,P|156:180|128:124,1,100,8|2,0:0|0:0,0:0:0:0:
76,100,19297,1,0,0:0:0:0:
76,100,19392,1,0,0:0:0:0:
208,28,19582,1,2,0:0:0:0:
232,176,19772,1,8,0:0:0:0:
376,132,19961,1,2,0:0:0:0:
288,220,20151,5,0,0:0:0:0:
272,56,20341,1,2,0:0:0:0:
476,232,20531,1,8,0:0:0:0:
504,64,20721,1,2,0:0:0:0:
265,122,20911,2,0,L|289:226,1,100,0|2,0:0|0:0,0:0:0:0:
80,336,21291,2,0,L|56:232,1,100,8|2,0:0|0:0,0:0:0:0:
40,168,21575,2,0,L|33:143,2,25
265,122,21860,6,0,L|373:138,1,100,2|8,0:0|0:0,0:0:0:0:
436,148,22145,1,0,0:0:0:0:
436,148,22240,1,2,0:0:0:0:
328,44,22430,1,0,0:0:0:0:
280,208,22620,1,2,0:0:0:0:
407,69,22810,1,8,0:0:0:0:
216,156,22999,1,2,0:0:0:0:
416,264,23189,5,0,0:0:0:0:
308,72,23379,1,2,0:0:0:0:
260,288,23569,1,8,0:0:0:0:
407,69,23759,2,0,L|308:72,1,100,2|0,0:0|0:0,0:0:0:0:
236,72,24044,1,0,0:0:0:0:
236,72,24139,1,2,0:0:0:0:
188,160,24329,1,8,0:0:0:0:
256,232,24518,1,2,0:0:0:0:
112,276,24708,5,0,0:0:0:0:
32,260,24898,1,2,0:0:0:0:
264,176,25088,5,8,0:0:0:0:
352,192,25278,1,2,0:0:0:0:
80,172,25468,5,2,0:0:0:0:
60,76,25658,1,0,0:0:0:0:
300,256,25848,5,8,0:0:0:0:
264,360,26037,1,2,0:0:0:0:
172,272,26227,5,0,0:0:0:0:
368,168,26417,1,2,0:0:0:0:
124,84,26607,1,8,0:0:0:0:
455,201,26797,2,0,P|459:151|439:107,1,100,2|0,0:0|0:0,0:0:0:0:
287,326,27177,5,2,0:0:0:0:
331,350,27272,1,0,0:0:0:0:
379,354,27367,1,8,0:0:0:0:
423,334,27461,1,0,0:0:0:0:
459,298,27556,1,2,0:0:0:0:
467,250,27651,1,0,0:0:0:0:
455,202,27746,6,0,L|352:184,1,104.999996795654
340,176,28126,2,0,P|360:136|336:84,1,100,8|2,0:0|0:0,0:0:0:0:
148,120,28506,1,0,0:0:0:0:
100,208,28696,1,2,0:0:0:0:
144,300,28886,1,8,0:0:0:0:
240,116,29075,6,0,P|248:64|224:-8,1,100,2|0,0:0|0:0,0:0:0:0:
272,268,29455,2,0,P|264:320|288:392,1,100,2|8,0:0|0:0,0:0:0:0:
472,304,29835,1,2,0:0:0:0:
468,276,29930,1,0,0:0:0:0:
464,248,30025,1,0,0:0:0:0:
316,136,30215,1,10,0:0:0:0:
312,164,30310,1,0,0:0:0:0:
308,192,30405,1,2,0:0:0:0:
480,88,30594,1,2,0:0:0:0:
476,60,30689,1,0,0:0:0:0:
471,32,30784,6,0,P|395:56|479:88,1,225.000008583069,4|0,0:0|0:0,0:0:0:0:
360,36,31164,2,0,P|304:24|244:68,1,100,8|2,0:0|0:0,0:0:0:0:
216,92,31449,1,0,0:0:0:0:
216,92,31544,1,0,0:0:0:0:
16,120,31734,1,2,0:0:0:0:
176,176,31923,1,8,0:0:0:0:
52,16,32113,1,2,0:0:0:0:
216,92,32303,5,0,0:0:0:0:
96,248,32493,1,2,0:0:0:0:
296,200,32683,1,8,0:0:0:0:
148,40,32873,1,2,0:0:0:0:
148,40,32968,1,0,0:0:0:0:
148,40,33063,2,0,P|220:8|260:16,1,100,0|2,0:0|0:0,0:0:0:0:
456,64,33442,2,0,P|384:96|344:88,1,100,8|2,0:0|0:0,0:0:0:0:
308,44,33727,2,0,L|316:8,2,25
184,112,34012,5,2,0:0:0:0:
240,196,34202,1,8,0:0:0:0:
300,276,34392,1,2,0:0:0:0:
312,128,34582,5,10,0:0:0:0:
160,260,34772,1,2,0:0:0:0:
356,236,34961,1,10,0:0:0:0:
180,140,35151,1,0,0:0:0:0:
268,320,35341,5,10,0:0:0:0:
484,216,35531,1,2,0:0:0:0:
248,164,35721,1,10,0:0:0:0:
408,344,35911,1,2,0:0:0:0:
392,104,36101,5,10,0:0:0:0:
172,280,36291,1,2,0:0:0:0:
244,12,36480,1,10,0:0:0:0:
360,268,36670,1,2,0:0:0:0:
116,128,36860,6,0,L|100:16,1,100,0|2,0:0|0:0,0:0:0:0:
136,256,37240,1,8,0:0:0:0:
256,192,37430,1,2,0:0:0:0:
392,260,37620,6,0,L|408:372,1,100,0|2,0:0|0:0,0:0:0:0:
376,128,37999,1,8,0:0:0:0:
256,192,38190,1,2,0:0:0:0:
180,92,38379,5,0,0:0:0:0:
256,192,38569,1,2,0:0:0:0:
180,292,38759,1,8,0:0:0:0:
58,223,38949,2,0,B|286:187,1,200,2|0,0:0|0:0,0:0:0:0:
284,188,39423,1,0,0:0:0:0:
312,184,39518,5,8,0:0:0:0:
320,232,39613,1,0,0:0:0:0:
356,268,39708,1,2,0:0:0:0:
404,276,39803,1,0,0:0:0:0:
452,260,39898,6,0,L|480:148,1,100,0|2,0:0|0:0,0:0:0:0:
188,180,40278,2,0,L|212:277,1,100,8|2,0:0|0:0,0:0:0:0:
416,100,40658,1,0,0:0:0:0:
328,52,40848,1,2,0:0:0:0:
248,112,41037,1,8,0:0:0:0:
344,252,41227,1,2,0:0:0:0:
344,252,41607,5,2,0:0:0:0:
328,52,41797,1,8,0:0:0:0:
504,152,41987,1,2,0:0:0:0:
464,164,42082,1,0,0:0:0:0:
424,152,42177,1,0,0:0:0:0:
328,52,42367,1,2,0:0:0:0:
288,40,42462,1,0,0:0:0:0:
248,52,42557,1,8,0:0:0:0:
168,164,42746,1,2,0:0:0:0:
128,176,42841,1,0,0:0:0:0:
88,164,42936,6,0,P|76:68|132:96,1,200,0|8,0:0|0:0,0:0:0:0:
216,220,43506,1,2,0:0:0:0:
68,284,43696,1,0,0:0:0:0:
216,220,43886,1,2,0:0:0:0:
324,336,44075,1,8,0:0:0:0:
175,363,44265,2,0,L|168:164,1,200,2|2,0:0|0:0,0:0:0:0:
20,200,44835,5,8,0:0:0:0:
168,163,45025,1,2,0:0:0:0:
120,20,45215,1,0,0:0:0:0:
152,236,45405,1,2,0:0:0:0:
0,52,45594,1,8,0:0:0:0:
256,144,45784,6,0,B|384:76|384:76|364:104|372:148,1,200,2|2,0:0|0:0,0:0:0:0:
372,264,46354,1,8,0:0:0:0:
508,200,46544,1,2,0:0:0:0:
492,152,46639,1,0,0:0:0:0:
452,124,46734,1,0,0:0:0:0:
372,264,46923,1,2,0:0:0:0:
248,104,47113,1,8,0:0:0:0:
92,212,47303,6,0,L|120:368,1,150,2|0,0:0|0:0,0:0:0:0:
184,304,47683,2,0,P|248:300|288:336,1,100,2|8,0:0|0:0,0:0:0:0:
504,200,48063,2,0,L|492:136,1,50,2|0,0:0|0:0,0:0:0:0:
432,100,48253,2,0,P|368:96|328:132,1,100,2|0,0:0|0:0,0:0:0:0:
272,160,48537,1,0,0:0:0:0:
272,160,48632,6,0,L|256:84,1,50,8|0,0:0|0:0,0:0:0:0:
156,44,48822,2,0,L|80:68,1,50
72,172,49012,6,0,B|168:140|168:140|192:240,1,200,4|8,0:0|0:0,0:0:0:0:
112,352,49582,1,2,0:0:0:0:
112,352,49677,1,0,0:0:0:0:
112,352,49772,2,0,P|92:292|104:252,1,100,0|2,0:0|0:0,0:0:0:0:
164,180,50151,1,8,0:0:0:0:
55,111,50341,6,0,L|267:79,1,200,2|2,0:0|0:0,0:0:0:0:
392,208,50911,1,8,0:0:0:0:
252,81,51101,1,2,0:0:0:0:
204,263,51291,2,0,P|169:228|164:180,1,100,2|0,0:0|0:0,0:0:0:0:
252,81,51670,1,10,0:0:0:0:
204,263,51860,1,0,0:0:0:0:
40,164,52050,6,0,P|96:224|32:304,1,200,2|8,0:0|0:0,0:0:0:0:
204,316,52620,1,2,0:0:0:0:
33,303,52810,2,0,L|133:310,1,100,0|2,0:0|0:0,0:0:0:0:
204,316,53094,1,0,0:0:0:0:
204,316,53189,1,8,0:0:0:0:
320,216,53379,6,0,B|316:144|316:144|336:104|336:104|328:20,1,200,2|2,0:0|0:0,0:0:0:0:
220,236,53949,1,8,0:0:0:0:
408,176,54139,1,2,0:0:0:0:
252,72,54329,2,0,L|140:68,1,100,2|0,0:0|0:0,0:0:0:0:
44,216,54708,5,8,0:0:0:0:
88,192,54803,1,0,0:0:0:0:
136,188,54898,1,2,0:0:0:0:
184,204,54993,1,0,0:0:0:0:
220,236,55088,5,12,0:0:0:0:
120,312,55278,1,2,0:0:0:0:
88,192,55468,5,8,0:0:0:0:
220,236,55658,1,2,0:0:0:0:
248,100,55848,5,8,0:0:0:0:
88,192,56037,1,2,0:0:0:0:
24,8,56227,5,8,0:0:0:0:
248,100,56417,1,2,0:0:0:0:
24,8,56607,5,8,0:0:0:0:
88,192,56797,1,2,0:0:0:0:
300,144,56987,5,8,0:0:0:0:
108,107,57177,1,2,0:0:0:0:
40,316,57367,5,8,0:0:0:0:
167,168,57557,1,2,0:0:0:0:
210,145,57651,1,0,0:0:0:0:
258,137,57746,1,8,0:0:0:0:
306,137,57841,1,0,0:0:0:0:
354,153,57936,1,2,0:0:0:0:
398,177,58031,1,0,0:0:0:0:
422,221,58126,6,0,L|384:320,1,100,12|2,0:0|0:0,0:0:0:0:
364,380,58411,1,0,0:0:0:0:
364,380,58506,1,8,0:0:0:0:
368,96,58696,5,6,0:0:0:0:
360,72,59075,5,6,0:0:0:0:
348,44,59455,6,0,B|208:68,1,120,6|0,0:0|0:0,0:0:0:0:
180,72,59835,1,4,0:0:0:0:
348,44,60025,1,4,0:0:0:0:
292,204,60215,2,0,L|300:256,2,40,8|8|8,0:3|0:3|0:3,0:0:0:0:
180,72,60594,5,2,0:0:0:0:
292,204,60784,1,2,0:0:0:0:
348,44,60974,1,2,0:0:0:0:
468,180,61164,6,0,L|360:196,1,100,4|2,0:0|0:0,0:0:0:0:
256,48,61544,1,8,0:0:0:0:
44,180,61734,2,0,L|152:196,1,100,2|0,0:0|0:0,0:0:0:0:
256,48,62113,1,2,0:0:0:0:
272,208,62303,1,8,0:0:0:0:
391,66,62493,6,0,B|335:75|315:127|315:127|260:112|222:138,1,200,2|2,0:0|0:0,0:0:0:0:
288,306,63063,2,0,L|272:208,1,100,8|2,0:0|0:0,0:0:0:0:
222,138,63348,1,0,0:0:0:0:
204,128,63442,2,0,P|180:124|148:140,1,50,2|0,0:0|0:0,0:0:0:0:
56,88,63632,2,0,P|24:84|-16:104,1,50,2|0,0:0|0:0,0:0:0:0:
32,192,63822,6,0,P|50:176|86:174,1,50,10|0,0:0|0:0,0:0:0:0:
144,48,64012,2,0,P|169:28|214:25,1,50,2|0,0:0|0:0,0:0:0:0:
288,88,64202,6,0,P|368:124|432:32,1,200,0|8,0:0|0:0,0:0:0:0:
328,196,64772,1,0,0:0:0:0:
328,196,64867,1,0,0:0:0:0:
328,196,64961,2,0,P|304:244|332:300,1,100,0|2,0:0|0:0,0:0:0:0:
384,352,65341,1,8,0:0:0:0:
232,304,65531,6,0,P|192:252|52:288,1,200,2|2,0:0|0:0,0:0:0:0:
268,180,66101,1,8,0:0:0:0:
140,332,66291,1,2,0:0:0:0:
140,332,66386,1,0,0:0:0:0:
140,332,66480,1,2,0:0:0:0:
72,232,66670,1,2,0:0:0:0:
152,144,66860,1,10,0:0:0:0:
76,48,67050,1,2,0:0:0:0:
76,48,67145,1,0,0:0:0:0:
76,48,67240,5,6,0:0:0:0:
307,123,67430,1,2,0:0:0:0:
76,198,67620,1,8,0:0:0:0:
219,2,67810,1,2,0:0:0:0:
219,245,67999,1,0,0:0:0:0:
219,245,68379,5,8,0:0:0:0:
450,170,68569,1,2,0:0:0:0:
307,367,68759,1,0,0:0:0:0:
307,124,68949,1,2,0:0:0:0:
450,320,69139,2,0,L|338:340,1,100,8|2,0:0|0:0,0:0:0:0:
351,337,69423,1,0,0:0:0:0:
351,337,69518,1,0,0:0:0:0:
188,336,69708,2,0,L|89:318,1,100,2|8,0:0|0:0,0:0:0:0:
308,96,70088,6,0,P|344:144|340:192,1,100,2|0,0:0|0:0,0:0:0:0:
164,184,70468,1,2,0:0:0:0:
184,28,70658,2,0,P|132:24|84:52,1,100,8|2,0:0|0:0,0:0:0:0:
90,45,70942,1,0,0:0:0:0:
90,45,71037,1,0,0:0:0:0:
264,168,71227,1,2,0:0:0:0:
88,256,71417,1,8,0:0:0:0:
288,344,71607,6,0,P|392:364|460:308,1,200,2|2,0:0|0:0,0:0:0:0:
500,148,72177,1,8,0:0:0:0:
340,112,72367,1,2,0:0:0:0:
344,156,72461,1,0,0:0:0:0:
348,200,72556,5,2,0:0:0:0:
212,88,72746,1,2,0:0:0:0:
104,280,72936,1,10,0:0:0:0:
0,44,73126,1,2,0:0:0:0:
236,120,73316,6,0,L|356:112,1,100,4|2,0:0|0:0,0:0:0:0:
412,52,73696,1,8,0:0:0:0:
276,264,73886,2,0,L|156:272,1,100,2|0,0:0|0:0,0:0:0:0:
100,332,74265,1,2,0:0:0:0:
276,264,74455,1,8,0:0:0:0:
66,130,74645,6,0,P|153:170|235:119,1,200,2|2,0:0|0:0,0:0:0:0:
332,36,75215,2,0,L|464:48,1,100,8|2,0:0|0:0,0:0:0:0:
484,116,75499,1,0,0:0:0:0:
476,128,75594,2,0,L|405:136,1,50
308,204,75784,2,0,L|379:196,1,50,2|0,0:0|0:0,0:0:0:0:
488,292,75974,6,0,L|424:280,1,50,8|0,0:0|0:0,0:0:0:0:
320,340,76164,2,0,L|384:352,1,50,2|0,0:0|0:0,0:0:0:0:
244,268,76354,6,0,L|36:300,1,200,2|8,0:0|0:0,0:0:0:0:
216,185,76923,1,2,0:0:0:0:
216,185,77018,1,0,0:0:0:0:
216,185,77113,2,0,P|265:179|308:204,1,100,0|2,0:0|0:0,0:0:0:0:
224,340,77493,1,8,0:0:0:0:
56,144,77683,5,4,0:0:0:0:
68,120,78063,5,4,0:0:0:0:
80,96,78442,5,4,0:0:0:0:
164,284,78632,1,4,0:0:0:0:
284,144,78822,2,0,L|276:88,1,50,2|0,0:0|0:0,0:0:0:0:
268,24,79012,1,8,0:0:0:0:
480,40,79202,2,0,L|472:96,1,50,2|0,0:0|0:0,0:0:0:0:
460,160,79392,6,0,L|336:152,1,100,4|2,0:0|0:0,0:0:0:0:
178,84,79772,2,0,L|54:92,1,100,8|2,0:0|0:0,0:0:0:0:
79,91,80056,1,0,0:0:0:0:
79,91,80151,1,0,0:0:0:0:
96,256,80341,1,2,0:0:0:0:
260,260,80531,2,0,L|248:140,1,100,8|2,0:0|0:0,0:0:0:0:
368,32,80911,6,0,P|336:76|340:144,1,100,0|2,0:0|0:0,0:0:0:0:
432,308,81291,2,0,P|456:260|448:200,1,100,8|2,0:0|0:0,0:0:0:0:
256,120,81670,1,0,0:0:0:0:
208,132,81765,1,0,0:0:0:0:
160,136,81860,1,2,0:0:0:0:
112,124,81955,1,0,0:0:0:0:
72,92,82050,6,0,P|56:120|52:148,1,50,8|0,0:0|0:0,0:0:0:0:
200,256,82240,2,0,P|208:232|196:196,1,50,2|0,0:0|0:0,0:0:0:0:
32,284,82430,6,0,L|148:308,1,100,4|2,0:0|0:0,0:0:0:0:
272,232,82810,1,8,0:0:0:0:
208,160,82999,1,2,0:0:0:0:
208,160,83094,1,0,0:0:0:0:
208,160,83189,2,0,P|176:208|192:272,1,100,0|2,0:0|0:0,0:0:0:0:
352,264,83569,1,8,0:0:0:0:
368,64,83759,6,0,P|424:120|388:48,1,200,2|2,0:0|0:0,0:0:0:0:
352,264,84329,1,8,0:0:0:0:
260,328,84518,2,0,P|296:340|328:332,1,50,2|2,0:0|0:0,0:0:0:0:
456,320,84708,5,2,0:0:0:0:
356,148,84898,2,0,P|327:173|311:206,1,50,2|2,0:0|0:0,0:0:0:0:
260,328,85088,5,10,0:0:0:0:
456,320,85278,2,0,P|448:282|420:256,1,50,2|2,0:0|0:0,0:0:0:0:
348,144,85468,6,0,L|200:136,1,119.999996337891,4|2,0:0|0:0,0:0:0:0:
168,132,85753,1,2,0:0:0:0:
108,128,85848,1,2,0:0:0:0:
200,328,86037,5,4,0:0:0:0:
228,137,86417,1,4,0:0:0:0:
228,137,86797,6,0,L|400:121,1,160,6|2,0:0|0:0,0:0:0:0:
256,56,87367,2,0,P|216:48|176:65,1,80,2|0,0:0|0:0,0:0:0:0:
140,132,87746,1,2,0:0:0:0:
164,208,87936,1,2,0:0:0:0:
120,276,88126,1,2,0:0:0:0:
32,64,88316,5,4,0:0:0:0:
256,192,88411,12,0,89645,0:0:0:0:
