osu file format v14

[General]
AudioFilename: No Poi!.mp3
AudioLeadIn: 0
PreviewTime: 60489
Countdown: 0
SampleSet: Soft
StackLeniency: 0.7
Mode: 0
LetterboxInBreaks: 0
WidescreenStoryboard: 0

[Editor]
Bookmarks: 6287,18628,30780,42932,55084,61160,73312,85464
DistanceSpacing: 1
BeatDivisor: 4
GridSize: 4
TimelineZoom: 1.6

[Metadata]
Title:No Poi!
TitleUnicode:ノーポイッ!
Artist:Petit Rabbit's
ArtistUnicode:Petit Rabbit's
Creator:walaowey
Version:Sc4's Normal
Source:ご注文はうさぎですか??
Tags:Gochuumon wa Usagi Desu ka? GochiUsa Is the Order a Rabbit? Season 2 Opening [Sc4v4ng3r] Sc4v4ng3r ffstar0716 [ -Scarlet- ] Kagari CLSW crystalseed Minato Yukina tasuke912 Chino Kafū Kafuu Kafu Cocoa Hoto Rize Tedeza Chiya Ujimatsu Syaro Kirima sakura ayane 佐倉綾音 保登心愛 ココア minase inori 水瀬いのり 香風智乃 チノ taneda risa 種田梨沙 天々座理世 リゼ satou satomi 佐藤聡美 宇治松千夜 uchida maaya 内田真礼 桐間紗路 シャロ
BeatmapID:838870
BeatmapSetID:378094

[Difficulty]
HPDrainRate:4
CircleSize:3
OverallDifficulty:4
ApproachRate:5.5
SliderMultiplier:1.2
SliderTickRate:1

[Events]
//Background and Video events
0,0,"BG.jpg",0,0
Video,405,"poi.avi"
//Break Periods
//Storyboard Layer 0 (Background)
//Storyboard Layer 1 (Fail)
//Storyboard Layer 2 (Pass)
//Storyboard Layer 3 (Foreground)
//Storyboard Sound Samples

[TimingPoints]
405,379.746835443038,4,2,2,60,1,0
5341,-100,4,2,2,30,0,0
6101,-100,4,2,2,65,0,0
6291,-100,4,2,1,75,0,0
18632,-100,4,2,1,65,0,0
55088,-100,4,2,1,70,0,0
58126,-100,4,2,1,75,0,0
61164,-100,4,2,1,85,0,1
86797,-100,4,2,1,90,0,0
87177,-100,4,2,2,60,0,0
88316,-100,4,2,1,80,0,1
88411,-100,4,2,1,60,0,0
89645,-100,4,2,1,5,0,0

[Colours]
Combo1 : 255,164,72
Combo2 : 255,128,128
Combo3 : 255,47,255
Combo4 : 108,255,108

[HitObjects]
72,112,405,6,0,L|212:120,1,120,2|0,0:0|0:0,0:0:0:0:
248,136,974,2,0,L|367:129,2,120,2|0|2,0:0|0:0|0:0,0:0:0:0:
196,244,2113,1,0,0:0:0:0:
196,244,2303,2,0,L|264:252,1,60
316,256,2683,2,0,P|368:260|436:220,1,120,2|0,0:0|0:0,0:0:0:0:
456,112,3442,6,0,P|404:83|344:85,1,120,2|0,0:0|0:0,0:0:0:0:
224,80,4202,2,0,L|240:216,1,120,2|0,0:0|0:0,0:0:0:0:
328,280,4961,2,0,B|216:308|172:364|172:364|124:308|16:268,1,360,2|0,0:0|0:0,0:0:0:0:
8,212,6291,6,0,P|6:160|73:103,1,120,6|0,0:0|0:0,0:0:0:0:
108,100,6860,2,0,L|192:104,1,60,8|0,0:0|0:0,0:0:0:0:
228,116,7240,2,0,L|312:120,2,60,2|0|8,0:0|0:0|0:0,0:0:0:0:
240,236,7999,2,0,L|368:244,1,120,2|8,0:0|0:0,0:0:0:0:
420,248,8569,2,8,L|448:308,1,60,0|0,0:0|0:0,0:0:0:0:
468,356,8949,1,8,0:0:0:0:
348,352,9329,6,0,L|228:344,1,120,6|0,0:0|0:0,0:0:0:0:
184,304,9898,2,0,L|124:301,1,60,8|0,0:0|0:0,0:0:0:0:
84,256,10278,2,0,L|24:253,2,60,2|0|8,0:0|0:0|0:0,0:0:0:0:
172,176,11037,2,0,L|232:173,2,60,2|0|8,0:0|0:0|0:0,0:0:0:0:
116,156,11607,2,0,P|92:112|124:48,1,120,0|2,0:0|0:0,0:0:0:0:
176,32,12177,1,8,0:0:0:0:
236,28,12367,6,0,L|372:40,1,120,6|0,0:0|0:0,0:0:0:0:
416,44,12936,1,8,0:0:0:0:
468,156,13316,2,0,L|528:148,2,60,2|0|8,0:0|0:0|0:0,0:0:0:0:
420,268,14075,2,0,L|360:260,1,60,2|0,0:0|0:0,0:0:0:0:
300,248,14455,1,8,0:0:0:0:
300,248,14645,2,0,P|252:236|192:180,1,120,2|0,0:0|0:0,0:0:0:0:
184,132,15215,1,8,0:0:0:0:
112,36,15594,6,8,L|76:88,1,60
12,184,16164,1,8,0:0:0:0:
40,236,16354,1,8,0:0:0:0:
112,332,16734,2,8,L|146:282,1,60
208,180,17303,2,8,P|236:148|328:120,1,120
368,120,17873,2,0,L|436:224,1,120,8|0,0:0|0:0,0:0:0:0:
500,320,18632,5,6,0:0:0:0:
500,320,18822,2,0,L|448:356,1,60,0|8,0:0|0:0,0:0:0:0:
392,356,19202,1,0,0:0:0:0:
392,356,19392,2,0,P|336:352|272:296,1,120,2|8,0:0|0:0,0:0:0:0:
224,212,20151,2,0,L|280:184,2,60,2|0|8,0:0|0:0|0:0,0:0:0:0:
168,232,20721,1,0,0:0:0:0:
168,232,20911,2,0,P|112:237|39:193,1,120,2|8,0:0|0:0,0:0:0:0:
129,117,21670,5,2,0:0:0:0:
129,117,21860,2,0,L|197:121,1,60,0|8,0:0|0:0,0:0:0:0:
248,124,22240,1,0,0:0:0:0:
248,124,22430,2,0,P|304:120|376:85,1,120,2|8,0:0|0:0,0:0:0:0:
476,56,23189,2,0,L|448:0,2,60,2|0|8,0:0|0:0|0:0,0:0:0:0:
496,112,23759,2,0,P|504:164|496:248,1,120,2|0,0:0|0:0,0:0:0:0:
484,288,24329,1,8,0:0:0:0:
376,336,24708,6,0,L|292:332,1,60,6|0,0:0|0:0,0:0:0:0:
256,328,25088,1,8,0:0:0:0:
220,216,25468,1,2,0:0:0:0:
280,212,25658,1,0,0:0:0:0:
340,208,25848,1,8,0:0:0:0:
396,104,26227,2,0,L|455:106,2,60,2|0|8,0:0|0:0|0:0,0:0:0:0:
336,100,26797,2,0,P|268:96|224:72,1,120,2|0,0:0|0:0,0:0:0:0:
168,44,27367,2,0,L|108:46,1,60,8|0,0:0|0:0,0:0:0:0:
52,72,27746,6,0,P|36:108|56:196,2,120,2|8|0,0:0|0:0|0:0,0:0:0:0:
168,44,28886,1,8,0:0:0:0:
224,64,29075,2,8,P|240:100|220:188,2,120,14|8|8,0:0|0:0|0:0,0:0:0:0:
276,32,30025,1,2,0:0:0:0:
280,36,30215,2,8,L|356:44,1,60
460,32,30784,5,6,0:0:0:0:
460,32,30974,2,0,L|476:104,1,60,0|8,0:0|0:0,0:0:0:0:
484,152,31354,1,0,0:0:0:0:
484,152,31544,2,0,P|484:228|464:288,1,120,2|8,0:0|0:0,0:0:0:0:
372,332,32303,2,0,L|296:328,1,60,2|0,0:0|0:0,0:0:0:0:
252,320,32683,2,0,L|192:323,1,60,8|0,0:0|0:0,0:0:0:0:
132,324,33063,2,0,P|104:296|96:204,1,120,2|8,0:0|0:0,0:0:0:0:
116,104,33822,5,6,0:0:0:0:
116,104,34012,2,0,L|200:116,1,60,0|8,0:0|0:0,0:0:0:0:
236,120,34392,1,0,0:0:0:0:
236,120,34582,2,0,L|295:111,2,60,2|0|8,0:0|0:0|0:0,0:0:0:0:
160,212,35341,2,0,L|100:203,2,60,10|0|8,0:0|0:0|0:0,0:0:0:0:
220,224,35911,1,0,0:0:0:0:
280,236,36101,2,0,L|339:227,1,60,10|0,0:0|0:0,0:0:0:0:
384,188,36480,2,0,L|443:179,1,60,8|0,0:0|0:0,0:0:0:0:
480,132,36860,6,0,P|496:80|484:16,1,120,6|8,0:0|0:0,0:0:0:0:
364,28,37620,2,0,L|296:32,1,60,2|0,0:0|0:0,0:0:0:0:
248,56,37999,2,0,L|188:52,1,60,8|0,0:0|0:0,0:0:0:0:
128,44,38379,2,0,P|116:102|132:159,1,120,2|8,0:0|0:0,0:0:0:0:
180,196,38949,2,0,P|196:253|184:311,1,120,2|0,0:0|0:0,0:0:0:0:
148,360,39518,1,8,0:0:0:0:
268,372,39898,6,0,L|328:368,1,60,6|0,0:0|0:0,0:0:0:0:
376,332,40278,2,0,L|436:336,1,60,8|0,0:0|0:0,0:0:0:0:
480,296,40658,2,0,B|492:232|492:232|476:156,1,120,2|8,0:0|0:0,0:0:0:0:
447,128,41227,2,8,P|387:144|317:125,2,120,14|8|8,0:0|0:0|0:0,0:0:0:0:
488,84,42177,1,10,0:0:0:0:
384,24,42556,1,8,0:0:0:0:
272,64,42936,5,6,0:0:0:0:
272,64,43126,2,0,L|232:4,2,60,0|8|0,0:0|0:0|0:0,0:0:0:0:
304,116,43696,2,0,L|264:160,1,60,2|0,0:0|0:0,0:0:0:0:
224,208,44075,1,8,0:0:0:0:
128,280,44455,1,2,0:0:0:0:
128,280,44645,2,0,L|68:244,2,60,0|8|0,0:0|0:0|0:0,0:0:0:0:
180,308,45215,2,0,P|240:316|300:288,1,120,2|8,0:0|0:0,0:0:0:0:
368,200,45974,5,2,0:0:0:0:
368,200,46164,2,0,L|428:236,2,60,0|8|0,0:0|0:0|0:0,0:0:0:0:
316,172,46734,2,8,L|256:132,1,60,10|8,0:0|0:0,0:0:0:0:
168,68,47303,2,0,P|128:100|56:116,1,120,6|0,0:0|0:0,0:0:0:0:
20,160,47873,1,8,0:0:0:0:
40,216,48063,2,0,L|48:288,1,60,0|6,0:0|0:0,0:0:0:0:
156,320,48632,1,8,0:0:0:0:
276,328,49012,6,0,P|328:320|388:264,1,120,6|8,0:0|0:0,0:0:0:0:
404,224,49582,1,0,0:0:0:0:
404,224,49772,2,0,L|376:96,1,120,2|8,0:0|0:0,0:0:0:0:
344,56,50341,2,8,P|268:64|200:52,2,120,10|8|8,0:0|0:0|0:0,0:0:0:0:
380,8,51291,1,10,0:0:0:0:
488,64,51670,1,8,0:0:0:0:
444,176,52050,6,0,B|424:240|424:240|448:312,1,120,6|8,0:0|0:0,0:0:0:0:
464,348,52620,1,0,0:0:0:0:
464,348,52810,2,0,P|396:348|336:364,1,120,2|8,0:0|0:0,0:0:0:0:
300,324,53379,2,8,L|280:200,2,120,10|8|8,0:0|0:0|0:0,0:0:0:0:
252,360,54329,1,10,0:0:0:0:
144,312,54708,1,8,0:0:0:0:
28,340,55088,6,0,P|15:281|12:212,1,120,6|8,0:0|0:0,0:0:0:0:
12,160,55658,2,0,L|32:100,1,60,8|0,0:0|0:0,0:0:0:0:
52,48,56037,1,8,0:0:0:0:
172,36,56417,2,0,P|231:30|300:35,1,120,6|0,0:0|0:0,0:0:0:0:
344,60,56987,1,8,0:0:0:0:
372,112,57177,1,0,0:0:0:0:
400,164,57367,2,0,L|418:220,2,60,10|0|8,0:0|0:0|0:0,0:0:0:0:
284,200,58126,6,0,P|224:212|155:200,1,120,6|8,0:0|0:0,0:0:0:0:
108,188,58696,1,8,0:0:0:0:
56,296,59075,1,8,0:0:0:0:
164,344,59455,2,0,P|224:332|293:344,1,120,6|8,0:0|0:0,0:0:0:0:
340,356,60025,1,8,0:0:0:0:
428,272,60405,1,2,0:0:0:0:
416,212,60594,1,0,0:0:0:0:
404,152,60784,1,12,0:0:0:0:
304,84,61164,6,0,P|248:96|176:72,1,120,6|8,0:0|0:0,0:0:0:0:
136,48,61734,2,0,L|104:176,1,120
92,224,62303,1,8,0:0:0:0:
80,284,62493,2,0,P|144:304|180:352,1,120,2|0,0:0|0:0,0:0:0:0:
236,356,63063,2,0,L|316:348,2,60,8|0|2,0:0|0:0|0:0,0:0:0:0:
220,236,63822,2,0,L|300:228,1,60,8|0,0:0|0:0,0:0:0:0:
340,216,64202,6,0,P|368:180|376:108,1,120,2|8,0:0|0:0,0:0:0:0:
340,56,64772,2,0,L|208:48,1,120
160,44,65341,1,8,0:0:0:0:
100,44,65531,2,0,P|72:80|64:152,1,120
80,212,66101,2,0,P|92:244|92:284,1,60,8|0,0:0|0:0,0:0:0:0:
92,328,66480,1,10,0:0:0:0:
208,360,66860,1,8,0:0:0:0:
324,324,67240,6,0,L|381:307,1,60,6|0,0:0|0:0,0:0:0:0:
428,268,67620,2,0,P|430:238|441:210,1,60,8|0,0:0|0:0,0:0:0:0:
464,156,67999,2,0,P|464:104|416:44,1,120,2|8,0:0|0:0,0:0:0:0:
364,48,68569,1,0,0:0:0:0:
304,48,68759,2,0,L|247:31,2,60,2|0|8,0:0|0:0|0:0,0:0:0:0:
336,164,69518,1,10,0:0:0:0:
280,180,69708,1,8,0:0:0:0:
164,212,70088,6,0,P|112:216|48:176,1,120,6|0,0:0|0:0,0:0:0:0:
8,148,70658,2,0,L|0:276,1,120,8|2,0:0|0:0,0:0:0:0:
32,320,71227,2,0,L|100:332,1,60,0|8,0:0|0:0,0:0:0:0:
148,312,71607,2,0,P|200:308|264:348,1,120,6|0,0:0|0:0,0:0:0:0:
308,372,72177,1,8,0:0:0:0:
420,328,72556,1,2,0:0:0:0:
432,268,72746,1,8,0:0:0:0:
440,208,72936,1,8,0:0:0:0:
380,104,73316,6,0,P|344:100|264:48,1,120,6|8,0:0|0:0,0:0:0:0:
220,28,73886,2,0,L|88:44,1,120
48,68,74455,1,8,0:0:0:0:
80,120,74645,2,0,P|96:168|72:240,1,120,2|0,0:0|0:0,0:0:0:0:
40,280,75215,1,8,0:0:0:0:
156,308,75594,2,0,P|176:268|184:228,1,60,2|0,0:0|0:0,0:0:0:0:
200,196,75974,2,0,P|202:158|192:120,1,60,8|0,0:0|0:0,0:0:0:0:
216,80,76354,6,0,L|344:84,1,120,6|8,0:0|0:0,0:0:0:0:
396,88,76923,2,0,P|400:144|432:216,1,120
456,252,77493,1,8,0:0:0:0:
488,304,77683,1,12,0:0:0:0:
380,360,78063,1,12,0:0:0:0:
264,328,78442,1,12,0:0:0:0:
232,276,78632,1,14,0:0:0:0:
160,180,79012,1,8,0:0:0:0:
220,76,79392,6,0,P|280:88|352:72,1,120,6|8,0:0|0:0,0:0:0:0:
396,60,79961,1,0,0:0:0:0:
396,60,80151,2,0,L|448:112,1,60,2|0,0:0|0:0,0:0:0:0:
480,144,80531,1,8,0:0:0:0:
440,256,80911,2,0,P|380:244|308:260,1,120,6|8,0:0|0:0,0:0:0:0:
268,280,81480,1,0,0:0:0:0:
268,280,81670,2,0,L|225:237,1,60,2|0,0:0|0:0,0:0:0:0:
184,196,82050,1,8,0:0:0:0:
96,116,82430,6,0,P|70:155|72:240,1,120,6|8,0:0|0:0,0:0:0:0:
88,284,82999,2,0,L|160:300,1,60,0|2,0:0|0:0,0:0:0:0:
209,293,83379,2,0,L|267:279,1,60,0|8,0:0|0:0,0:0:0:0:
308,236,83759,2,0,P|308:176|278:125,1,120,6|0,0:0|0:0,0:0:0:0:
236,84,84329,1,8,0:0:0:0:
348,44,84708,2,0,L|432:60,1,60,10|0,0:0|0:0,0:0:0:0:
468,64,85088,1,8,0:0:0:0:
488,184,85468,6,0,P|496:244|480:312,1,120,6|8,0:0|0:0,0:0:0:0:
432,328,86037,1,8,0:0:0:0:
312,308,86417,1,8,0:0:0:0:
196,336,86797,1,12,0:0:0:0:
140,232,87177,1,0,0:0:0:0:
140,232,87367,2,0,L|172:180,1,60
204,132,87746,2,0,P|188:96|180:56,2,60
264,140,88316,1,4,0:0:0:0:
256,192,88411,12,0,89645,0:0:0:0:
