osu file format v14

[General]
AudioFilename: audio.mp3
AudioLeadIn: 0
PreviewTime: 62008
Countdown: 0
SampleSet: Normal
StackLeniency: 0.7
Mode: 1
LetterboxInBreaks: 0
WidescreenStoryboard: 1

[Editor]
DistanceSpacing: 1.1
BeatDivisor: 4
GridSize: 32
TimelineZoom: 1.5

[Metadata]
Title:Happiness Encore
TitleUnicode:ハピネスアンコール
Artist:Petit Rabbit's
ArtistUnicode:Petit Rabbit's
Creator:Tyistiana
Version:y0_'s Muzukashii
Source:ご注文はうさぎですか?? ~Dear My Sister~
Tags:gochiusa movie gochuumon wa usagi desu ka?? dear my sister is the order a rabbit?? op opening hoto cocoa sakura ayane kafuu chino minase inori tedeza rize taneda risa ujimatsu chiya satou satomi kirima syaro uchida maaya realy0_ faputa poii blackener smallwu ][ -GH- ][ roger nardoxyribonucleic ごちうさ 佐倉綾音 水瀬いのり 種田梨沙 佐藤聡美 内田真礼 ココア チノ リゼ シャロ 千夜
BeatmapID:1932055
BeatmapSetID:914056

[Difficulty]
HPDrainRate:5
CircleSize:5
OverallDifficulty:5
ApproachRate:5
SliderMultiplier:1.4
SliderTickRate:1

[Events]
//Background and Video events
0,0,"bg_all.jpg",0,115
//Break Periods
//Storyboard Layer 0 (Background)
//Storyboard Layer 1 (Fail)
//Storyboard Layer 2 (Pass)
//Storyboard Layer 3 (Foreground)
//Storyboard Sound Samples

[TimingPoints]
566,444.444444444444,4,1,0,45,1,0
2343,444.444444444444,4,1,0,80,1,0
18342,444.444444444444,4,1,0,60,1,0
32564,-100,4,1,0,70,0,0
46786,-100,4,1,0,75,0,0
53897,-100,4,1,0,60,0,0
57453,-100,4,1,0,75,0,0
61230,-100,4,1,0,85,0,0
62786,444.444444444444,4,1,0,100,1,1
87674,444.444444444444,4,1,0,100,1,0

[HitObjects]
222,242,566,5,0,0:0:0:0:
222,242,1232,1,8,0:0:0:0:
222,242,1454,1,8,0:0:0:0:
378,184,1677,1,0,0:0:0:0:
378,184,1788,1,0,0:0:0:0:
378,184,1899,1,0,0:0:0:0:
340,199,2121,1,0,0:0:0:0:
340,199,2343,1,12,0:0:0:0:
262,31,2565,1,0,0:0:0:0:
287,143,2787,1,8,0:0:0:0:
231,93,3009,1,8,0:0:0:0:
167,109,3231,1,0,0:0:0:0:
244,113,3676,1,8,0:0:0:0:
365,63,3898,1,0,0:0:0:0:
273,69,4009,1,0,0:0:0:0:
325,106,4120,1,0,0:0:0:0:
274,69,4565,1,0,0:0:0:0:
129,176,4787,1,8,0:0:0:0:
274,69,5009,1,0,0:0:0:0:
385,64,5231,1,8,0:0:0:0:
385,64,5454,1,8,0:0:0:0:
271,156,5676,1,8,0:0:0:0:
334,53,5898,1,0,0:0:0:0:
251,92,6342,1,0,0:0:0:0:
249,93,6565,1,8,0:0:0:0:
251,92,6787,1,0,0:0:0:0:
249,93,7009,1,8,0:0:0:0:
310,70,7120,1,8,0:0:0:0:
249,93,7231,1,8,0:0:0:0:
232,36,7454,1,0,0:0:0:0:
232,36,7676,1,8,0:0:0:0:
296,58,8120,1,8,0:0:0:0:
296,47,8342,1,8,0:0:0:0:
296,47,8565,1,0,0:0:0:0:
269,39,9009,1,8,0:0:0:0:
269,39,9231,1,0,0:0:0:0:
269,39,9454,1,12,0:0:0:0:
226,96,9898,1,8,0:0:0:0:
227,90,10342,1,0,0:0:0:0:
229,33,10565,1,0,0:0:0:0:
229,33,10787,1,8,0:0:0:0:
229,33,11231,1,0,0:0:0:0:
269,43,12120,1,8,0:0:0:0:
269,37,12342,1,0,0:0:0:0:
269,43,12565,1,8,0:0:0:0:
269,37,12787,1,8,0:0:0:0:
269,37,13009,1,0,0:0:0:0:
265,25,13231,1,0,0:0:0:0:
262,32,13676,1,8,0:0:0:0:
324,101,13898,1,8,0:0:0:0:
323,98,14342,1,8,0:0:0:0:
263,30,14565,1,0,0:0:0:0:
264,29,15009,1,0,0:0:0:0:
264,29,15231,1,12,0:0:0:0:
291,69,15676,1,8,0:0:0:0:
232,89,16120,1,0,0:0:0:0:
269,156,16231,1,0,0:0:0:0:
329,120,16342,1,0,0:0:0:0:
213,32,16565,1,12,0:0:0:0:
303,32,17454,1,0,0:0:0:0:
228,47,17676,1,0,0:0:0:0:
228,47,17787,1,0,0:0:0:0:
291,68,17898,1,0,0:0:0:0:
291,68,18120,1,0,0:0:0:0:
226,42,18342,1,8,0:0:0:0:
291,68,18786,1,8,0:0:0:0:
276,61,19230,1,0,0:0:0:0:
270,61,19453,1,0,0:0:0:0:
270,61,19675,1,8,0:0:0:0:
256,55,19897,1,0,0:0:0:0:
205,13,20341,1,0,0:0:0:0:
205,13,20564,1,8,0:0:0:0:
206,13,20786,1,8,0:0:0:0:
272,109,21230,1,8,0:0:0:0:
272,109,21453,1,0,0:0:0:0:
280,108,21675,1,8,0:0:0:0:
280,108,21897,1,0,0:0:0:0:
280,107,22341,1,8,0:0:0:0:
280,107,22786,1,0,0:0:0:0:
280,107,23008,1,0,0:0:0:0:
280,107,23230,1,8,0:0:0:0:
280,107,23453,1,0,0:0:0:0:
280,107,23897,1,0,0:0:0:0:
280,107,24119,1,8,0:0:0:0:
280,107,24341,1,0,0:0:0:0:
280,107,24786,1,8,0:0:0:0:
280,107,25008,1,8,0:0:0:0:
280,107,25230,1,0,0:0:0:0:
280,107,25341,1,0,0:0:0:0:
280,107,25453,1,0,0:0:0:0:
269,191,26341,1,8,0:0:0:0:
270,189,26564,1,8,0:0:0:0:
214,54,26786,1,0,0:0:0:0:
270,189,27008,1,8,0:0:0:0:
202,56,27453,1,0,0:0:0:0:
202,56,27675,1,8,0:0:0:0:
203,54,27897,1,8,0:0:0:0:
205,52,28341,1,8,0:0:0:0:
378,97,28564,1,0,0:0:0:0:
205,52,28786,1,0,0:0:0:0:
217,48,29008,1,8,0:0:0:0:
350,81,29230,1,8,0:0:0:0:
350,81,29453,1,0,0:0:0:0:
350,81,29675,1,8,0:0:0:0:
211,49,30119,1,0,0:0:0:0:
211,49,30341,1,8,0:0:0:0:
211,49,30564,1,0,0:0:0:0:
342,87,31008,1,0,0:0:0:0:
342,87,31230,1,8,0:0:0:0:
343,84,31897,1,8,0:0:0:0:
343,84,32008,1,8,0:0:0:0:
343,84,32119,1,8,0:0:0:0:
343,84,32341,1,0,0:0:0:0:
311,87,32564,1,12,0:0:0:0:
240,104,33008,1,8,0:0:0:0:
282,229,33453,1,8,0:0:0:0:
282,229,33675,1,8,0:0:0:0:
282,229,33897,1,0,0:0:0:0:
282,229,34119,1,8,0:0:0:0:
254,227,34564,1,0,0:0:0:0:
254,227,34786,1,8,0:0:0:0:
254,227,35008,1,8,0:0:0:0:
268,184,35453,1,0,0:0:0:0:
268,184,35675,1,8,0:0:0:0:
268,184,35897,1,0,0:0:0:0:
269,106,36119,1,8,0:0:0:0:
269,106,36341,1,8,0:0:0:0:
275,106,36564,1,0,0:0:0:0:
270,106,37008,1,0,0:0:0:0:
270,106,37230,1,0,0:0:0:0:
270,106,37453,1,8,0:0:0:0:
270,106,37675,1,0,0:0:0:0:
271,104,38119,1,0,0:0:0:0:
271,104,38341,1,8,0:0:0:0:
271,104,38564,1,0,0:0:0:0:
272,103,39008,1,8,0:0:0:0:
272,103,39230,1,8,0:0:0:0:
272,103,39675,1,0,0:0:0:0:
272,103,40564,1,8,0:0:0:0:
272,103,40786,1,8,0:0:0:0:
272,103,41008,1,0,0:0:0:0:
272,103,41230,1,8,0:0:0:0:
273,102,41675,1,0,0:0:0:0:
285,108,41897,1,8,0:0:0:0:
285,108,42341,1,0,0:0:0:0:
287,103,42564,1,0,0:0:0:0:
274,101,42786,1,8,0:0:0:0:
287,103,43008,1,8,0:0:0:0:
287,103,43230,1,4,0:0:0:0:
287,103,43675,1,8,0:0:0:0:
287,103,43897,1,0,0:0:0:0:
287,103,44341,1,8,0:0:0:0:
287,103,44564,1,0,0:0:0:0:
287,103,44786,1,12,0:0:0:0:
335,99,45230,1,8,0:0:0:0:
335,99,45453,1,8,0:0:0:0:
335,99,45675,1,0,0:0:0:0:
335,98,45897,1,8,0:0:0:0:
335,98,46119,1,8,0:0:0:0:
335,98,46230,1,8,0:0:0:0:
335,98,46341,1,8,0:0:0:0:
335,98,46564,1,0,0:0:0:0:
335,98,46786,1,12,0:0:0:0:
225,48,47230,1,8,0:0:0:0:
225,48,47675,1,8,0:0:0:0:
232,46,47897,1,8,0:0:0:0:
226,47,48119,1,8,0:0:0:0:
232,46,48341,1,8,0:0:0:0:
232,46,48564,1,0,0:0:0:0:
232,46,49008,1,0,0:0:0:0:
232,46,49453,1,0,0:0:0:0:
232,46,49675,1,0,0:0:0:0:
232,46,49897,1,0,0:0:0:0:
286,68,50341,1,8,0:0:0:0:
286,68,50786,1,8,0:0:0:0:
289,67,51230,1,8,0:0:0:0:
289,67,51453,1,8,0:0:0:0:
289,67,51675,1,8,0:0:0:0:
290,64,51897,1,12,0:0:0:0:
319,96,52341,1,0,0:0:0:0:
319,96,52564,1,0,0:0:0:0:
332,63,53008,1,8,0:0:0:0:
228,47,53230,1,0,0:0:0:0:
228,47,53341,1,0,0:0:0:0:
228,47,53453,1,0,0:0:0:0:
289,124,53675,1,0,0:0:0:0:
332,63,53897,1,8,0:0:0:0:
274,58,54341,1,0,0:0:0:0:
195,84,54786,1,8,0:0:0:0:
222,53,55230,1,0,0:0:0:0:
313,63,55453,1,4,0:0:0:0:
338,139,56119,1,8,0:0:0:0:
338,136,56564,1,0,0:0:0:0:
299,133,56786,1,8,0:0:0:0:
300,129,56897,1,8,0:0:0:0:
286,39,57008,1,8,0:0:0:0:
312,109,57230,1,0,0:0:0:0:
241,112,57453,1,8,0:0:0:0:
242,110,57897,1,8,0:0:0:0:
242,110,58119,1,8,0:0:0:0:
242,110,58341,1,0,0:0:0:0:
318,100,58786,1,0,0:0:0:0:
318,100,59008,1,0,0:0:0:0:
318,99,59230,1,8,0:0:0:0:
318,99,59675,1,8,0:0:0:0:
318,99,59897,1,8,0:0:0:0:
318,99,60119,1,0,0:0:0:0:
325,88,60341,1,0,0:0:0:0:
325,88,60564,1,8,0:0:0:0:
253,63,60786,1,0,0:0:0:0:
264,60,60897,1,0,0:0:0:0:
264,60,61008,1,0,0:0:0:0:
255,74,61230,1,8,0:0:0:0:
255,74,61453,1,8,0:0:0:0:
255,74,61897,1,8,0:0:0:0:
265,59,62119,1,0,0:0:0:0:
265,59,62230,1,0,0:0:0:0:
265,59,62341,1,0,0:0:0:0:
265,59,62564,1,0,0:0:0:0:
265,59,62786,1,12,0:0:0:0:
186,136,63230,1,8,0:0:0:0:
248,76,63674,1,8,0:0:0:0:
249,74,63897,1,0,0:0:0:0:
259,60,64119,1,8,0:0:0:0:
249,74,64341,1,8,0:0:0:0:
249,73,64563,1,0,0:0:0:0:
272,56,65008,1,8,0:0:0:0:
272,56,65452,1,0,0:0:0:0:
272,56,65674,1,8,0:0:0:0:
272,56,65897,1,8,0:0:0:0:
194,62,66119,1,0,0:0:0:0:
299,125,66230,1,0,0:0:0:0:
194,62,66341,1,0,0:0:0:0:
205,73,66786,1,8,0:0:0:0:
256,58,67230,1,8,0:0:0:0:
256,58,67452,1,0,0:0:0:0:
207,69,67674,1,8,0:0:0:0:
272,132,67897,1,8,0:0:0:0:
355,79,68119,1,0,0:0:0:0:
260,55,68563,1,8,0:0:0:0:
260,55,69008,1,0,0:0:0:0:
333,104,69230,1,0,0:0:0:0:
260,55,69452,1,8,0:0:0:0:
265,83,69674,1,0,0:0:0:0:
265,83,69786,1,0,0:0:0:0:
292,115,69897,1,0,0:0:0:0:
266,83,70341,1,8,0:0:0:0:
266,83,70785,1,8,0:0:0:0:
227,131,71008,1,0,0:0:0:0:
270,81,71230,1,8,0:0:0:0:
228,119,71452,1,0,0:0:0:0:
271,76,71674,1,0,0:0:0:0:
271,75,72119,1,8,0:0:0:0:
225,114,72563,1,0,0:0:0:0:
271,75,73008,1,8,0:0:0:0:
232,112,73230,1,0,0:0:0:0:
205,124,73452,1,8,0:0:0:0:
230,140,73674,1,8,0:0:0:0:
230,140,73785,1,8,0:0:0:0:
230,140,73897,1,8,0:0:0:0:
230,140,74119,1,0,0:0:0:0:
271,75,74341,1,0,0:0:0:0:
230,140,74785,1,8,0:0:0:0:
217,123,75008,1,0,0:0:0:0:
271,73,75230,1,8,0:0:0:0:
271,73,75674,1,0,0:0:0:0:
271,73,76119,1,8,0:0:0:0:
236,109,76341,1,8,0:0:0:0:
271,73,76563,1,0,0:0:0:0:
271,73,77008,1,12,0:0:0:0:
174,66,77452,1,8,0:0:0:0:
174,67,77897,1,8,0:0:0:0:
227,142,78119,1,0,0:0:0:0:
177,69,78341,1,8,0:0:0:0:
227,142,78563,1,8,0:0:0:0:
177,69,78785,1,0,0:0:0:0:
177,69,79230,1,8,0:0:0:0:
177,69,79674,1,0,0:0:0:0:
227,142,79897,1,0,0:0:0:0:
177,69,80119,1,8,0:0:0:0:
257,125,80341,1,8,0:0:0:0:
257,125,80452,1,8,0:0:0:0:
177,69,80563,1,8,0:0:0:0:
177,69,81008,1,0,0:0:0:0:
177,69,81452,1,8,0:0:0:0:
227,142,81674,1,8,0:0:0:0:
183,69,81897,1,0,0:0:0:0:
227,142,82119,1,8,0:0:0:0:
259,126,82341,1,8,0:0:0:0:
183,69,83230,1,0,0:0:0:0:
271,166,83452,1,8,0:0:0:0:
271,166,83563,1,8,0:0:0:0:
183,69,83674,1,8,0:0:0:0:
271,166,83897,1,0,0:0:0:0:
183,69,84119,1,8,0:0:0:0:
273,166,84563,1,8,0:0:0:0:
183,69,85008,1,0,0:0:0:0:
273,166,85452,1,0,0:0:0:0:
279,151,85674,1,0,0:0:0:0:
183,69,85897,1,8,0:0:0:0:
183,69,86341,1,8,0:0:0:0:
183,69,86785,1,0,0:0:0:0:
282,150,87008,1,0,0:0:0:0:
282,150,87119,1,0,0:0:0:0:
282,150,87230,1,0,0:0:0:0:
282,150,87452,1,0,0:0:0:0:
183,69,87674,1,12,0:0:0:0:
272,42,88562,1,8,0:0:0:0:
232,85,88785,1,0,0:0:0:0:
232,85,89007,1,0,0:0:0:0:
232,85,89229,1,12,0:0:0:0:
285,93,89674,1,0,0:0:0:0:
285,93,89896,1,8,0:0:0:0:
288,89,90118,1,8,0:0:0:0:
288,89,90340,1,0,0:0:0:0:
289,75,90562,1,0,0:0:0:0:
289,75,90785,1,8,0:0:0:0:
289,75,91007,1,0,0:0:0:0:
273,109,91229,1,0,0:0:0:0:
270,103,91674,1,0,0:0:0:0:
270,103,91896,1,0,0:0:0:0:
270,107,92118,1,8,0:0:0:0:
270,100,92340,1,0,0:0:0:0:
270,100,92562,1,0,0:0:0:0:
270,100,92785,1,12,0:0:0:0:
354,102,93229,1,0,0:0:0:0:
354,102,93451,1,8,0:0:0:0:
354,102,93674,1,4,0:0:0:0:
294,111,94118,1,8,0:0:0:0:
294,111,94229,1,8,0:0:0:0:
294,111,94340,1,8,0:0:0:0:
294,111,94562,1,12,0:0:0:0:
256,192,94785,12,0,98340,0:0:0:0:
256,192,98562,12,0,101896,0:0:0:0:
