osu file format v14

[General]
AudioFilename: audio.mp3
AudioLeadIn: 0
PreviewTime: 62008
Countdown: 0
SampleSet: Normal
StackLeniency: 0.7
Mode: 1
LetterboxInBreaks: 0
WidescreenStoryboard: 0

[Editor]
DistanceSpacing: 1.1
BeatDivisor: 2
GridSize: 32
TimelineZoom: 1.1

[Metadata]
Title:Happiness Encore
TitleUnicode:ハピネスアンコール
Artist:Petit Rabbit's
ArtistUnicode:Petit Rabbit's
Creator:Tyistiana
Version:Poii's Beginner
Source:ご注文はうさぎですか?? ~Dear My Sister~
Tags:gochiusa movie gochuumon wa usagi desu ka?? dear my sister is the order a rabbit?? op opening hoto cocoa sakura ayane kafuu chino minase inori tedeza rize taneda risa ujimatsu chiya satou satomi kirima syaro uchida maaya realy0_ faputa poii blackener smallwu ][ -GH- ][ roger nardoxyribonucleic ごちうさ 佐倉綾音 水瀬いのり 種田梨沙 佐藤聡美 内田真礼 ココア チノ リゼ シャロ 千夜
BeatmapID:1936439
BeatmapSetID:914056

[Difficulty]
HPDrainRate:8
CircleSize:2
OverallDifficulty:2
ApproachRate:10
SliderMultiplier:1.4
SliderTickRate:1

[Events]
//Background and Video events
0,0,"bg_all.jpg",0,115
//Break Periods
//Storyboard Layer 0 (Background)
//Storyboard Layer 1 (Fail)
//Storyboard Layer 2 (Pass)
//Storyboard Layer 3 (Foreground)
//Storyboard Sound Samples

[TimingPoints]
566,444.444444444444,4,1,0,45,1,0
2343,444.444444444444,4,1,0,80,1,0
18342,444.444444444444,4,1,0,60,1,0
32564,-100,4,1,0,70,0,0
46786,-100,4,1,0,75,0,0
53897,-100,4,1,0,60,0,0
57453,-100,4,1,0,75,0,0
61230,-100,4,1,0,85,0,0
62786,444.444444444444,4,1,0,100,1,1
87674,444.444444444444,4,1,0,100,1,0
95007,-100,4,1,0,80,0,0
96562,-100,4,1,0,70,0,0
98340,-100,4,1,0,50,0,0
100118,-100,4,1,0,30,0,0
101896,-100,4,1,0,15,0,0

[HitObjects]
256,192,566,5,0,0:0:0:0:
256,192,2343,5,4,0:0:0:0:
256,192,3231,1,0,0:0:0:0:
256,192,4120,1,8,0:0:0:0:
256,192,5898,1,0,0:0:0:0:
256,192,7676,1,0,0:0:0:0:
256,192,8565,1,8,0:0:0:0:
256,192,9454,1,4,0:0:0:0:
256,192,11231,1,0,0:0:0:0:
256,192,13009,1,8,0:0:0:0:
256,192,13898,1,0,0:0:0:0:
256,192,15231,1,12,0:0:0:0:
256,192,16565,1,12,0:0:0:0:
256,192,18342,1,8,0:0:0:0:
256,192,19230,1,0,0:0:0:0:
256,192,20119,1,8,0:0:0:0:
256,192,21897,1,0,0:0:0:0:
256,192,23675,1,8,0:0:0:0:
256,192,25453,1,0,0:0:0:0:
256,192,26341,1,8,0:0:0:0:
256,192,27230,1,8,0:0:0:0:
256,192,29008,1,0,0:0:0:0:
256,192,30786,1,0,0:0:0:0:
256,192,32564,1,12,0:0:0:0:
256,192,33453,1,0,0:0:0:0:
256,192,34341,1,0,0:0:0:0:
256,192,36119,1,0,0:0:0:0:
256,192,37897,1,8,0:0:0:0:
256,192,39675,1,0,0:0:0:0:
256,192,40564,1,8,0:0:0:0:
256,192,41453,1,8,0:0:0:0:
256,192,43230,1,4,0:0:0:0:
256,192,44786,1,12,0:0:0:0:
256,192,46786,5,4,0:0:0:0:
256,192,48564,1,0,0:0:0:0:
256,192,49453,1,8,0:0:0:0:
256,192,50341,1,0,0:0:0:0:
256,192,51897,1,4,0:0:0:0:
256,192,53008,1,8,0:0:0:0:
256,192,54341,1,4,0:0:0:0:
256,192,55453,1,4,0:0:0:0:
256,192,56564,1,8,0:0:0:0:
256,192,57453,5,0,0:0:0:0:
256,192,59230,1,8,0:0:0:0:
256,192,60119,1,8,0:0:0:0:
256,192,61453,1,8,0:0:0:0:
256,192,62786,5,12,0:0:0:0:
256,192,63674,1,0,0:0:0:0:
256,192,64563,1,8,0:0:0:0:
256,192,66341,1,0,0:0:0:0:
256,192,67230,1,8,0:0:0:0:
256,192,68119,1,0,0:0:0:0:
256,192,69897,1,8,0:0:0:0:
256,192,70785,1,8,0:0:0:0:
256,192,71674,1,0,0:0:0:0:
256,192,72563,1,8,0:0:0:0:
256,192,73452,1,8,0:0:0:0:
256,192,75230,1,0,0:0:0:0:
256,192,76119,1,0,0:0:0:0:
256,192,77008,1,12,0:0:0:0:
256,192,78785,1,0,0:0:0:0:
256,192,79674,1,0,0:0:0:0:
256,192,80563,1,8,0:0:0:0:
256,192,82341,1,8,0:0:0:0:
256,192,83230,1,8,0:0:0:0:
256,192,84119,1,0,0:0:0:0:
256,192,85897,1,8,0:0:0:0:
256,192,86785,1,0,0:0:0:0:
256,192,87674,1,8,0:0:0:0:
256,192,89896,1,0,0:0:0:0:
256,192,90785,1,0,0:0:0:0:
256,192,91674,1,8,0:0:0:0:
256,192,92785,1,12,0:0:0:0:
256,192,93674,1,0,0:0:0:0:
256,192,94562,1,8,0:0:0:0:
256,192,95007,12,0,101896,0:0:0:0:
