osu file format v14

[General]
AudioFilename: audio.mp3
AudioLeadIn: 0
PreviewTime: 62008
Countdown: 0
SampleSet: Normal
StackLeniency: 0.7
Mode: 1
LetterboxInBreaks: 0
WidescreenStoryboard: 0

[Editor]
DistanceSpacing: 1.1
BeatDivisor: 4
GridSize: 32
TimelineZoom: 0.9

[Metadata]
Title:Happiness Encore
TitleUnicode:ハピネスアンコール
Artist:Petit Rabbit's
ArtistUnicode:Petit Rabbit's
Creator:Tyistiana
Version:Nardo's Futsuu
Source:ご注文はうさぎですか?? ~Dear My Sister~
Tags:gochiusa movie gochuumon wa usagi desu ka?? dear my sister is the order a rabbit?? op opening hoto cocoa sakura ayane kafuu chino minase inori tedeza rize taneda risa ujimatsu chiya satou satomi kirima syaro uchida maaya realy0_ faputa poii blackener smallwu ][ -GH- ][ roger nardoxyribonucleic ごちうさ 佐倉綾音 水瀬いのり 種田梨沙 佐藤聡美 内田真礼 ココア チノ リゼ シャロ 千夜
BeatmapID:2019046
BeatmapSetID:914056

[Difficulty]
HPDrainRate:6
CircleSize:5
OverallDifficulty:4
ApproachRate:5
SliderMultiplier:1.4
SliderTickRate:1

[Events]
//Background and Video events
0,0,"bg_all.jpg",0,115
//Break Periods
//Storyboard Layer 0 (Background)
//Storyboard Layer 1 (Fail)
//Storyboard Layer 2 (Pass)
//Storyboard Layer 3 (Foreground)
//Storyboard Layer 4 (Overlay)
//Storyboard Sound Samples

[TimingPoints]
566,444.444444444444,4,1,0,45,1,0
2343,444.444444444444,4,1,0,80,1,0
18342,444.444444444444,4,1,0,60,1,0
32564,-100,4,1,0,70,0,0
46786,-100,4,1,0,75,0,0
53897,-100,4,1,0,60,0,0
57453,-100,4,1,0,75,0,0
61230,-100,4,1,0,85,0,0
62786,444.444444444444,4,1,0,100,1,1
87674,444.444444444444,4,1,0,100,1,0
94785,-100,4,1,0,85,0,0
95229,-100,4,1,0,80,0,0
95673,-100,4,1,0,75,0,0
96118,-100,4,1,0,70,0,0
96562,-100,4,1,0,65,0,0
97007,-100,4,1,0,60,0,0
97451,-100,4,1,0,55,0,0
97896,-100,4,1,0,50,0,0
98340,-100,4,1,0,45,0,0
98785,-100,4,1,0,40,0,0
99229,-100,4,1,0,35,0,0
99673,-100,4,1,0,30,0,0
100118,-100,4,1,0,25,0,0
100562,-100,4,1,0,20,0,0
101007,-100,4,1,0,15,0,0
101451,-100,4,1,0,10,0,0
101896,-100,4,1,0,5,0,0

[HitObjects]
256,192,566,5,0,0:0:0:0:
256,192,1454,1,8,0:0:0:0:
256,192,1788,1,8,0:0:0:0:
256,192,2121,1,0,0:0:0:0:
256,192,2343,1,12,0:0:0:0:
256,192,2787,1,8,0:0:0:0:
256,192,3231,1,0,0:0:0:0:
256,192,3676,1,8,0:0:0:0:
256,192,3898,1,0,0:0:0:0:
256,192,4120,1,0,0:0:0:0:
256,192,5009,1,8,0:0:0:0:
256,192,5454,1,8,0:0:0:0:
256,192,5898,1,0,0:0:0:0:
256,192,6787,1,8,0:0:0:0:
256,192,7231,1,0,0:0:0:0:
256,192,7676,1,8,0:0:0:0:
256,192,8120,1,8,0:0:0:0:
256,192,8565,1,0,0:0:0:0:
256,192,8787,1,0,0:0:0:0:
256,192,9009,1,8,0:0:0:0:
256,192,9454,1,4,0:0:0:0:
256,192,10342,1,8,0:0:0:0:
256,192,11231,1,0,0:0:0:0:
256,192,12120,1,8,0:0:0:0:
256,192,12342,1,0,0:0:0:0:
256,192,12565,1,8,0:0:0:0:
256,192,13009,1,12,0:0:0:0:
256,192,13231,1,12,0:0:0:0:
256,192,13676,1,4,0:0:0:0:
256,192,13898,1,4,0:0:0:0:
256,192,14342,1,12,0:0:0:0:
256,192,14565,1,12,0:0:0:0:
256,192,15231,1,4,0:0:0:0:
256,192,16565,1,12,0:0:0:0:
256,192,17898,1,0,0:0:0:0:
256,192,18342,1,8,0:0:0:0:
256,192,18786,1,8,0:0:0:0:
256,192,19230,1,8,0:0:0:0:
256,192,19453,1,0,0:0:0:0:
256,192,19897,1,0,0:0:0:0:
256,192,20342,1,0,0:0:0:0:
256,192,20564,1,8,0:0:0:0:
256,192,20786,1,0,0:0:0:0:
256,192,21230,1,8,0:0:0:0:
256,192,21453,1,8,0:0:0:0:
256,192,21897,1,0,0:0:0:0:
256,192,22341,1,0,0:0:0:0:
256,192,22786,1,0,0:0:0:0:
256,192,23008,1,8,0:0:0:0:
256,192,23453,1,8,0:0:0:0:
256,192,23897,1,0,0:0:0:0:
256,192,24341,1,0,0:0:0:0:
256,192,24786,1,8,0:0:0:0:
256,192,25453,1,8,0:0:0:0:
256,192,26341,1,0,0:0:0:0:
256,192,26786,1,8,0:0:0:0:
256,192,27008,1,0,0:0:0:0:
256,192,27453,1,0,0:0:0:0:
256,192,27675,1,8,0:0:0:0:
256,192,27897,1,8,0:0:0:0:
256,192,28564,1,8,0:0:0:0:
256,192,29008,1,8,0:0:0:0:
256,192,29230,1,0,0:0:0:0:
256,192,29675,1,8,0:0:0:0:
256,192,30119,1,8,0:0:0:0:
256,192,30341,1,8,0:0:0:0:
256,192,30564,1,0,0:0:0:0:
256,192,31008,1,0,0:0:0:0:
256,192,31230,1,8,0:0:0:0:
256,192,32119,1,8,0:0:0:0:
256,192,32564,1,4,0:0:0:0:
256,192,33008,1,8,0:0:0:0:
256,192,33453,1,8,0:0:0:0:
256,192,33675,1,0,0:0:0:0:
256,192,34119,1,0,0:0:0:0:
256,192,34564,1,0,0:0:0:0:
256,192,34786,1,8,0:0:0:0:
256,192,35008,1,0,0:0:0:0:
256,192,35453,1,8,0:0:0:0:
256,192,35675,1,8,0:0:0:0:
256,192,36119,1,0,0:0:0:0:
256,192,36564,1,0,0:0:0:0:
256,192,37008,1,0,0:0:0:0:
256,192,37230,1,8,0:0:0:0:
256,192,37675,1,8,0:0:0:0:
256,192,38119,1,0,0:0:0:0:
256,192,38564,1,0,0:0:0:0:
256,192,39008,1,8,0:0:0:0:
256,192,39675,1,8,0:0:0:0:
256,192,40564,1,8,0:0:0:0:
256,192,41008,1,0,0:0:0:0:
256,192,41230,1,8,0:0:0:0:
256,192,41897,1,8,0:0:0:0:
256,192,42341,1,0,0:0:0:0:
256,192,42564,1,0,0:0:0:0:
256,192,42786,1,8,0:0:0:0:
256,192,43230,1,12,0:0:0:0:
256,192,43675,1,8,0:0:0:0:
256,192,43897,1,0,0:0:0:0:
256,192,44341,1,8,0:0:0:0:
256,192,44564,1,0,0:0:0:0:
256,192,44786,1,12,0:0:0:0:
256,192,45230,1,0,0:0:0:0:
256,192,45453,1,8,0:0:0:0:
256,192,45897,1,0,0:0:0:0:
256,192,46786,1,12,0:0:0:0:
256,192,47230,1,8,0:0:0:0:
256,192,47675,1,0,0:0:0:0:
256,192,47897,1,0,0:0:0:0:
256,192,48341,1,8,0:0:0:0:
256,192,49008,1,8,0:0:0:0:
256,192,49453,1,0,0:0:0:0:
256,192,49675,1,0,0:0:0:0:
256,192,50341,1,8,0:0:0:0:
256,192,50786,1,0,0:0:0:0:
256,192,51230,1,0,0:0:0:0:
256,192,51453,1,8,0:0:0:0:
256,192,51897,1,12,0:0:0:0:
256,192,53008,1,8,0:0:0:0:
256,192,53341,1,8,0:0:0:0:
256,192,53675,1,0,0:0:0:0:
256,192,53897,1,0,0:0:0:0:
256,192,54341,1,0,0:0:0:0:
256,192,54786,1,8,0:0:0:0:
256,192,55230,1,8,0:0:0:0:
256,192,55453,1,4,0:0:0:0:
256,192,56119,1,8,0:0:0:0:
256,192,56564,1,0,0:0:0:0:
256,192,56897,1,0,0:0:0:0:
256,192,57230,1,8,0:0:0:0:
256,192,57453,1,8,0:0:0:0:
256,192,58119,1,0,0:0:0:0:
256,192,58341,1,0,0:0:0:0:
256,192,59008,1,0,0:0:0:0:
256,192,59230,1,8,0:0:0:0:
256,192,59897,1,8,0:0:0:0:
256,192,60119,1,8,0:0:0:0:
256,192,61008,1,0,0:0:0:0:
256,192,61230,1,12,0:0:0:0:
256,192,61453,1,12,0:0:0:0:
256,192,61897,1,12,0:0:0:0:
256,192,62786,1,4,0:0:0:0:
256,192,63230,1,8,0:0:0:0:
256,192,63674,1,8,0:0:0:0:
256,192,63897,1,0,0:0:0:0:
256,192,64119,1,8,0:0:0:0:
256,192,64341,1,0,0:0:0:0:
256,192,64786,1,0,0:0:0:0:
256,192,65008,1,8,0:0:0:0:
256,192,65230,1,8,0:0:0:0:
256,192,65674,1,0,0:0:0:0:
256,192,65897,1,8,0:0:0:0:
256,192,66341,1,8,0:0:0:0:
256,192,66786,1,8,0:0:0:0:
256,192,67230,1,8,0:0:0:0:
256,192,67452,1,0,0:0:0:0:
256,192,67674,1,0,0:0:0:0:
256,192,67897,1,8,0:0:0:0:
256,192,68341,1,0,0:0:0:0:
256,192,68563,1,0,0:0:0:0:
256,192,68786,1,8,0:0:0:0:
256,192,69230,1,0,0:0:0:0:
256,192,69674,1,8,0:0:0:0:
256,192,69897,1,0,0:0:0:0:
256,192,70341,1,0,0:0:0:0:
256,192,70786,1,0,0:0:0:0:
256,192,71008,1,8,0:0:0:0:
256,192,71230,1,8,0:0:0:0:
256,192,71452,1,0,0:0:0:0:
256,192,72119,1,8,0:0:0:0:
256,192,72563,1,8,0:0:0:0:
256,192,73008,1,0,0:0:0:0:
256,192,73452,1,8,0:0:0:0:
256,192,74119,1,0,0:0:0:0:
256,192,74341,1,0,0:0:0:0:
256,192,75230,1,0,0:0:0:0:
256,192,75674,1,8,0:0:0:0:
256,192,76119,1,8,0:0:0:0:
256,192,76341,1,8,0:0:0:0:
256,192,76563,1,0,0:0:0:0:
256,192,77008,1,4,0:0:0:0:
256,192,77452,1,8,0:0:0:0:
256,192,77897,1,8,0:0:0:0:
256,192,78119,1,0,0:0:0:0:
256,192,78341,1,8,0:0:0:0:
256,192,78563,1,0,0:0:0:0:
256,192,79008,1,0,0:0:0:0:
256,192,79230,1,8,0:0:0:0:
256,192,79452,1,8,0:0:0:0:
256,192,79897,1,0,0:0:0:0:
256,192,80119,1,8,0:0:0:0:
256,192,80563,1,8,0:0:0:0:
256,192,81008,1,0,0:0:0:0:
256,192,81452,1,8,0:0:0:0:
256,192,81674,1,0,0:0:0:0:
256,192,82119,1,8,0:0:0:0:
256,192,83230,1,0,0:0:0:0:
256,192,83563,1,0,0:0:0:0:
256,192,83897,1,0,0:0:0:0:
256,192,84119,1,8,0:0:0:0:
256,192,84563,1,0,0:0:0:0:
256,192,85008,1,0,0:0:0:0:
256,192,85452,1,8,0:0:0:0:
256,192,85897,1,8,0:0:0:0:
256,192,86341,1,0,0:0:0:0:
256,192,86785,1,0,0:0:0:0:
256,192,87230,1,8,0:0:0:0:
256,192,87452,1,0,0:0:0:0:
256,192,87674,1,12,0:0:0:0:
256,192,88562,1,8,0:0:0:0:
256,192,88785,1,0,0:0:0:0:
256,192,89229,1,12,0:0:0:0:
256,192,89674,1,8,0:0:0:0:
256,192,89896,1,8,0:0:0:0:
256,192,90340,1,8,0:0:0:0:
256,192,90785,1,0,0:0:0:0:
256,192,91229,1,8,0:0:0:0:
256,192,91674,1,0,0:0:0:0:
256,192,91896,1,0,0:0:0:0:
256,192,92785,1,12,0:0:0:0:
256,192,93229,1,0,0:0:0:0:
256,192,93451,1,8,0:0:0:0:
256,192,93674,1,12,0:0:0:0:
256,192,94118,1,8,0:0:0:0:
256,192,94340,1,8,0:0:0:0:
256,192,94562,1,4,0:0:0:0:
256,192,94785,12,0,101896,0:0:0:0:
