osu file format v14

[General]
AudioFilename: audio.mp3
AudioLeadIn: 0
PreviewTime: 62084
Countdown: 0
SampleSet: Soft
StackLeniency: 0.4
Mode: 0
LetterboxInBreaks: 0
WidescreenStoryboard: 1

[Editor]
Bookmarks: 101973
DistanceSpacing: 1
BeatDivisor: 2
GridSize: 8
TimelineZoom: 1

[Metadata]
Title:Happiness Encore (Cut Ver.)
TitleUnicode:ハピネスアンコール (Cut Ver.)
Artist:Petit Rabbit's
ArtistUnicode:Petit Rabbit's
Creator:Momochikun
Version:Normal
Source:ご注文はうさぎですか?? ~Dear My Sister~
Tags:gochuumon wa usagi desu ka?? gochiusa ごちうさ is the order a rabbit?? rabbit house 保登心愛 hoto cocoa 佐倉綾音 sakura ayane 香風智乃 kafuu chino 水瀬いのり minase inori 天々座理世 tedeza rize 種田梨沙 taneda risa 宇治松千夜 ujimatsu chiya 佐藤聪美 satou satomi 桐間紗路 kirima syaro sharo 内田真礼 uchida maaya anime japanese jpop pop j-pop album セカイがカフェになっちゃった!
BeatmapID:4500944
BeatmapSetID:1509111

[Difficulty]
HPDrainRate:3
CircleSize:3.5
OverallDifficulty:4
ApproachRate:4.5
SliderMultiplier:1.1
SliderTickRate:1

[Events]
//Background and Video events
0,0,"bg.png",0,0
//Break Periods
//Storyboard Layer 0 (Background)
//Storyboard Layer 1 (Fail)
//Storyboard Layer 2 (Pass)
//Storyboard Layer 3 (Foreground)
//Storyboard Layer 4 (Overlay)
//Storyboard Sound Samples

[TimingPoints]
647,444.444444444444,4,2,1,50,1,0
2424,444.444444444444,4,2,1,50,1,0
2424,-100,4,2,1,60,0,1
2535,-100,4,2,1,60,0,0
7757,-100,4,2,1,60,0,0
9758,-100,4,2,1,60,0,0
15424,-100,4,2,1,30,0,0
18424,-100,4,2,1,55,0,0
46869,-100,4,2,1,60,0,0
53980,-100,4,2,1,55,0,0
57535,-100,4,2,1,55,0,0
61313,-100,4,2,1,55,0,0
62202,-100,4,2,1,55,0,0
62868,444.444444444444,4,2,1,50,1,0
62868,-100,4,2,1,65,0,1
77090,-100,4,2,1,65,0,0
77534,-100,4,2,1,65,0,1
84645,-100,4,2,1,60,0,1
87756,-100,4,2,1,60,0,0
94757,-100,4,2,1,30,0,0
96645,-100,4,2,1,20,0,0
100201,-100,4,2,1,10,0,0

[Colours]
Combo1 : 168,168,255
Combo2 : 255,157,111
Combo3 : 255,255,128
Combo4 : 85,200,255

[HitObjects]
452,329,647,6,0,L|336:300,1,110,2|0,0:0|0:0,0:0:0:0:
306,263,1313,1,2,0:0:0:0:
306,263,1535,2,0,P|314:222|306:174,2,82.5,8|2|4,0:3|0:0|0:3,0:0:0:0:
255,286,2424,6,0,P|201:291|136:253,1,110,4|8,0:0|0:0,0:0:0:0:
47,304,3313,2,0,P|26:247|35:187,1,110,8|8,0:0|0:0,0:0:0:0:
59,151,3980,1,0,0:0:0:0:
59,151,4202,2,0,L|176:122,1,110,10|8,0:0|0:0,0:0:0:0:
261,70,5091,2,0,L|274:17,2,55,8|2|8,0:0|0:0|0:0,0:0:0:0:
306,100,5758,5,2,0:0:0:0:
306,100,5980,2,0,P|362:75|427:88,1,110,8|8,0:0|0:0,0:0:0:0:
481,162,6869,2,0,P|425:187|360:174,1,110,8|8,0:0|0:0,0:0:0:0:
330,281,7758,2,0,L|201:252,1,110,10|10,0:0|0:0,0:0:0:0:
173,231,8424,1,0,0:0:0:0:
127,262,8646,2,0,L|139:317,2,55,10|0|10,0:0|0:0|0:0,0:0:0:0:
38,196,9535,5,12,0:0:0:0:
72,91,9980,2,0,L|128:67,1,55,10|0,0:0|0:0,0:0:0:0:
172,46,10424,2,0,P|223:66|276:54,1,110,8|8,0:0|0:0,0:0:0:0:
329,45,11091,1,0,0:0:0:0:
378,68,11313,2,0,L|356:206,1,110,10|8,0:0|0:0,0:0:0:0:
258,218,12202,2,0,L|274:274,1,55,8|2,0:0|0:0,0:0:0:0:
254,322,12646,2,0,L|318:347,1,55,8|2,0:0|0:0,0:0:0:0:
356,322,13091,5,8,0:0:0:0:
356,322,13313,1,8,0:0:0:0:
404,225,13758,1,8,0:0:0:0:
404,225,13980,1,8,0:0:0:0:
381,119,14424,1,8,0:0:0:0:
381,119,14646,1,8,0:0:0:0:
283,67,15091,1,8,0:0:0:0:
283,67,15313,2,0,P|222:88|138:66,2,110,12|2|2,0:0|0:0|0:0,0:0:0:0:
256,192,16646,12,4,18424,0:0:0:0:
89,143,19313,6,0,P|52:193|56:249,1,110,0|8,0:0|0:0,0:0:0:0:
84,283,19980,2,0,L|197:311,1,110,2|0,0:0|0:0,0:0:0:0:
237,337,20646,1,8,0:0:0:0:
237,337,20869,1,2,0:0:0:0:
310,254,21313,2,0,P|364:234|397:232,2,55,0|8|0,0:0|0:0|0:0,0:0:0:0:
262,226,21980,6,0,P|212:177|205:101,1,110,2|8,0:0|0:0,0:0:0:0:
125,60,22869,2,0,P|182:33|255:43,1,110,0|8,0:0|0:0,0:0:0:0:
278,55,23535,2,0,L|395:35,1,110,2|0,0:0|0:0,0:0:0:0:
436,60,24202,1,8,0:0:0:0:
436,60,24424,2,0,P|419:123|420:177,1,110,2|0,0:0|0:0,0:0:0:0:
439,218,25091,1,8,0:0:0:0:
363,297,25535,6,0,P|304:307|243:266,1,110,2|8,0:0|0:0,0:0:0:0:
170,223,26424,2,0,P|111:213|50:254,1,110,0|8,0:0|0:0,0:0:0:0:
16,255,27091,2,0,L|26:138,1,110,2|0,0:0|0:0,0:0:0:0:
67,110,27758,1,8,0:0:0:0:
67,110,27980,1,2,0:0:0:0:
167,64,28424,2,0,L|154:7,2,55,0|8|0,0:0|0:0|0:0,0:0:0:0:
209,99,29091,6,0,P|261:119|321:109,1,110,4|8,0:0|0:0,0:0:0:0:
363,88,29758,2,0,P|416:66|474:69,1,110,4|0,0:0|0:0,0:0:0:0:
501,110,30424,1,8,0:0:0:0:
501,110,30646,2,0,P|518:164|508:222,1,110,4|0,0:0|0:0,0:0:0:0:
474,257,31313,1,12,0:0:0:0:
311,286,31980,2,0,L|287:349,2,55,2|8|8,0:0|0:0|0:0,0:0:0:0:
321,231,32646,6,0,B|264:208|264:208|201:227,1,110,4|8,0:0|0:0,0:0:0:0:
115,179,33535,2,0,L|89:240,2,55,2|0|8,0:0|0:0|0:0,0:0:0:0:
158,145,34202,2,0,P|125:89|132:26,1,110,2|0,0:0|0:0,0:0:0:0:
178,23,34869,1,8,0:0:0:0:
178,23,35091,2,0,P|252:47|295:42,1,110,2|0,0:0|0:0,0:0:0:0:
333,21,35758,1,8,0:0:0:0:
378,121,36202,6,0,P|357:185|351:239,1,110,2|8,0:0|0:0,0:0:0:0:
278,310,37091,2,0,P|290:345|302:367,2,55,0|0|8,0:0|0:0|0:0,0:0:0:0:
234,275,37758,2,0,P|172:268|121:300,1,110,2|0,0:0|0:0,0:0:0:0:
80,309,38424,1,8,0:0:0:0:
80,309,38646,2,0,P|46:255|42:198,1,110,2|2,0:0|0:0,0:0:0:0:
74,166,39313,1,8,0:0:0:0:
112,62,39758,6,0,L|234:37,1,110,4|8,0:0|0:0,0:0:0:0:
309,103,40646,2,0,L|428:127,1,110,2|8,0:0|0:0,0:0:0:0:
469,142,41313,2,0,P|478:208|449:263,1,110,4|0,0:0|0:0,0:0:0:0:
411,269,41980,1,8,0:0:0:0:
307,231,42424,2,0,L|242:215,1,55,2|2,0:0|0:0,0:0:0:0:
201,235,42869,2,0,L|148:254,1,55,8|2,0:0|0:0,0:0:0:0:
99,277,43313,6,0,L|114:166,1,110,4|8,0:0|0:0,0:0:0:0:
68,135,43980,1,4,0:0:0:0:
147,59,44424,2,0,L|207:77,1,55,2|8,0:0|0:0,0:0:0:0:
252,89,44869,2,0,P|256:153|230:204,1,110,4|2,0:0|0:0,0:0:0:0:
195,228,45535,2,0,L|167:288,1,55,8|2,0:0|0:0,0:0:0:0:
139,322,45980,2,0,L|61:346,2,82.5,2|8|8,0:0|0:0|0:3,0:0:0:0:
187,350,46869,6,0,P|250:372|315:354,1,110,12|8,0:0|0:0,0:0:0:0:
373,292,47758,2,0,P|378:214|341:168,1,110,8|8,0:0|0:0,0:0:0:0:
322,160,48424,1,0,0:0:0:0:
322,160,48646,2,0,L|337:35,1,110,8|8,0:0|0:0,0:0:0:0:
228,25,49535,2,0,L|171:40,1,55,8|0,0:0|0:0,0:0:0:0:
141,83,49980,1,8,0:0:0:0:
46,139,50424,6,0,P|38:211|69:270,1,110,8|8,0:0|0:0,0:0:0:0:
91,282,51091,2,0,P|155:249|212:259,1,110,0|2,0:0|0:0,0:0:0:0:
241,273,51758,1,8,0:0:0:0:
241,273,51980,2,0,L|358:251,1,110,4|0,0:0|0:0,0:0:0:0:
399,274,52646,1,8,0:0:0:0:
467,187,53091,2,0,P|491:132|492:111,1,55,0|8,0:0|0:3,0:0:0:0:
482,83,53535,2,0,L|423:63,1,55,8|0,0:0|0:3,0:0:0:0:
380,40,53980,6,0,L|260:77,1,110,8|8,0:3|0:0,0:0:0:0:
173,28,54869,2,0,L|145:137,1,110,2|8,0:0|0:0,0:0:0:0:
98,163,55535,2,0,P|90:228|107:280,1,110,4|0,0:0|0:0,0:0:0:0:
144,304,56202,1,8,0:0:0:0:
251,281,56646,2,0,L|274:362,2,82.5,2|2|0,0:0|0:0|0:0,0:0:0:0:
298,253,57535,6,0,P|354:231|377:168,1,110,4|8,0:0|0:0,0:0:0:0:
398,141,58202,1,2,0:0:0:0:
398,141,58424,2,0,L|280:82,1,110,8|8,0:0|0:0,0:0:0:0:
202,40,59313,2,0,L|75:74,1,110,8|8,0:0|0:0,0:0:0:0:
92,127,59980,1,2,0:0:0:0:
92,127,60202,2,0,P|56:185|54:237,1,110,8|8,0:0|0:0,0:0:0:0:
120,316,61091,6,0,L|185:342,1,55,8|10,0:0|0:0,0:0:0:0:
222,355,61535,2,0,P|261:328|323:324,1,110,10|8,0:0|0:0,0:0:0:0:
375,337,62202,1,2,0:0:0:0:
375,337,62424,2,0,P|396:293|396:265,1,55,4|0,0:3|0:0,0:0:0:0:
426,241,62869,6,0,L|397:124,1,110,4|8,0:0|0:0,0:0:0:0:
334,45,63756,2,0,L|276:57,1,55,8|2,0:0|0:0,0:0:0:0:
232,83,64200,1,8,0:0:0:0:
232,83,64422,2,0,P|177:92|126:57,1,110,2|0,0:0|0:0,0:0:0:0:
86,35,65089,1,8,0:0:0:0:
86,35,65311,2,0,L|55:154,1,110,2|2,0:0|0:0,0:0:0:0:
26,186,65978,2,0,L|39:242,1,55,8|2,0:0|0:0,0:0:0:0:
54,292,66422,5,8,0:0:0:0:
160,319,66867,1,8,0:0:0:0:
266,344,67311,2,0,L|326:328,1,55,8|2,0:0|0:0,0:0:0:0:
372,344,67756,1,8,0:0:0:0:
372,344,67978,2,0,P|404:292|397:235,1,110,2|2,0:0|0:0,0:0:0:0:
445,212,68644,1,8,0:0:0:0:
445,212,68867,2,0,L|431:102,1,110,2|2,0:0|0:0,0:0:0:0:
453,52,69533,2,0,L|395:36,1,55,8|2,0:0|0:0,0:0:0:0:
346,24,69978,5,8,0:0:0:0:
286,116,70422,1,8,0:0:0:0:
179,88,70867,2,0,P|124:77|103:75,1,55,8|2,0:0|0:0,0:0:0:0:
75,53,71311,2,0,P|35:77|15:91,1,55,8|2,0:0|0:0,0:0:0:0:
38,136,71756,2,0,L|23:258,1,110,8|8,0:0|0:0,0:0:0:0:
81,339,72644,1,8,0:0:0:0:
181,294,73089,1,8,0:0:0:0:
288,270,73533,6,0,P|357:256|416:277,1,110,8|8,0:0|0:0,0:0:0:0:
444,287,74200,1,2,0:0:0:0:
444,287,74422,2,0,P|473:231|457:162,1,110,8|8,0:0|0:0,0:0:0:0:
374,128,75311,6,0,L|395:50,2,73.3333333333333,12|8|8,0:0|0:0|0:0,0:0:0:0:
306,156,76200,6,0,P|265:160|197:123,1,110,8|2,0:0|0:0,0:0:0:0:
109,74,77089,5,2,0:0:0:0:
28,148,77533,1,4,0:0:0:0:
14,257,77978,2,0,L|38:316,1,55,4|2,0:0|0:0,0:0:0:0:
85,328,78422,1,8,0:0:0:0:
85,328,78644,2,0,P|143:292|208:300,1,110,4|2,0:0|0:0,0:0:0:0:
230,263,79311,1,8,0:0:0:0:
230,263,79533,2,0,L|343:298,1,110,2|2,0:0|0:0,0:0:0:0:
380,327,80200,2,0,L|435:309,1,55,8|2,0:0|0:0,0:0:0:0:
469,269,80644,5,4,0:0:0:0:
492,161,81089,1,8,0:0:0:0:
395,107,81533,2,0,L|377:42,2,55,2|0|8,0:0|0:0|0:0,0:0:0:0:
363,152,82200,2,0,P|301:168|232:151,1,110,4|2,0:0|0:0,0:0:0:0:
206,138,82867,1,8,0:0:0:0:
206,138,83089,2,0,P|153:134|101:181,1,110,4|0,0:0|0:0,0:0:0:0:
63,197,83756,2,0,L|46:269,1,55,8|0,0:0|0:0,0:0:0:0:
50,305,84200,5,8,0:0:0:0:
158,320,84644,1,12,0:0:0:0:
266,335,85089,1,2,0:0:0:0:
375,347,85533,1,12,0:0:0:0:
449,266,85978,2,0,P|471:208|461:155,1,110,2|8,0:0|0:0,0:0:0:0:
433,116,86644,1,0,0:0:0:0:
397,74,86867,2,0,P|337:88|272:82,1,110,12|8,0:0|0:0,0:0:0:0:
241,58,87533,5,8,0:0:0:0:
241,58,87755,2,0,L|160:166,1,110,4|8,0:0|0:0,0:0:0:0:
90,216,88644,2,0,L|75:155,2,55,2|0|8,0:0|0:0|0:0,0:0:0:0:
67,266,89311,2,0,P|128:287|179:275,1,110,4|2,0:0|0:0,0:0:0:0:
217,248,89978,1,8,0:0:0:0:
305,313,90422,2,0,L|369:302,1,55,0|2,0:0|0:0,0:0:0:0:
406,332,90867,2,0,L|470:321,1,55,8|2,0:0|0:0,0:0:0:0:
503,289,91311,6,0,L|521:163,1,110,4|8,0:0|0:0,0:0:0:0:
475,145,91978,2,0,P|425:108|365:115,1,110,0|8,0:0|0:3,0:0:0:0:
327,127,92644,1,8,0:0:0:0:
327,127,92867,1,4,0:0:0:0:
228,78,93311,2,0,L|166:55,2,55,8|8|4,0:3|0:0|0:0,0:0:0:0:
145,150,94200,2,0,L|83:127,2,55,2|8|4,0:0|0:0|0:0,0:0:0:0:
256,192,94867,12,0,101978,0:0:0:0:
